BluRayCD Forum

 找回密码
 立即注册【分享大片】

QQ登录

只需一步,快速开始

查看: 21|回复: 1
收起左侧

[动作战争] 看门人/夺命守门人(台) The Doorman 2020 1080p BluRaycd x264-WoAT 9.57GB

[复制链接]

4023

主题

4398

帖子

3万

积分

Post Share

金币
7676 枚
体力
6895 点

卓越贡献勋章

mvods 发表于 2020-10-24 21:18:09 | 显示全部楼层 |阅读模式

* T6 D3 v$ S; e! m+ |2 H& y1 x- D, J+ R: x& f0 `" T
◎译  名 看门人/夺命守门人(台)
; D+ C) H9 Z5 h# r. ~0 o8 N: h  h◎片  名 Doorman
! R, `5 t( ~' n+ _( |" S% O◎年  代 2020& r1 [7 j5 g+ Y( p- a$ }+ A% R
◎产  地 美国7 O  X/ e, H7 }/ K$ C' k* G
◎类  别 动作/惊悚
9 d0 t$ q: w) e; U0 V' E! O  F0 X5 A( b◎语  言 英语
; Q1 u& V$ t7 K. p  ]( J3 `◎上映日期 2020-10-09(美国)
! Q. V1 \7 @) W' J# A! w. `# \◎IMDb评分  4.4/10 from 1,408 users! w* H- P$ z$ X) z
◎IMDb链接  https://www.imdb.com/title/tt6222118/
6 z1 |! M& e$ r1 r+ ~! k◎豆瓣评分 4.8/10 from 651 users
, t6 ?  H' j" I# V  F" K0 D◎豆瓣链接 https://movie.douban.com/subject/27190023/" O0 J5 ^0 @/ s! I
◎片  长 1 h 37 min9 [- \" }2 c% U
◎导  演 北村龙平 Ryûhei Kitamura
2 B: M7 z/ e) i7 T/ D2 Q% F4 M( V◎编  剧 Lior Chefetz5 i# b6 @2 X8 M! k; B
       Joe Swanson
$ a! S0 c" F( Q! |       格雷格·威廉姆斯 Greg Williams& }- o/ v+ G- G2 Q  f$ o4 W
       Matt McAllester
" v3 J' l  x9 c7 d◎主  演 鲁比·罗丝 Ruby Rose
1 u+ u+ c& Z; G5 v6 g; j+ ~: q/ @       让·雷诺 Jean Reno4 e# [  k( n( d. a
       阿卡塞尔·亨涅 Aksel Hennie) h  U) A' J4 w4 d/ h& W- a% y. G
       鲁珀特·伊文斯 Rupert Evans
0 K/ W4 b$ X1 h0 i* \       朱利安·费德 Julian Feder& n, w  v5 |5 B2 c( R
       大卫·樱井 David Sakurai
( B: y0 A! M& s& i% i' g4 w6 Y       路易·曼迪勒 Louis Mandylor
7 z7 @5 P0 r$ H( w       伊藤英明 Hideaki Ito0 k4 g# P( Z5 u' n; T% [
       Philip Whitchurch) C. u# o5 d: x! b, x9 ?9 c* {! b- U
       安德烈娅·瓦西里 Andreea Vasile. N0 l" A, Q% X$ E
       Raynor van de Water5 S( B& J: |" `8 o+ [
       丹·凯德 Dan Cade
8 S4 k1 W% A4 \4 d' i& s! t6 q) C       Andreea Androne' B! y" U  l0 A3 o7 t2 E' ?; z
       Jo Marr# y" c0 I3 q! c) R9 A6 ~
       Jamie Satterthwaite+ W4 g) Q9 f9 O
       Kíla Lord Cassidy
# D% H% w4 L& q# u) |- X7 j! r. ~& x5 R3 ?. m
◎标  签 让·雷诺 | 美国电影 | 动作 | 伊藤英明 | 惊悚 | 2020 | 美国 | 犯罪; K: d+ C6 ~( b9 [4 t- S& `" q/ b
; ^8 R6 A! R& a# o0 d6 d- }0 Y6 I
◎简  介  $ v8 e3 s; W0 z# |& v" T3 l$ l5 S) l
* c2 @5 R. U  {7 q; m
  故事讲述一名海军陆战队军官在服役期间受到心理创伤,她回国寻找机会治疗。她在纽约的一座历史悠久、迷宫一样的公寓大楼当看门人,发现雇佣兵们有意摧毁一切,以便寻找公寓中的珍宝。% D5 u5 X  y0 k$ c/ d
* L5 d% j8 S4 V
  A woman returns from combat and befriends a family in NYC. A gang of thieves plot to take the family's valuables, and she is all that stands between them and their lives.
3 w. `) P" w# |" @) z
Video# w# E2 h" V0 C9 `# k
ID                                       : 1+ A( z. [2 T( V* @
Format                                   : AVC& x( m, B+ a, z) L& x& ~, K" |2 i
Format/Info                              : Advanced Video Codec
% _4 F1 C% C4 kFormat profile                           : High@L4.1) U" X9 y! W( Z' F' d0 E
Format settings                          : CABAC / 5 Ref Frames
1 \' X: e8 o+ y3 RFormat settings, CABAC                   : Yes
' l4 ?9 \! Q) e% C& aFormat settings, Reference frames        : 5 frames
7 W$ I, t  q* }7 ]" ^. _' R- VCodec ID                                 : V_MPEG4/ISO/AVC9 J+ ~  A' z9 v$ B) M
Duration                                 : 1 h 37 min( x/ ]! \& k+ @0 F$ Z
Bit rate                                 : 11.1 Mb/s! A  ^2 Q- C) s* T$ t+ q
Width                                    : 1 920 pixels7 @9 z8 P$ q8 P  i; t# I7 ~/ q
Height                                   : 804 pixels  I0 U$ a  t! [; @2 u& H
Display aspect ratio                     : 2.40:1
- m6 {, ?" E4 R* J* OFrame rate mode                          : Constant
' ~/ B& O: n; _. B8 o5 Q$ w* TFrame rate                               : 23.976 (24000/1001/37687) FPS0 ?  [5 @7 \7 H3 D$ S9 T
Color space                              : YUV0 B- o% P7 R/ w
Chroma subsampling                       : 4:2:0% }2 X4 e$ U3 v1 _, _
Bit depth                                : 8 bits, i) n5 F& G7 q: ]/ d0 D) T
Scan type                                : Progressive! K' g7 ~- d9 R! X& W0 N
Bits/(Pixel*Frame)                       : 0.300" B  Q$ }7 b( v2 C$ H
Stream size                              : 7.54 GiB (79%), c  L, k3 N' _6 T  g
Writing library                          : x264 core 161 r3018 db0d417
7 o3 Y7 f  d% p- `& g# O( A. GEncoding settings                        : cabac=1 / ref=5 / deblock=1:-3:-3 / analyse=0x3:0x133 / me=umh / subme=9 / psy=1 / psy_rd=1.00:0.00 / mixed_ref=1 / me_range=32 / chroma_me=1 / trellis=2 / 8x8dct=1 / cqm=0 / deadzone=21,11 / fast_pskip=0 / chroma_qp_offset=-2 / threads=16 / lookahead_threads=2 / sliced_threads=0 / nr=0 / decimate=0 / interlaced=0 / bluray_compat=0 / constrained_intra=0 / bframes=8 / b_pyramid=2 / b_adapt=2 / b_bias=0 / direct=3 / weightb=1 / open_gop=0 / weightp=2 / keyint=250 / keyint_min=23 / scenecut=40 / intra_refresh=0 / rc_lookahead=60 / rc=crf / mbtree=1 / crf=16.0 / qcomp=0.60 / qpmin=0 / qpmax=69 / qpstep=4 / ip_ratio=1.40 / aq=3:0.88
6 ~4 E% N% {  `1 A, m1 n# S! tDefault                                  : Yes$ M! x1 r. t# U% p
Forced                                   : No8 O4 N* c; O9 j
Color range                              : Limited
; t2 M& O4 l% L) uMatrix coefficients                      : BT.709& Y/ |/ T- F. _  T+ f' E) n9 G5 k
Audio; O# d/ P2 Y. k% p
ID                                       : 2- p8 M+ L- Q6 o  H5 U* k
Format                                   : MLP FBA0 t8 f* i* U/ V+ Z
Format/Info                              : Meridian Lossless Packing FBA
; u- Q' ^9 g5 R# g7 v8 _Commercial name                          : Dolby TrueHD7 |" d# K. p* W& n: j
Codec ID                                 : A_TRUEHD
, ?. ^2 l2 @# {- S6 V  T2 G& fDuration                                 : 1 h 37 min- }( S7 F& Y5 ~, v: I
Bit rate mode                            : Variable/ `0 c' p, C$ J& G# o
Bit rate                                 : 2 865 kb/s
- \7 g5 c2 H' ~* wMaximum bit rate                         : 4 665 kb/s8 j' x' f$ x# l% F+ B8 ~
Channel(s)                               : 6 channels
' W5 E! t0 l9 `( OChannel layout                           : L R C LFE Ls Rs
( |: f# U+ d- z0 C4 xSampling rate                            : 48.0 kHz
' ]# \. B! k  t2 {Frame rate                               : 1 200.000 FPS (40 SPF)/ w7 y7 B  H7 w8 L' x
Compression mode                         : Lossless
' B6 [; k  E8 ?: \Stream size                              : 1.95 GiB (20%)( W6 o2 b) u$ k( c' @# ~/ d6 M9 @' r
Title                                    : English9 r7 \6 @8 ?$ _1 C5 E! S" l6 [
Language                                 : English& c( u* u, Q! w% N* k& A
Default                                  : No4 A8 j6 u8 D; f7 b' c
Forced                                   : No% B# z9 s; U/ ^+ A; l! V0 _
Text #15 k* N& S. g: E/ m
ID                                       : 3
9 P2 J, f' R9 I; Q$ P8 G6 z) WFormat                                   : PGS- @. _" l% m9 e$ [
Muxing mode                              : zlib
* ]% M1 L" s. u  P0 |/ JCodec ID                                 : S_HDMV/PGS) l3 ~0 f8 t6 q* G% @) j6 G3 i$ X
Codec ID/Info                            : Picture based subtitle format used on BDs/HD-DVDs! {6 R+ x+ _8 R9 g* S$ P
Duration                                 : 1 h 30 min
% p" s, a3 s% [% YBit rate                                 : 30.1 kb/s  s. l6 S5 A6 A  k
Count of elements                        : 2154" i" G# \/ `  y: S4 |1 g2 U; U' B
Stream size                              : 19.6 MiB (0%). _2 ]& p. {9 j% f6 ]
Title                                    : English
+ Y( O* \# e1 \' ^2 ELanguage                                 : English# g6 T0 Y, I% X% v: e
Default                                  : No* z8 G% E# H' ?* w8 T
Forced                                   : No
3 m, \. y5 {3 Y4 YText #2
& s4 d9 \( t& n# L5 X: {9 V; h! lID                                       : 4, j0 n9 z: C3 @2 |
Format                                   : PGS; s6 Z2 j7 D# K
Muxing mode                              : zlib
/ z: x- Z8 F  I' [Codec ID                                 : S_HDMV/PGS
$ M# ~: H! J& r% {3 I5 z% NCodec ID/Info                            : Picture based subtitle format used on BDs/HD-DVDs1 g( F/ f: e, C) T
Duration                                 : 1 h 31 min
5 h5 _( w. y( F; r: f! }  hBit rate                                 : 33.7 kb/s
& T* S* X+ P# u, o& u! y5 l! eCount of elements                        : 2540: j& z$ g' u7 R5 s7 ?- I. ^
Stream size                              : 22.0 MiB (0%)
. U. `/ e4 g2 z+ h5 M4 i  o% BTitle                                    : English (SDH)0 l$ ?" X  U% m" C: Z0 r& A
Language                                 : English
/ a/ |5 o5 g# ^7 }2 ODefault                                  : No* v% i3 p  P! `8 h8 f9 [
Forced                                   : No- u4 K3 O9 r& t5 k  O. i$ M" p
Text #3, w& N# w6 @. I6 C' G$ m
ID                                       : 5; B4 _2 A* q: Z6 e5 t5 {# e
Format                                   : PGS
8 `& o! u! k  bMuxing mode                              : zlib
2 E$ G% l4 p+ g0 [4 KCodec ID                                 : S_HDMV/PGS& v# t) G, l; S0 V, a7 P1 N$ k
Codec ID/Info                            : Picture based subtitle format used on BDs/HD-DVDs
. p0 l" ^0 c: X1 E7 b' {Duration                                 : 1 h 35 min+ \2 t1 L- {6 [$ D+ N9 F  M
Bit rate                                 : 26.1 kb/s& W* I- k/ f( f$ l. a
Count of elements                        : 2050
+ Q1 k% D- ]! sStream size                              : 17.8 MiB (0%)
5 f/ a- j0 N& g5 zTitle                                    : French. Z6 _" U$ Q& ~
Language                                 : French
! L' ]$ m$ r3 ?# C% m0 _1 n% VDefault                                  : No* T/ Z# e+ }7 z
Forced                                   : No
& P* G- T6 A% E' P6 }Text #4
/ U; A% `  z/ G" \ID                                       : 6$ ~1 f! ^: S0 z, t8 K! i+ x
Format                                   : PGS
8 m/ |+ Q; l2 j7 ?5 AMuxing mode                              : zlib) A+ ^9 e8 x( [
Codec ID                                 : S_HDMV/PGS+ n/ B7 L- t' x0 r$ z) {  J
Codec ID/Info                            : Picture based subtitle format used on BDs/HD-DVDs; q$ B9 d' v$ k4 w
Duration                                 : 1 h 35 min/ m; j$ U+ q9 B: l9 Z% y: J  V" W
Bit rate                                 : 25.7 kb/s
8 a* {- D' j* E# g& Q: @Count of elements                        : 2168/ G! Y7 f' v$ ]6 J; C! W5 ]
Stream size                              : 17.6 MiB (0%)' A3 q- W  o3 S) n
Title                                    : Spanish) q/ b6 C+ c3 |: g- N% E, s
Language                                 : Spanish5 x. Z5 B6 a' C# M% V7 ?
Default                                  : No
! |0 w6 E1 _8 _2 d) o" f4 R$ o9 a; @Forced                                   : No
' B# |: A* [+ ~  L: _- ?( r. V, ]. SMenu
/ z/ l) @5 d0 s00:00:00.000                             : en:Chapter 01- J: i9 b  s8 r: g2 [
00:06:31.641                             : en:Chapter 02
4 H- d, Q6 I) }, v, I. x" v00:10:30.921                             : en:Chapter 03
. D; ?6 B6 ^8 Y* K6 `00:17:32.968                             : en:Chapter 044 b; i( D2 C1 e  j( S5 p, ^! Z
00:22:31.308                             : en:Chapter 055 {" ^+ Z( l' s- h
00:27:07.751                             : en:Chapter 06
; k4 G5 x; L5 m! _: u3 E0 S00:34:40.328                             : en:Chapter 07
3 @4 p5 v) ^2 h# W00:42:34.301                             : en:Chapter 08+ R. ]$ i! Y4 d7 r3 G. G8 L- D; I
00:48:29.239                             : en:Chapter 09
( p. z7 \; X' L7 p00:55:32.245                             : en:Chapter 10; \' `7 M) R5 J# ?9 O/ H$ ?' R6 w3 }
00:59:49.877                             : en:Chapter 11
8 q2 j: @4 ~; H% |/ D% ?) A  N01:05:47.693                             : en:Chapter 12
3 J" h# y/ m7 ~0 p- @& T01:10:58.087                             : en:Chapter 13
/ S. j, f4 m5 \/ b# `01:16:56.486                             : en:Chapter 14* v8 H6 f/ [) [* l  {; m9 E# \# h
01:21:18.707                             : en:Chapter 15
2 ]+ J& M' v: t( h; O01:29:21.522                             : en:Chapter 16
( S: X, t  Y9 z2 x2 U
0 P/ I+ e4 B4 iThe.Doorman.2020.1080p.BluRayCD.x264-WoAT
1 @% b" v; x5 ]0 Q9 m: M" z9 F' p# u
imdb..........: https://www.imdb.com/title/tt6222118/
8 s# J8 r" l( o& h
# s* H: w5 C( d" Qdate..........: 10/23/2020
: d0 O0 y% M5 T. L! Ivideo.........: 1920x804 - 11106kb/s - crf 16.0' X9 l6 e" {; ?% f9 l$ T, l# Z& V
audio.........: English TrueHD 2865kb/s / PGS 30.1kb/s* Z4 i/ f7 L  R& ^" Y4 P
subtitles.....: English (PGS) - English SDH (PGS) - French (PGS) - Spanish (PGS) -
3 l; S; j+ u; H' D& Q7 [$ wduration......: 01:37:14;09  z5 D/ ?8 j& }: h
source........: 22600kb/s: `  F' }$ f$ |! d# I, O
size..........: 9.57GB
. [/ @' A8 Q2 T5 ]2 v' s) Epacked........: 69x150MB& |( }* E9 \7 D# h- G1 n3 v% j. }6 A
notes:

( ~3 d+ y) Z& K1 ~; H7 q& R& O/ \+ ^
游客,查看本帖隐藏内容请回复 | 加入VIP贵宾组可免积分免回复下载 了解详情 | 还不是会员:点击获取邀请码 Invitation Code

0

主题

42

帖子

302

积分

Sponsor

金币
75 枚
体力
137 点
paopichao 发表于 2020-10-25 22:15:49 | 显示全部楼层
好电影,谢谢分享!$ v' s7 @. p$ t8 G3 n% S, ?* N
love bluraycd.com!

本版积分规则

小黑屋|Archiver|蓝光电影资源网

GMT+8, 2020-12-3 02:08

快速回复 返回顶部 返回列表