BluRayCD Forum

 找回密码
 立即注册【分享大片】

QQ登录

只需一步,快速开始

查看: 38|回复: 2
收起左侧

[科幻恐怖] 秘密花园 The Secret Garden 2020 1080p BluRaycd x264 DTS-HD MA 5.1-NOGRP 13.64GB & 12.37GB

[复制链接]

4016

主题

4391

帖子

3万

积分

Post Share

金币
7658 枚
体力
6878 点

卓越贡献勋章

mvods 发表于 2020-10-24 22:05:47 | 显示全部楼层 |阅读模式
! l6 ]9 R; X/ f. Q4 K6 X" I8 c
$ v+ w7 g3 R& T& R
◎译  名 秘密花园
! s2 m# f; I: ^+ w( c% `5 b. M0 h8 l3 Y◎片  名 The Secret Garden
; L! F4 H* C& [% \4 y7 [◎年  代 2020* C  N0 ~9 p% u% p& X7 h
◎产  地 英国/法国/美国/中国大陆! c; J/ [- g3 ?* @7 T
◎类  别 剧情/奇幻
* x( g. ?: j5 v) z◎语  言 英语: Z! I: m1 S/ \3 X7 T
◎上映日期 2020-07-08(中国台湾)/2020-08-07(美国网络): @; U* c3 n8 O% X9 ]
◎IMDb评分  5.5/10 from 3,234 users6 S, }& @  D% S1 ?3 M* N
◎IMDb链接  https://www.imdb.com/title/tt2702920/
, O/ g" q2 ]' e$ `, M◎豆瓣评分 5.5/10 from 1,027 users
3 A, a4 j+ g* r* u◎豆瓣链接 https://movie.douban.com/subject/30206883/
5 q( `9 y- n! Z◎片  长 1 h 40 min, c: i; M, d; i! ]/ J
◎导  演 马克·穆登 Marc Munden9 i8 d8 G+ Z) i6 o* r8 B4 D) J
◎编  剧 杰克·索恩 Jack Thorne
. a0 B7 b5 b; ?       弗朗西丝·霍奇森·伯内特 Frances Hodgson Burnett" ^, y" }3 J' ~# e8 \0 ]4 [1 N
◎主  演 迪克西·艾格瑞克斯 Dixie Egerickx$ E9 w1 v0 w% y6 w4 l
       理查德·韩塞尔 Richard Hansell. p( p+ H9 c2 e% l3 v
       大卫·韦雷 David Verrey
! Y0 {: t" g6 u# S       汤米·吉恩·苏里奇 Tommy Gene Surridge
) ?8 y6 Q8 @- ^9 B( d       科林·费尔斯 Colin Firth+ @( _2 g9 D7 z; [
       朱丽·沃特斯 Julie Walters
/ ~9 G3 t  L% o7 e, M$ F       伊希斯·戴维斯 Isis Davis6 \) H& i& X! C, q7 S
       阿米尔·威尔森 Amir Wilson1 {" w3 n1 C1 J3 o
       伊登·黑赫斯特 Edan Hayhurst
/ }' X8 P& s' M6 X6 Z- a: e       梅芙·德莫迪 Maeve Dermody
- \4 Z8 V6 E/ {, Y: k/ T' C       杰玛·鲍威尔 Jemma Powell
6 t2 a. y- T8 r. v9 \! B: O) a       保罗·G·雷蒙德 Paul G. Raymond
* r, X7 G7 G# F+ s' ~       鲁伯特·杨 rupert young
6 ~. ~$ k6 P7 x- X1 T5 \; l
* K: r# ~' o) n) v1 _! Z( @" C◎标  签 奇幻 | 英国 | 小说改编 | 童话 | ColinFirth | 2020 | 儿童 | 电影
9 l/ a+ Z# m0 G( V# m+ r& D* c& A4 O& z& S+ l+ X
◎简  介  , i! y% d& s( p' S2 A, G
- n1 L( }& j# Y' J) g
  原小说讲述玛丽父母双亡后,生活在姨夫阴暗神秘的大房子里,闯进了禁闭已久的花园,与迪肯、柯林等人找到了快乐的源泉。
& G- s  l$ K6 B- a, z4 f  An orphaned girl discovers a magical garden hidden at her strict uncle's estate.
8 x9 l- y5 N& M
Video
7 C, o, R+ C! ^) M2 U& FID                                       : 10 ^9 h2 ~0 ~# z; ^1 N8 P( H
Format                                   : AVC! }4 a. \: P+ H" T' u% c# w
Format/Info                              : Advanced Video Codec
( A. E0 e& |1 N8 B$ N2 vFormat profile                           : High@L4.12 \& T! E2 ?" ~! J7 ?
Format settings                          : CABAC / 4 Ref Frames
( h& `, Y  W, V& b) g. U4 I) OFormat settings, CABAC                   : Yes# ]+ R% [; T# G
Format settings, Reference frames        : 4 frames, P! N+ `: B1 a) Y% V# U* I
Codec ID                                 : V_MPEG4/ISO/AVC: ~; s6 v8 v; D% c8 `3 `# M
Duration                                 : 1 h 40 min
9 k9 W# `3 D/ h% l- LBit rate                                 : 16.2 Mb/s
  }5 D" U8 ?# D: VWidth                                    : 1 920 pixels
) r# D, W& K$ j4 d6 y/ M6 ~Height                                   : 1 038 pixels
% n0 [7 ]2 S+ |* p: d/ @Display aspect ratio                     : 1.85:1
6 S0 [9 h: I. C( {6 g, _+ [. B9 M6 n$ AFrame rate mode                          : Constant( E7 K+ k1 N! Z
Frame rate                               : 23.976 (24000/1001/37687) FPS
+ b9 e" q$ a# nColor space                              : YUV; |# Z& h0 S- ?9 F9 j# K
Chroma subsampling                       : 4:2:0
5 p7 t4 a$ ?. ~  d1 g* NBit depth                                : 8 bits
# V9 Z8 `# u  F2 R/ L' J% v& A2 WScan type                                : Progressive
* }9 U: n! b* k& {Bits/(Pixel*Frame)                       : 0.339
. Y1 T5 N0 ?0 y" U2 B5 \' BStream size                              : 11.3 GiB (83%)2 ?, k; S" D( N
Writing library                          : x264 core 161 r3018+53 ~ Encoded by Mocunaman in Portugal
6 Y2 V: ~) p$ ]( U; M8 wEncoding settings                        : cabac=1 / ref=4 / deblock=1:-3:-3 / analyse=0x3:0x113 / me=umh / subme=11 / psy=1 / fade_compensate=0.00 / psy_rd=1.00:0.00 / mixed_ref=1 / me_range=32 / chroma_me=1 / trellis=2 / 8x8dct=1 / cqm=0 / deadzone=21,11 / fast_pskip=0 / chroma_qp_offset=-2 / threads=32 / lookahead_threads=5 / sliced_threads=0 / nr=0 / decimate=0 / interlaced=0 / bluray_compat=0 / constrained_intra=0 / fgo=0 / bframes=8 / b_pyramid=2 / b_adapt=2 / b_bias=0 / direct=3 / weightb=1 / open_gop=0 / weightp=2 / keyint=250 / keyint_min=23 / scenecut=40 / intra_refresh=0 / rc_lookahead=60 / rc=crf / mbtree=0 / crf=18.2000 / qcomp=0.65 / qpmin=0:0:0 / qpmax=69:69:69 / qpstep=4 / vbv_maxrate=62500 / vbv_bufsize=78125 / crf_max=0.0 / nal_hrd=none / filler=0 / ip_ratio=1.30 / pb_ratio=1.20 / aq=3:0.85 / aq-sensitivity=10.00 / aq-factor=1.00:1.00:1.00 / aq2=0 / aq3=0 / zones=3120,5832,crf=17.2/6564,7225,crf=17.2/11929,12265,crf=17.7/13033,16705,crf=17.7/17218,19309,crf=17.2/27350,28718,crf=17.2/28989,31317,crf=17.2/34738,39050,crf=17.2/44929,45481,crf=17.7/51937,52513,crf=17.7/58177,67906,crf=17.2/77544,81600,crf=17.2/82920,85097,crf=17.2/87553,91885,crf=17.7/96662,96950,crf=17.7/102236,102769,crf=17.2/111142,111702,crf=17.2/112446,114217,crf=17.2/118519,120987,crf=17.2/122361,129338,crf=17.2
8 n( p& B0 P; k# LLanguage                                 : English
  z& W8 y: `$ e) H( ^# tDefault                                  : Yes1 `, g& a# W9 |. I, ^
Forced                                   : No
( G4 B4 ~$ h$ c+ W3 SColor range                              : Limited8 L% @# ]3 m" L" Y* y4 Q
Color primaries                          : BT.709
3 R/ y, ]  T/ H  u1 |% VTransfer characteristics                 : BT.709, F" a, Y6 p/ e2 y$ k/ }% q
Matrix coefficients                      : BT.7092 x4 Y; H* R7 Q
; D5 Q, S9 ~3 `3 z) @9 [: M4 l
Audio& |4 T% m$ n% Y1 y# I* w, h
ID                                       : 2
1 m+ N8 I% m2 `3 R: y. e5 LFormat                                   : DTS XLL
4 z" A7 L6 |+ P( b0 S! Y4 N. DFormat/Info                              : Digital Theater Systems' p. E$ \/ z9 t9 N' y. i
Commercial name                          : DTS-HD Master Audio# C1 l; J6 U& L7 X- |0 M
Codec ID                                 : A_DTS$ v" v* k" i9 G( K5 D
Duration                                 : 1 h 40 min
5 b: K- G3 k' N4 m8 R2 KBit rate mode                            : Variable4 O1 |. m0 b3 q' r# y8 w
Bit rate                                 : 3 289 kb/s* t/ A! r. E4 O3 |2 {* n
Channel(s)                               : 6 channels3 v4 i. u3 d' Q+ K
Channel layout                           : C L R Ls Rs LFE
8 {; u! L! H# Z0 r2 }* D( FSampling rate                            : 48.0 kHz
! k& T; H$ b# A  Q9 d; i- B+ GFrame rate                               : 93.750 FPS (512 SPF)7 g6 v! V+ {) l5 d0 X/ \
Bit depth                                : 24 bits
, {2 @% Y$ I- l  f, d3 W% ICompression mode                         : Lossless
2 o, z1 o; j+ L6 M: ^3 ^% O: AStream size                              : 2.30 GiB (17%)
8 v: ?# R; o0 i6 ]: n7 S9 wLanguage                                 : English& m  ]% j8 ?- q4 w: A! v  k2 a9 k
Default                                  : Yes# V1 S: m6 w& V$ H
Forced                                   : No
7 j% c4 m$ f. x7 [0 j) K
* d$ H5 y' Q( {( l6 {2 GText #1
1 B+ p- b0 v& ?4 qID                                       : 30 S2 {4 H0 a( e+ n
Format                                   : UTF-8; f& c: m# ^, K5 T0 A' I
Codec ID                                 : S_TEXT/UTF8+ X& h; P+ V: Q, h, n9 O8 O
Codec ID/Info                            : UTF-8 Plain Text
, x: W4 o# m  k* `Duration                                 : 1 h 32 min
% q" S) L& Q' Y# O/ ^( fBit rate                                 : 37 b/s4 h' h% c7 r  ]% f( K- u" j
Count of elements                        : 841- d1 ~; S/ M) A% h
Stream size                              : 25.8 KiB (0%)& ^0 T) A3 n! P$ D/ k
Language                                 : English$ R9 u. y( ~2 v. Q- a% r
Default                                  : Yes' q3 @) k  }8 x9 S
Forced                                   : No# c8 g. C8 m0 _

6 M' h6 ~( [$ @+ U. GText #2
4 R. F. ]' V. a" k9 gID                                       : 43 f  v: H# q/ X
Format                                   : PGS
5 b$ p! ~; f* B3 E, i+ VMuxing mode                              : zlib
; q6 c8 t( z* D7 M+ f+ Z) P1 mCodec ID                                 : S_HDMV/PGS
) O$ A7 q& [, l% G9 fCodec ID/Info                            : Picture based subtitle format used on BDs/HD-DVDs+ k" {/ t$ G& p2 a# O4 f: R1 ]7 J
Duration                                 : 1 h 34 min3 `' b5 S2 A' h2 {% l- D
Bit rate                                 : 29.9 kb/s! P& I* Z1 D" ?, Q
Count of elements                        : 20162 c/ P$ S) t. W+ ~& }
Stream size                              : 20.1 MiB (0%)
2 e0 G( c- V" Q8 \Title                                    : English-PGS7 s" o, Y8 s* X$ ~  L
Language                                 : English
9 G7 O9 g6 G$ p. G6 X  fDefault                                  : No
& u6 V( h5 e0 Z" G9 H0 kForced                                   : No
3 n; c3 G  ~7 k6 Q! z# Q
5 z! ~% N- ?4 i& R. d& Z8 w. cText #31 ~8 _* n; w$ B# z( C+ |! K
ID                                       : 5
: ~8 S+ x( x7 q, KFormat                                   : PGS3 Y6 b& a6 e2 f; [# ^
Muxing mode                              : zlib( v. L) R! g( p4 N6 p
Codec ID                                 : S_HDMV/PGS0 f  t' u0 V+ ]5 S3 S5 K0 [& l. z
Codec ID/Info                            : Picture based subtitle format used on BDs/HD-DVDs& E: a! d  |0 c) r3 T# B4 V9 k
Duration                                 : 1 h 38 min" a* R5 M; P' p+ O5 ?& Y5 e" c
Bit rate                                 : 21.3 kb/s
1 P; O% \5 \+ i% `9 a2 j/ u1 N7 ~3 i' ZCount of elements                        : 15882 h# v; ~& \! e, E+ S
Stream size                              : 15.0 MiB (0%)
" G: r9 H( b9 u: CTitle                                    : Spanish-PGS
: U5 N1 G& G( ~' i. H' r0 qLanguage                                 : Spanish# F2 a6 O& Y3 J) j. D" |) O
Default                                  : No
2 L% P1 }9 q- s& ?8 T3 ZForced                                   : No
, R& a* w! S  s4 a  D- }
; `( X4 l% b  g5 BMenu: j; r4 @  Y- g' y; [$ F
00:00:00.000                             : en:Chapter 1
+ i4 k# p/ V' C- ]6 \* ~00:05:07.140                             : en:Chapter 2
& B# I/ ?5 Q" {7 Y( p0 y& A2 ]00:10:05.480                             : en:Chapter 38 N! d  j- ^0 j4 Y
00:15:28.803                             : en:Chapter 45 c0 O9 A+ \7 B: B$ n* d" [# X& X' z
00:20:27.810                             : en:Chapter 56 o. o% N( I: m9 T" }/ B
00:24:08.864                             : en:Chapter 6: }' e: _' w( [% h% F' d6 p
00:27:39.032                             : en:Chapter 73 ?* ~  d- \) h+ V, P
00:32:40.458                             : en:Chapter 80 W! m2 j- ~; }% j
00:37:58.568                             : en:Chapter 9
7 E6 _# r4 P$ I* M# A; u$ M00:44:15.903                             : en:Chapter 10
& I3 Q% p; V7 j' \0 A6 \00:48:41.961                             : en:Chapter 11
4 c' T4 E2 ~5 \$ D2 o/ j: V00:53:54.231                             : en:Chapter 125 E0 K6 L. e1 f
00:59:09.296                             : en:Chapter 13
  A+ Q' h& V) `% @. i01:04:29.324                             : en:Chapter 145 p, D- n3 k( \8 f& j  O
01:08:25.601                             : en:Chapter 15
8 ?; `* ^9 x! _! t! N) G1 `01:13:15.266                             : en:Chapter 16
- }8 c% @2 g. D: b* ^6 G" m01:18:22.907                             : en:Chapter 17
. d+ H4 e1 R. W+ D5 k, z  X01:23:59.451                             : en:Chapter 18
( [8 w* l: }6 j  z: o01:30:11.072                             : en:Chapter 192 P+ H" z4 B9 a) v9 H
01:34:57.525                             : en:Chapter 20
4 ?: J" R# k0 o9 ?
游客,查看本帖隐藏内容请回复 | 加入VIP贵宾组可免积分免回复下载 了解详情 | 还不是会员:点击获取邀请码 Invitation Code

0

主题

42

帖子

302

积分

Sponsor

金币
75 枚
体力
137 点
paopichao 发表于 2020-10-25 07:43:15 | 显示全部楼层
秘密花园,新片源,谢谢!

0

主题

587

帖子

2614

积分

Sponsor

金币
17 枚
体力
1455 点
QQ
七喜 发表于 2020-10-26 19:25:01 | 显示全部楼层
Bluraycd又有新电影发布了,激动中……!2 U! c- F8 C& L( q  u' j; i
至少是现在,我一天没有访问蓝光电影论坛就不爽!At least now, my day did not visit the Blu-ray Film Forum on unhappy!
+ y8 G! A/ }) H+ [3 _

本版积分规则

小黑屋|Archiver|蓝光电影资源网

GMT+8, 2020-12-2 14:52

快速回复 返回顶部 返回列表