BluRayCD Forum

 找回密码
 立即注册【分享大片】

QQ登录

只需一步,快速开始

查看: 77|回复: 7
收起左侧

[蓝光原盘] 幽冥时代3 [REMUX无损版] Tales from the Hood 3 2020 1080p BluRaycd REMUX AVC DTS-HD MA 5.1-FGT 17.29GB

[复制链接]

7927

主题

8121

帖子

6万

积分

Forum Moderator

金币
11050 枚
体力
9979 点

卓越贡献勋章

24小时 发表于 2020-12-15 22:49:06 | 显示全部楼层 |阅读模式
Academy Award®- winning director Spike Lee executive produces with writers/directors/producers Rusty Cundieff and Darin Scott in this next installment of the ground-breaking original Tales from the Hood. Following the franchise's cult classic roots, this all-new anthology, which features Tony Todd and Lynn Whitfield, is four terrifying tales that will scare and thrill audiences with its horrifying twists and social commentary.
, p, S$ k5 I1 |2 r) w) o: d) S* p8 ~
01.jpg " G" e, h, e# n( u
( d. P8 ], z# a" L* Q. B
◎译  名 幽冥时代3
- ^3 S) l$ `6 R. }( z- Z◎片  名 Tales from the Hood 3
6 c: X+ f+ S: u9 x◎年  代 2020
3 F' ^. E! F- n9 W% {9 T* v; L◎产  地 美国% o2 S- q" W- E6 K; q1 @
◎类  别 剧情/悬疑/惊悚/恐怖" J6 w4 E3 R( P! c+ j4 u7 Q' r
◎语  言 英语
1 L" l- B7 J0 E! |* I1 }  ]1 Q7 C. V◎上映日期 2020-10-06(美国)
9 y  T2 \- u& Y8 e◎IMDb评分  4.7/10 from 435 users
/ Q% R2 D9 L# Y; S+ R+ {◎IMDb链接  https://www.imdb.com/title/tt11453082/& y* j7 z! L2 g0 b' O
◎豆瓣评分 0/10 from 0 users6 F( _" v; |& \% o, T* \7 e
◎豆瓣链接 https://movie.douban.com/subject/35181308/5 J) h& C; |  @+ M
◎文件格式 x264 + DTS * b  v1 S, _; {0 d5 E, Y, d. G  ]9 d
◎视频尺寸 1920 x 1080' m% ~# l& F5 K" _% a7 C8 G
◎文件大小 1DVD 17.29 GiB
* T' m$ ~8 ]1 \& C' ]" u' z% o◎片  长 1 h 42 min
9 I) _2 M! S' `5 u$ T3 j" n; x7 R◎导  演 拉斯提·坎蒂耶夫 Rusty Cundieff
8 b1 k% ]; B6 l& t9 b       达林·斯科特 Darin Scott! X% w5 |( Z  M7 s+ [6 j
◎编  剧 拉斯提·坎蒂耶夫 Rusty Cundieff
( U( B- g# P- n       达林·斯科特 Darin Scott" g. [# r! G& Z+ R( s
◎主  演 托尼·托德 Tony Todd" j5 I, j. L, g' a& N  [
       林恩·惠特菲尔德 Lynn Whitfield
1 U2 _! v" I; M+ E3 |       杰米·M·卡利卡 Jaime M. Callica
' J/ s4 e- @+ X: Z       库珀·哈克卡比 Cooper Huckabee
! P0 @7 n; t. b       伦敦·布朗 London Brown
" k) }* B4 i4 s& Z* g) x& r& }6 J       斯蒂芬妮·西 Stephanie Sy
+ C+ V. ^' K- ?  w1 N( {' h: m       娜塔莎·伯内特 Natasha Burnett5 [) q3 ?* c7 `( r5 M$ g
       洛丽·帕帕佐普洛斯 Lorrie Papadopoulos& y. p6 q2 y( `6 R6 W+ Y- L: N

* n" F- ^( |2 z◎简  介   2 j$ @# S$ [) |' B8 K+ Q

9 D# I' O! ?& g' \) K7 B, C+ X  当威廉,一个50多岁的笨手笨脚的男人,和布鲁克林,一个6岁的孩子,试图摆脱一个看不见的邪恶,布鲁克林决定告诉威廉四个道德上的,但非常可怕的故事,以分散自己的注意力,从迫在眉睫的危险。第一个故事讲的是一个贪婪的房地产经纪人大卫,他烧毁了一套公寓,把最后剩下的房客布拉德福德一家赶出了他们的家。第二个故事涉及一些兄弟会的男孩,他们发起了一个白人至上的政党,和美国恐怖分子,神经病约翰尼,谁结束了党的暴力。第三个故事围绕着挣扎的歌手,切拉和她的富有的雇主玛丽·巴士底利亚小姐展开,切拉想杀了她,用她的钱来进一步推动她的事业。第四个故事讲的是一个小偷,他杀死了一个受害者,并在罪过后被诅咒。
. f, s1 Y: |  Y7 b& M- Z
2 p3 a; W3 p& y, i; j1 k" F  As William, a lumbering man in his 50s, and Brooklyn, a six-year-old child, try to outrun an unseen evil, Brooklyn decides to tell William four moralistic but deeply horrific stories to distract herself from the impending danger. The first story deals with a greedy real estate agent, David, who burns down an apartment to drive its last remaining tenants, The Bradford Family, out of their home. The second story concerns some frat boys who throw a white supremacist party, and the American Terrorist, Psycho Johnny, who puts a violent end to the party. The third story revolves around a struggling singer, Chela, and her rich employer, Miss Marie Bastille, who Chela wants to kill and use her money to further her career. The fourth story is about a petty thief who ends up killing one of his victims and becomes cursed in the aftermath of his sin.
4 f1 M7 r' u9 K
Video8 c; L) B1 d1 r7 [( c
ID                                       : 1( T, Y2 K. N2 J
ID in the original source medium         : 4113 (0x1011)( Y) v  }: h2 H4 }3 m
Format                                   : AVC
- d5 {6 W" F  n' f+ X# p) VFormat/Info                              : Advanced Video Codec
( j. J0 c0 H. t" ?4 H1 S( ZFormat profile                           : High@L4.1  g) y  f: Q, ~$ Q3 K
Format settings                          : CABAC / 2 Ref Frames
# D7 _9 E2 ?! O! [! lFormat settings, CABAC                   : Yes- L$ q) q+ v" t4 k
Format settings, Reference frames        : 2 frames
. O* M" {  Q% |, Q9 R+ P5 aFormat settings, GOP                     : M=1, N=5
) v9 D$ M. d/ q4 u/ M( B; rCodec ID                                 : V_MPEG4/ISO/AVC, I/ c7 P1 G6 {  q3 g; I
Duration                                 : 1 h 42 min
8 {% ^* r$ ^) R  ZBit rate mode                            : Variable
9 \* c$ w, D, `7 PBit rate                                 : 20.6 Mb/s1 p3 r1 M/ q0 ^( {% p
Maximum bit rate                         : 38.2 Mb/s
5 B; \- C) e+ l! }# UWidth                                    : 1 920 pixels( `$ P  {5 H, N# H( i% _6 P: j
Height                                   : 1 080 pixels
# E7 o( J/ l! O$ b) E$ o* NDisplay aspect ratio                     : 16:97 {: X3 N/ z: M; R* [5 ?+ ~' ]  b
Frame rate mode                          : Constant
( w8 K7 F* I3 I8 y; j! u: s# @  N# VFrame rate                               : 23.976 (24000/1001/37687) FPS9 }$ q, y" A7 d1 z3 P
Color space                              : YUV' @: E1 U( _3 W  G5 a
Chroma subsampling                       : 4:2:0( e" {; W0 o3 l) H
Bit depth                                : 8 bits
, N# A2 ^9 |( q3 SScan type                                : Progressive2 \$ C4 i# l9 D7 q2 n# t7 X  }
Bits/(Pixel*Frame)                       : 0.414
2 D# ^! [/ u1 CStream size                              : 14.7 GiB (85%)/ m9 Q9 M6 v7 ?7 K% R
Title                                    : Tales.from.the.Hood.3.2020.1080p.BluRayCD.REMUX.AVC.DTS-HD.MA.5.1-FGT" L, M- B- b3 W2 x+ G  i
Language                                 : English6 Q% F$ V4 O/ M; Z
Default                                  : No- g: _+ w0 H: q* Q9 \
Forced                                   : No5 V" x7 n3 x$ V6 T
Original source medium                   : Blu-ray' \9 R2 k- P& Y2 V

& b1 q! U* I) sAudio
# @  O' G* p& d0 D8 q" k9 V9 C7 q2 aID                                       : 29 h3 o1 Z1 u' F% `. s7 {% x
ID in the original source medium         : 4352 (0x1100)
0 p* ?$ X, K5 I, ]; K. M: h! ^) A) w& JFormat                                   : DTS XLL( X1 R  T! @, G2 V
Format/Info                              : Digital Theater Systems$ F& L- T9 P) W1 W* O
Commercial name                          : DTS-HD Master Audio! b: l0 a: z% R4 h1 h
Codec ID                                 : A_DTS) S. j7 |# ^5 U3 k" f9 i
Duration                                 : 1 h 42 min% \! b7 K( n% o2 I6 H
Bit rate mode                            : Variable9 Q; s' A5 k. z1 C
Bit rate                                 : 3 607 kb/s4 ~# O6 J! l' P
Channel(s)                               : 6 channels
; P$ f3 f0 B- t) p8 k- C2 vChannel layout                           : C L R Ls Rs LFE
8 D# G9 H8 [$ b$ s5 `1 _, BSampling rate                            : 48.0 kHz' s  x& c8 y! r' I
Frame rate                               : 93.750 FPS (512 SPF): t9 ]0 ^0 i" x( B( m8 g/ W) R
Bit depth                                : 24 bits$ K- g1 F4 ?7 P: c5 e* Z
Compression mode                         : Lossless
! R0 R' U. a+ V( gStream size                              : 2.58 GiB (15%)8 Q: h! {1 o8 ^1 [* _
Title                                    : Tales.from.the.Hood.3.2020.1080p.BluRaycd.REMUX.AVC.DTS-HD.MA.5.1-FGT9 y$ }' h$ {! I/ E0 U& s& r9 L2 Q( p
Language                                 : English! G8 I) M" ?7 @& i, _& A2 P7 l
Default                                  : Yes
4 X( ^8 E6 B: j% @. g" fForced                                   : No
- s) [' O% T/ fOriginal source medium                   : Blu-ray; ?5 V$ [1 S. g5 r2 G& x$ l; w* A

- l1 X6 k. L! t# ~7 C' L) j- iText #1* ^2 `7 B; C! e' I# A
ID                                       : 3
9 Y& Y# M+ `! j  m  C0 h) `( FFormat                                   : UTF-8
9 K8 d$ Q% ^" }: m+ ], }1 t5 R$ m! D0 ~: tCodec ID                                 : S_TEXT/UTF8
/ v, \: K8 f6 f# k; C8 T  ?Codec ID/Info                            : UTF-8 Plain Text
9 v6 f6 M8 e- s. z8 J) UDuration                                 : 1 h 36 min
9 W' G' `0 y3 q6 aBit rate                                 : 54 b/s: a* U" t  g1 a& V& u* {; T6 w
Count of elements                        : 1379
- w, k. H+ D# I/ e8 `Stream size                              : 38.7 KiB (0%)
# C  @7 z. Y- e% PTitle                                    : English-SRT
, H6 o* S+ F4 z4 oLanguage                                 : English
* V, f; G6 _7 V: E( F/ MDefault                                  : Yes
0 S- ^( f; ]) [' T$ lForced                                   : No
& }6 y9 {3 o( v+ B; N% n+ P
8 P& @+ o4 V: t$ v* d, T6 XText #2  h7 c( d2 [' \0 ~$ W
ID                                       : 4
3 g6 t6 S; N! uID in the original source medium         : 4608 (0x1200)
, l. `* u. F9 ~: N! ?: J$ x9 _Format                                   : PGS
' l! b9 i- y2 ]5 LMuxing mode                              : zlib
- ^) h" S5 W8 ^+ F1 \$ lCodec ID                                 : S_HDMV/PGS
7 E$ j. K8 x/ h) pCodec ID/Info                            : Picture based subtitle format used on BDs/HD-DVDs
; u$ G: B5 c+ Z+ h! P; |& mDuration                                 : 1 h 36 min6 @$ Z) \3 [7 r/ G0 r
Bit rate                                 : 37.8 kb/s
  R5 C5 e0 P9 s' b" {( W; p4 TCount of elements                        : 2758
4 ?# K' m" Q4 }* G9 f! pStream size                              : 26.0 MiB (0%)7 d2 A' g: h! M; o0 W
Title                                    : English-PGS
" j) f9 G( u! w  y7 i# ^Language                                 : English- s4 |1 `; G+ m& Q0 a$ O9 c
Default                                  : No! t3 v8 |1 L+ p) [$ B4 X6 M1 t
Forced                                   : No
5 L- Y' [7 L/ U- L3 nOriginal source medium                   : Blu-ray
# ^1 z3 l6 L& X' U' b# U( |$ o$ @4 P& Z! \" E
Menu& |, C9 r' S2 i8 m
00:00:00.000                             : en:Chapter 01& a  y% v9 e' e+ Q
00:10:00.850                             : en:Chapter 02
4 H9 |/ l. O0 ]; J2 |$ g: H8 A* E00:20:02.159                             : en:Chapter 038 o0 O  l7 ?( K8 H: A6 C
00:30:01.966                             : en:Chapter 04; V6 X& u/ ~6 w
00:40:01.065                             : en:Chapter 05
) M8 c# @' P! C9 p& b! O00:50:04.126                             : en:Chapter 06
  J: ]5 e& E4 t9 }& H, @; r' ~; p01:00:04.100                             : en:Chapter 07
% ~3 L% O$ V5 \8 o0 y! `01:10:04.617                             : en:Chapter 081 i* c, {( d; e, Z
01:20:05.634                             : en:Chapter 09* \/ e$ g$ G; y
01:30:05.483                             : en:Chapter 10& S0 {+ s# a$ X1 k
01:37:20.876                             : en:Chapter 11

: U  Y4 _* b; g4 k' l) B3 Y6 b
游客,查看本帖隐藏内容请回复 | 加入VIP贵宾组可免积分免回复下载 了解详情 | 还不是会员:点击获取邀请码 Invitation Code

0

主题

441

帖子

2150

积分

Sponsor

金币
4 枚
体力
1211 点
sclzywxl 发表于 2020-12-15 23:56:44 | 显示全部楼层
谢谢楼主分享

641

主题

2196

帖子

1万

积分

VIP advanced

金币
1989 枚
体力
5005 点

公主勋章卓越贡献勋章

21cn 发表于 2020-12-16 01:52:26 | 显示全部楼层
Bluraycd又有新电影发布了,激动中……!  ^5 E0 O4 Z0 ^) G+ Q- W7 I0 ~2 k+ D
至少是现在,我一天没有访问蓝光电影论坛就不爽!At least now, my day did not visit the Blu-ray Film Forum on unhappy!
' y& b2 G( S* N5 x& |1 }

26

主题

1464

帖子

7841

积分

Sponsor

金币
1087 枚
体力
3857 点
QQ
shiji1973 发表于 2020-12-16 09:21:40 | 显示全部楼层
感谢分享精彩电影

1

主题

369

帖子

1404

积分

Sponsor

金币
59 枚
体力
629 点
firendzhon 发表于 2020-12-16 12:53:48 | 显示全部楼层
幽冥时代3   谢谢分享
2020第一天 ...

70

主题

1977

帖子

7504

积分

Sponsor

金币
720 枚
体力
2736 点
lanpanshuma 发表于 2020-12-16 15:11:16 | 显示全部楼层
啥也不说了,楼主就是给力!/ d) ?1 g$ y' F- U6 `1 O/ I
bluraycd forum, a lot of Blu-ray movies!
& U# j4 s2 ~5 Z  E
该会员没有 ...

0

主题

241

帖子

1312

积分

Sponsor

金币
9 枚
体力
704 点
QQ
yinger_0909 发表于 2020-12-22 20:24:37 | 显示全部楼层

& C: c( D+ F9 F8 f" ]: J9 b幽冥时代3   谢谢分享

0

主题

441

帖子

2150

积分

Sponsor

金币
4 枚
体力
1211 点
sclzywxl 发表于 2020-12-22 23:03:16 | 显示全部楼层
谢谢楼主分享

本版积分规则

小黑屋|Archiver|蓝光电影资源网

GMT+8, 2021-1-21 09:55

快速回复 返回顶部 返回列表