BluRayCD Forum

 找回密码
 立即注册【分享大片】

QQ登录

只需一步,快速开始

查看: 55|回复: 4
收起左侧

[2160P极清] 恐袭波士顿/爱国者行动 [4K SDR高码版] Patriots Day 2016 2160p BluRaycd x265 10bit & 8bit SDR DTS-X 7.1-SWTYBLZ 44.11GB & 37.02GB

[复制链接]

5005

主题

5178

帖子

6万

积分

Post Share

金币
10248 枚
体力
17879 点

卓越贡献勋章

黄金嫖客 发表于 2021-1-1 23:20:38 | 显示全部楼层 |阅读模式
01.jpg , q# F6 r! e, n  N8 v
7 _& V, k0 P) u
◎片  名 Patriots Day
, Y  C( q5 j8 k" Z. k; B8 h1 c◎译  名 恐袭波士顿/恐袭波士顿马拉松(港)/爱国者之日/爱国者日/爱国者行动(台)
' f" g7 m; w! B8 ?4 I" b◎年  代 2016! _) A- U4 {2 l# k5 t6 K8 m9 m
◎产  地 美国' Z: \  ~9 d$ ~8 a" X
◎类  别 剧情/惊悚/历史4 A  I+ d7 ?. c' J: \- y& C+ V( v) L
◎语  言 英语
4 L6 V4 M4 H- @/ a$ d◎上映日期 2017-11-17(中国大陆)/2016-11-17(AFI影展)/2017-01-13(美国)7 ~/ n2 @4 }# q& j& n6 R
◎IMDb评分  7.4/10 from 90,768 users
3 W% R: r9 p8 F$ M◎IMDb链接  https://www.imdb.com/title/tt4572514/# f' Y& h! \  ~; X
◎豆瓣评分 8.1/10 from 86,056 users5 D: [! b) T2 u" O# U5 @
◎豆瓣链接 https://movie.douban.com/subject/26357945/( ?& Y- Z6 T* i( q) _% Q
◎文件格式 x265 + DTS
$ {- v  S4 u9 f* o) v: R5 v4 b3 W; D◎视频尺寸 3840 x 1600
6 |9 p; H+ r0 r+ o% W◎文件大小 1DVD 44.11 GiB & 37.02 GiB
4 Z/ Q+ L& S+ D9 m, e◎片  长 2 h 13 min
* ^! r( S! p% Z; h3 Z◎导  演 彼得·博格 Peter Berg/ Z5 ^. x# f& I! Z
◎编  剧 彼得·博格 Peter Berg# \0 `2 u: X5 g* Q3 ]! h
       马特·库克 Matt Cook
" x% y# q$ d2 Q* W' `       约书亚·祖特曼 Joshua Zetumer
/ S/ n4 r+ M, q       保罗·塔马西 Paul Tamasy# j# Y8 t; @$ ]; U/ d1 R
       埃瑞克·约翰逊 Eric Johnson
7 t9 y2 o& y0 Y' F& M2 a) l◎主  演 马克·沃尔伯格 Mark Wahlberg
, w/ G3 F( m! n& {1 C* S% |- }       凯文·贝肯 Kevin Bacon
! O5 r! Z/ {1 H4 A6 ]9 y! S& {% O       约翰·古德曼 John Goodman9 h. ~0 \( |' O( T1 Y& z
       米歇尔·莫纳汉 Michelle Monaghan; h  |. x# H% W. f% _
       J·K·西蒙斯 J.K. Simmons2 w, ~2 C1 ~# Z( E7 C0 N0 J
       梅莉莎·班诺伊 Melissa Benoist9 |5 F7 D6 C  B" S
       亚历克斯·沃尔夫 Alex Wolff
/ g5 e/ J/ H" b. ]$ c: |& p4 I1 @/ P       欧阳万成 Jimmy O. Yang
4 ~0 p. W8 Z& N. h' U2 T, u" l       瑞秋·布罗斯纳安 Rachel Brosnahan
" D2 u9 v7 R3 L  x       埃里卡·麦克德莫特 Erica McDermott
+ B# P  U: z9 w* D       克里斯朵夫·奥谢 Christopher O'Shea
3 T8 \/ W: F$ S8 P2 c       文森特·库拉托拉 Vincent Curatola
$ x! Z% H8 N6 X4 c1 F  G/ z       詹姆斯·科尔比 James Colby, E3 h, l2 Q9 C* I" V: [& M5 Y
       迪牟诺罗凯茨 Themo Melikidze
& ^' c0 I; I0 @8 C       拉娜·康多 Lana Condor9 F' r  O) ]/ l: {6 y, u
       伊利亚·郭 Elijah Guo
4 n+ v, Z0 f6 U9 m* Y       阿德里安·M·蒙波因特 Adrian M. Mompoint2 C; W. }6 Y4 k2 y$ s* X
       玛塞拉·贾拉米洛 Marcela Jaramillo/ y+ q8 C1 t! q- T) G
       凯文·德科斯泰 Kevin DeCoste
; j& P; Z; R9 P1 L       拉里·尤登 Larry Eudene, u' I7 S* q) J! s+ l& a/ r$ P4 x
; w) j) ~4 l/ G) {" C
◎标  签 真实事件改编 | 美国 | 反恐 | 犯罪 | 波士顿 | 剧情 | 纪实 | 2016
* ], W5 B0 T2 K7 H/ }
3 c% L7 B! i0 F# z1 s( p, o5 r/ k◎简  介
- ?5 [! I' G3 n" ~$ n7 W$ [" r' R9 Q, h) K7 q. z/ }
  影片聚焦于2013年发生的波士顿马拉松爆炸事件,是继《伦敦陷落》《深海浩劫》之后,又一高口碑灾难巨制,该片真实还原了在波士顿恐袭发生后,FBI、当地警方在102小时内全力缉捕真凶,阻止了犯罪分子下一步攻击行动的英勇事迹。- O) T2 I( a7 j. E9 {+ l, L
. _3 i- ?9 [- v$ Y) s4 O$ S1 q. Z
  An account of Boston Police Commissioner Ed Davis's actions in the events leading up to the 2013 Boston Marathon bombing and the aftermath, which includes the city-wide manhunt to find the terrorists behind it./ [- p( r0 S2 ?) t+ y6 {' [
" A/ m. V4 \, ]6 r: e; r
◎获奖情况8 n( I  E2 Z9 r4 W

; o+ E. U- K# r: r  第88届美国国家评论协会奖 (2016)/ e. b, N& S  }2 b. M
  年度佳片(提名)0 q2 w* b, d5 U# A! Q% u% l
  3 U% w2 p0 ]( A' l& U" t
  第4届豆瓣电影年度榜单 (2017)
1 t& ~$ R* X4 x" ~  评分最高的惊悚/犯罪片(提名)
6 a' ~8 ~% C- ^/ ~+ Y: |1 Q' i  11月最受关注电影(提名): o& x+ w' G. W3 f! G# p% Y
. f& ]& m; _- D9 k+ [. c
SWEATY BALLZ presents
6 |, Q) ]3 Z0 p  R  |: h+ S" k! Q6 s1 b& S3 H  L0 P4 O0 N
Patriots.Day.2016.2160p.BluRayCD.x265.10bit.SDR.DTS-X.7.1-SWTYBLZ6 c  `' K( r3 U& G  m6 e" Y2 a
Converted from 10 bit HDR to 10 bit SDR using tripple mixed Hable-Reinhard-JJ per scene+frame analysis algorithm' b* C# L6 r, @! S
Screenshots are 8bit SDR because browsers dont support HDR or 10bit files
  u8 f6 X! R! M3 x: l. H7 _* G+ u8 }+ [% n0 p
Video+ i& B6 R# u, M& {. a9 Y( k- C
ID                                       : 14 ?: N9 t  A8 @4 g% L) |, ^
Format                                   : HEVC
# e) S6 I' K' S) s* B% cFormat/Info                              : High Efficiency Video Coding3 u+ M4 w, A# P4 Q& u4 a8 Q
Format profile                           : Main 10@L5.1@High
. \: u2 b3 T6 s; W& P1 t! n% k0 vCodec ID                                 : V_MPEGH/ISO/HEVC
3 i4 t2 q8 u+ q: W% x% ?% Q% }Duration                                 : 2 h 13 min
5 P2 N0 V% }6 _Bit rate                                 : 42.0 Mb/s8 o: V0 n. q: e6 ]
Width                                    : 3 840 pixels, ^; g0 s. \7 M
Height                                   : 1 600 pixels
7 W! |6 y6 \, o3 VDisplay aspect ratio                     : 2.40:18 G" }; c9 b* G4 a0 V( H
Frame rate mode                          : Constant$ s$ ?( s0 @; I+ \/ S
Frame rate                               : 23.976 (24000/1001/37687) FPS
1 r) ?% W. Q2 O0 G- h1 C, B$ }Color space                              : YUV
2 }3 x1 p. Y$ mChroma subsampling                       : 4:2:0/ j' t6 L* c5 T/ t
Bit depth                                : 10 bits
) j! M/ }8 }; kBits/(Pixel*Frame)                       : 0.285
4 J& n* }4 E# D+ zStream size                              : 39.1GB (89%)4 O  m6 S8 F9 _
Title                                    : Patriots.Day.2016.2160p.BluRaycd.x265.10bit.SDR.DTS-X.7.1-SWTYBLZ
6 [! i$ f1 j8 a: K+ J6 V4 f1 tWriting library                          : x265 2.3+2-0dbee7ac1e59:[Windows][GCC 4.9.3][64 bit] 10bit
. Z; r% d1 h  d7 zEncoding settings                        : cpuid=1111111 / frame-threads=16 / numa-pools=24,24,24,24 / wpp / no-pmode / no-pme / no-psnr / no-ssim / log-level=2 / input-csp=1 / input-res=3840x1600 / interlace=0 / total-frames=0 / level-idc=51 / high-tier=1 / uhd-bd=0 / ref=3 / no-allow-non-conformance / repeat-headers / annexb / aud / hrd / info / hash=0 / no-temporal-layers / no-open-gop / min-keyint=1 / keyint=24 / bframes=4 / b-adapt=2 / b-pyramid / bframe-bias=0 / rc-lookahead=25 / lookahead-slices=4 / scenecut=40 / no-intra-refresh / ctu=64 / min-cu-size=8 / no-rect / no-amp / max-tu-size=32 / tu-inter-depth=1 / tu-intra-depth=1 / limit-tu=0 / rdoq-level=0 / dynamic-rd=0.00 / signhide / no-tskip / nr-intra=0 / nr-inter=0 / no-constrained-intra / strong-intra-smoothing / max-merge=2 / limit-refs=3 / no-limit-modes / me=1 / subme=2 / merange=57 / temporal-mvp / weightp / no-weightb / no-analyze-src-pics / deblock=0:0 / sao / no-sao-non-deblock / rd=3 / no-early-skip / rskip / no-fast-intra / no-tskip-fast / no-cu-lossless / no-b-intra / rdpenalty=0 / psy-rd=2.00 / psy-rdoq=0.00 / no-rd-refine / analysis-mode=0 / no-lossless / cbqpoffs=0 / crqpoffs=0 / rc=crf / crf=14.0 / qcomp=0.60 / qpstep=4 / stats-write=0 / stats-read=0 / vbv-maxrate=160000 / vbv-bufsize=160000 / vbv-init=0.9 / crf-max=0.0 / crf-min=0.0 / ipratio=1.40 / pbratio=1.30 / aq-mode=1 / aq-strength=1.00 / cutree / zone-count=0 / no-strict-cbr / qg-size=32 / no-rc-grain / qpmax=69 / qpmin=0 / sar=1 / overscan=0 / videoformat=5 / range=0 / colorprim=2 / transfer=2 / colormatrix=2 / chromaloc=0 / display-window=0 / max-cll=0,0 / min-luma=0 / max-luma=1023 / log2-max-poc-lsb=8 / vui-timing-info / vui-hrd-info / slices=1 / opt-qp-pps / opt-ref-list-length-pps / no-multi-pass-opt-rps / scenecut-bias=0.05 / no-opt-cu-delta-qp / no-aq-motion / no-hdr
$ L" v8 C; r) ?4 ?' NLanguage                                 : English# f2 ]( N% n$ t3 o/ s. Q
Default                                  : Yes
) [' d) w! v8 I: D. d5 ~# L3 @Forced                                   : No
  n0 `) [& r6 P5 T2 ?
( [- @$ }' k, x' uAudio #1! h1 U% \5 e; c$ V* Q  a
ID                                       : 2
5 R3 Z  c& [/ g: l, IFormat                                   : DTS) M1 R1 K" v" N8 L9 D/ ]
Format/Info                              : Digital Theater Systems
$ q8 b! @. L  z: G8 P/ q( lFormat profile                           : X / MA / Core
" N0 J" I6 }7 g) L; F4 AMode                                     : 162 J" @% w: |+ g6 w
Format settings, Endianness              : Big0 S) U, Z8 z7 ~0 ~
Codec ID                                 : A_DTS/ E8 @8 O4 [) r$ }; r! y
Duration                                 : 2 h 13 min7 d' G  E/ P' i$ e
Bit rate mode                            : Variable / Variable / Constant
. @+ ^, }8 A) n. I/ xBit rate                                 : 4 280 kb/s / 4 280 kb/s / 1 509 kb/s
4 Z1 ~' N! P8 UChannel(s)                               : Object Based / 8 channels / 6 channels! g) K3 `. I; o
Channel positions                        : Object Based / Front: L C R, Side: L R, Back: L R, LFE / Front: L C R, Side: L R, LFE/ w! B- d  [% R5 I& m% j, q4 J
Sampling rate                            :  / 48.0 kHz / 48.0 kHz
" e7 m' A9 I' M+ m+ `" eFrame rate                               : 93.750 FPS (512 spf)6 z' f+ n2 o3 S
Bit depth                                :  / 24 bits / 24 bits
# j2 Z7 b- C3 }$ n0 ~+ O6 f# d- Y, BCompression mode                         :  / Lossless / Lossy
9 a% `* F9 u7 r, fStream size                              : 3.98GB (9%)! v8 L" F& ~7 t2 N, k$ e
Title                                    : Patriots.Day.2016.2160p.BluRaycd.x265.10bit.SDR.DTS-X.7.1-SWTYBLZ5 Q7 I, R1 V2 D+ t: ^
Language                                 : English. V( ~) n2 _; _, R; z7 d& Y7 R$ P
Default                                  : Yes
1 w7 j3 ?$ g/ ]) [Forced                                   : No
  C' U+ i3 o1 K2 b8 j* u5 n0 D2 g8 `/ y4 y6 B4 c
Audio #2+ O5 O1 b, \% }7 h: y  S
ID                                       : 3
4 B& d6 r5 }( F, I" A" i8 J' eFormat                                   : AC-3/ d% U; B" q, a' I
Format/Info                              : Audio Coding 3, |0 g4 T5 Z7 B$ `0 M2 a- [
Format settings, Endianness              : Big
4 E6 q# K7 _# P' T1 u1 _Codec ID                                 : A_AC3
. h0 g" [' N2 y3 m. C8 CDuration                                 : 2 h 13 min
3 b7 |9 _( G! S( ]Bit rate mode                            : Constant
; T( |$ T9 m* @7 ~8 c" tBit rate                                 : 640 kb/s; ^8 S) G# v2 ^. `' m
Channel(s)                               : 6 channels
: U' E! G* X" ?. MChannel positions                        : Front: L C R, Side: L R, LFE; i# k9 s6 p4 c9 m/ p6 @! f
Sampling rate                            : 48.0 kHz
5 g4 T- K  e" e: \( t4 QFrame rate                               : 31.250 FPS (1536 spf)
! ?4 _9 N5 \8 n9 W1 Y5 ?# S) cBit depth                                : 16 bits
/ b  T- L; M0 `/ w" HCompression mode                         : Lossy4 u' f- C) v( m% t( ?1 ]
Stream size                              : 610 MiB (1%)# w$ H1 H. o6 \/ P, t
Title                                    : Patriots.Day.2016.2160p.BluRaycd.x265.10bit.SDR.DTS-X.7.1-SWTYBLZ
7 V, `! ?. l" z& A7 [: yLanguage                                 : English8 {$ B0 h# e* [1 S1 k
Service kind                             : Complete Main
! x; N, R/ c$ A9 ^Default                                  : No
5 |# F& s* r  Y8 D, F& X- pForced                                   : No4 Z5 T  I" V$ x! L/ V4 e  {

2 V$ i- G) D7 J4 aText #1
) q8 i) W, S0 z9 w8 ?ID                                       : 4
5 H0 E0 t1 H  K8 cFormat                                   : UTF-87 G0 U7 f1 E* k+ l  O
Codec ID                                 : S_TEXT/UTF8
3 U4 _( A/ x% @( U: ~4 Q4 `Codec ID/Info                            : UTF-8 Plain Text' _1 W1 S1 d  y" J, h
Duration                                 : 2 h 12 min# ^8 H% b, W; H9 ~! e& x- w
Bit rate                                 : 77 b/s
0 M' ?+ c3 o9 N8 o" w2 e/ }% \4 T! mCount of elements                        : 1872
/ S" {, d- ]9 y5 TStream size                              : 75.6 KiB (0%)5 n. l3 D' L8 Q9 E7 i5 ^' G6 v
Title                                    : English-SRT
$ N# k& Y3 W6 f8 J* V' ALanguage                                 : English
' m8 Z7 N1 K8 P! r+ yDefault                                  : Yes* E3 p. O4 ~' N
Forced                                   : No" H' H, w. u' m& m% }5 U2 V4 ^
6 q0 W( m# B$ n; Z6 q- g9 n
Text #2
! k! I8 Y" W: ]. _2 MID                                       : 5
! V1 H' R; @$ S+ O! y; `Format                                   : PGS6 M8 \5 }2 ~* b. o' q# ?7 E/ U9 \" H/ D
Muxing mode                              : zlib
, I# H+ _; g( X  pCodec ID                                 : S_HDMV/PGS8 E" t# o5 f1 O+ O. S
Codec ID/Info                            : Picture based subtitle format used on BDs/HD-DVDs
5 l# }- s" G* t1 {& [& |" j/ ]Duration                                 : 2 h 12 min' S( `# d9 h  H" J4 K! o- b
Bit rate                                 : 20.8 kb/s
5 E: f$ i+ [& Z4 P! B$ ?Count of elements                        : 4050. u0 G: B, N; k; h4 j% U. i
Stream size                              : 19.7 MiB (0%)% p5 M# |  k6 w
Title                                    : English-PGS0 |" j3 c: w# u- S
Language                                 : English/ C& I. r4 e& M- J5 |
Default                                  : No
/ |( J  {/ G# G3 {Forced                                   : No/ ]& v6 w$ |" N* ~# W

2 |+ y  s% n& }0 @" R* U6 j2 nText #3
/ r& R+ U" }2 X7 v9 ~# Y. qID                                       : 6
+ e# e) A4 L. ?2 r' M: O; N  mFormat                                   : PGS. ^: x% A- S) u5 \$ l( l0 [% Q
Muxing mode                              : zlib) q' C& Y  v4 [: Z+ F+ k
Codec ID                                 : S_HDMV/PGS! c: O) U" {- C/ H
Codec ID/Info                            : Picture based subtitle format used on BDs/HD-DVDs
( |5 h5 P4 T  j7 ]Duration                                 : 2 h 12 min
% u- @* G# n0 g1 i( ]' IBit rate                                 : 21.6 kb/s3 I$ d. f7 V7 P) G/ `- t
Count of elements                        : 4732
0 ~) m% k' \9 {$ Y  M, u) g/ H, zStream size                              : 20.5 MiB (0%)  [# O* @: ~% |( j2 o9 K
Title                                    : French-PGS* m. v6 ^7 @8 y* X1 `1 u( c
Language                                 : French
  a/ C& r, X% K7 `* xDefault                                  : No
' ^' Q  |% c. P$ b7 U" b+ ]. \Forced                                   : No2 Y3 Y. X/ y" H7 `& s7 I4 ^8 h, ]" h

4 c  V" i9 J) B$ sText #46 D7 V$ H# v: [/ c
ID                                       : 7  Z+ Q" |2 y+ W7 q6 @- N
Format                                   : PGS& Y: o; g8 v6 o; I* [; j) k
Muxing mode                              : zlib% |( j- [# j3 f* Y7 ?
Codec ID                                 : S_HDMV/PGS
$ f' h( F6 C* L8 F" o: Q3 u/ E; {8 RCodec ID/Info                            : Picture based subtitle format used on BDs/HD-DVDs
& V# u0 o- w0 E: I1 O# p( ]Duration                                 : 2 h 12 min
. J  e3 C. d9 `Bit rate                                 : 18.5 kb/s+ R3 u4 b, z/ t
Count of elements                        : 3684
& y3 Q. U& c! X! OStream size                              : 17.6 MiB (0%)
6 ^. q+ J6 m( ]6 r8 `Title                                    : English-SDH-PGS
9 E1 q7 B6 M: d4 A% PLanguage                                 : English  N. S, z- L3 Z" q  E* ]
Default                                  : No4 i% Y' S+ f% B
Forced                                   : No
# ]) o" T' A- l( j4 J5 i4 `5 S! v# [: a
Text #5
' z$ T. R% u0 _! k: T9 }% U& JID                                       : 8( ]6 Y) Q) x" [. U8 Q! X, `
Format                                   : PGS
* d5 e4 p# e8 h- |Muxing mode                              : zlib6 @  {- V4 W9 v7 N+ R7 ^
Codec ID                                 : S_HDMV/PGS
5 Z' K6 g5 I4 E, @: V5 W* ECodec ID/Info                            : Picture based subtitle format used on BDs/HD-DVDs
; d) |& S/ C( aDuration                                 : 2 h 3 min
# s0 Q% y5 V; Z" M0 C; {' N& W, z2 ~Bit rate                                 : 871 b/s
) O* I( ^# U7 BCount of elements                        : 154' U0 y2 I* @; I  j0 a6 i1 B
Stream size                              : 790 KiB (0%)0 c7 R7 ?9 z$ U" H
Title                                    : French-FORCED-PGS; Q3 Z5 h6 B3 c4 Q4 M
Language                                 : French
2 [! N5 p" t8 N, ?8 I$ p! C, jDefault                                  : No. G( k& M/ U8 a
Forced                                   : No
  f' ]2 W* R+ x5 n; P' l8 C% ?
1 `4 v. ]& B. l/ K& gText #66 r; a: w  \# X; g
ID                                       : 9  y+ y3 f. A. }# y4 @& m
Format                                   : PGS
. K& Z1 z: o7 B, O' Q) YMuxing mode                              : zlib
5 G6 u2 T- B( I2 K1 xCodec ID                                 : S_HDMV/PGS
, f' _" m; n0 o' |" ?/ `; l1 yCodec ID/Info                            : Picture based subtitle format used on BDs/HD-DVDs& I9 N9 m, C7 ?* r3 b. b* ~- c% r2 f
Duration                                 : 2 h 11 min
% X3 J1 @, Z7 B6 BBit rate                                 : 788 b/s
, A  b& K! v  P; KCount of elements                        : 136
9 e! O7 q: J1 r8 H6 DStream size                              : 759 KiB (0%)
  z& h+ t, c! r9 }) HTitle                                    : Spanish-FORCED-PGS
& i8 a0 V/ M* Q* t. G* Z" S1 ZLanguage                                 : Spanish
1 n7 i& j3 Q4 Y% v. y, nDefault                                  : No8 M) j2 n; l% Z" b
Forced                                   : No
SWEATY BALLZ presents+ E0 J2 E, D% v2 Q
+ U9 `2 K, j1 \6 [- v+ A9 ~: T
Patriots.Day.2016.2160p.BluRaycd.x264.8bit.SDR.DTS-X.7.1-SWTYBLZ
: {# f: q- }# P8 nConverted from 10 bit HDR to 8 bit SDR using tripple mixed Hable-Reinhard-JJ per scene+frame analysis algorithm
- p, ?' K5 Q: g- W+ B8 {% A6 [" {6 n' o9 Z0 \
Video
8 K$ Z' ?5 k, P" m5 J, hID                                       : 1
. }* v; i; y1 Y& }. {Format                                   : AVC
' c9 b% p& T  K3 \8 G5 H7 KFormat/Info                              : Advanced Video Codec" k: x7 A1 O4 [, [
Format profile                           : High@L5.1
1 w, j$ J+ ]3 ~" y' ^0 D6 x4 vFormat settings, CABAC                   : Yes/ l6 J0 w; c: L: D
Format settings, ReFrames                : 5 frames
$ ^9 x" H4 e% c- A0 bCodec ID                                 : V_MPEG4/ISO/AVC
" |, O3 w: a  g2 k( l& z0 z, XDuration                                 : 2 h 13 min
% X* X; |$ h" }6 E4 F! f) BBit rate                                 : 34.5 Mb/s
. y1 V0 {2 s# b: ~7 oWidth                                    : 3 840 pixels, ^' F4 H# L1 I/ a
Height                                   : 1 600 pixels
* `9 O) [. S8 L( w) m" a5 P! a; lDisplay aspect ratio                     : 2.40:12 B: z) e4 t" H: |- {5 b! r" o
Frame rate mode                          : Constant5 i7 k4 j1 n( r9 M: H9 J% q! H
Frame rate                               : 23.976 (24000/1001/37687) FPS
$ B3 J: N1 R. G, L9 oColor space                              : YUV* e) `' U( @8 s8 D6 Y5 z  j8 k
Chroma subsampling                       : 4:2:0
6 Y) S/ t  I  r* |  d3 t8 RBit depth                                : 8 bits
( o5 ^, g* F) a, DScan type                                : Progressive
* \* a, r- S( W8 D+ z! o$ k; s, n" jBits/(Pixel*Frame)                       : 0.234* O5 b$ H3 {, r: o: T9 _* z
Stream size                              : 32.1GB (87%)7 B. x) u- z! M; {0 ~
Title                                    : Patriots.Day.2016.2160p.BluRaycd.x264.8bit.SDR.DTS-X.7.1-SWTYBLZ
6 d3 U% N% {  i) PWriting library                          : x264 core 148 r2748 97eaef2! W  |- y8 a& j5 N3 P# e. L) T
Encoding settings                        : cabac=1 / ref=5 / deblock=1:-1:-1 / analyse=0x3:0x113 / me=umh / subme=10 / psy=1 / psy_rd=1.00:0.15 / mixed_ref=1 / me_range=48 / chroma_me=1 / trellis=2 / 8x8dct=1 / cqm=0 / deadzone=21,11 / fast_pskip=1 / chroma_qp_offset=-3 / threads=50 / lookahead_threads=4 / sliced_threads=0 / nr=0 / decimate=0 / interlaced=0 / Mzc2ODc= / bluray_compat=0 / constrained_intra=0 / bframes=3 / b_pyramid=2 / b_adapt=2 / b_bias=0 / direct=3 / weightb=1 / open_gop=0 / weightp=2 / keyint=250 / keyint_min=23 / scenecut=40 / intra_refresh=0 / rc_lookahead=50 / rc=crf / mbtree=1 / crf=18.0 / qcomp=0.60 / qpmin=0 / qpmax=69 / qpstep=4 / Mzc2ODc=feCb3SYgnbojFoo / ip_ratio=1.40 / aq=1:1.00
& U; l" P# v# y& o! @Language                                 : English
; u; j* M3 K% i/ v0 |Default                                  : Yes
6 ]: F* l/ n! R, sForced                                   : No
& p2 @- a& V  K; o1 y* K5 f8 M/ ^8 c1 E) ^, C/ P7 {* K
Audio #1
# D2 l) @5 w! W8 K- J/ O) UID                                       : 2
5 `) E1 L2 O+ A4 q" h9 T* |Format                                   : DTS
/ ?# o! k7 O, f5 ?+ vFormat/Info                              : Digital Theater Systems, P! P7 Q0 J1 z# B5 N
Format profile                           : X / MA / Core6 e% f& Q7 L' F7 `: p4 c% ~
Mode                                     : 16/ ?7 s( t% o* N* N% x
Format settings, Endianness              : Big
& W" {) Y3 w/ N, U5 g& h  zCodec ID                                 : A_DTS6 k# @* C9 F2 \7 c
Duration                                 : 2 h 13 min' c9 A# g# \/ k# l$ X
Bit rate mode                            : Variable / Variable / Constant* H% [5 i2 t& c- m8 S
Bit rate                                 : 4 280 kb/s / 4 280 kb/s / 1 509 kb/s0 w, P8 q4 `/ F, Q  t0 r9 W
Channel(s)                               : Object Based / 8 channels / 6 channels
# u. \# _- o" p: ]  ]Channel positions                        : Object Based / Front: L C R, Side: L R, Back: L R, LFE / Front: L C R, Side: L R, LFE6 o' N7 p, v6 V
Sampling rate                            :  / 48.0 kHz / 48.0 kHz
  K! Q" y- l- c+ U" }Frame rate                               : 93.750 FPS (512 spf)
4 H$ i& j5 `! e. b3 R& b+ E6 [Bit depth                                :  / 24 bits / 24 bits6 e: C$ B- j2 p7 L9 J
Compression mode                         :  / Lossless / Lossy# u8 Q* m* x+ W/ k8 j6 \
Stream size                              : 3.98GB (11%)- z1 N  U, W: z
Title                                    : Patriots.Day.2016.2160p.BluRaycd.x264.8bit.SDR.DTS-X.7.1-SWTYBLZ
$ a* T. l! \) p% g$ T# j; y8 iLanguage                                 : English
" r8 N  y! Z. Q  WDefault                                  : Yes
5 x4 O2 b* Y9 K, K1 j2 oForced                                   : No
  u- o' f4 D& b$ [6 h. ~2 S9 L' J! C* |1 ~) J. A
Audio #2
- Y( d+ R0 p" B% T- q6 tID                                       : 36 }1 b8 ?8 q* L
Format                                   : AC-3
8 p! N) w3 {2 a$ KFormat/Info                              : Audio Coding 3" ?5 c: n) J6 k9 d1 P* ]  t3 H
Format settings, Endianness              : Big
5 S* m* v* p1 d, Z( q8 g4 ?Codec ID                                 : A_AC3
8 q& `$ e0 }( z/ z/ QDuration                                 : 2 h 13 min; [! d6 \. Z$ d' ]1 B! T- H# ~" Z5 e
Bit rate mode                            : Constant
% e4 Y$ l( \* u- d* ?1 N+ ~/ M" ^Bit rate                                 : 640 kb/s2 Y+ p6 J! m+ v9 N+ }- U4 H- B' E$ I
Channel(s)                               : 6 channels) R' I; P! r# @4 q" {
Channel positions                        : Front: L C R, Side: L R, LFE
2 E4 u/ g" t7 L) w2 ^/ _Sampling rate                            : 48.0 kHz) _3 Z6 d" D& s+ s% M+ I  }4 u
Frame rate                               : 31.250 FPS (1536 spf)
! {" U4 b. G2 T+ T$ y( U& g8 nBit depth                                : 16 bits
# m; q! _8 v/ OCompression mode                         : Lossy
" j2 W  s$ M$ e! k9 n' }8 DStream size                              : 610 MiB (2%)
! n& l2 ]7 o+ `+ }$ A' K3 rTitle                                    : Patriots.Day.2016.2160p.BluRaycd.x264.8bit.SDR.DTS-X.7.1-SWTYBLZ- }* i- }' a5 R/ b& v
Language                                 : English
4 Q% l' f; k7 o; X; Q- \Service kind                             : Complete Main
! b# j* U. P. `( yDefault                                  : No
: G; m. `# Q5 V% U  mForced                                   : No; h, P9 Y7 B: R2 v) ~

* \$ g8 {& Y+ GText #1
2 F- Z7 w+ e+ g5 U6 vID                                       : 4
2 Z, M/ N$ D9 _) }8 F) KFormat                                   : UTF-8( z: N3 ?+ s% b4 {8 V
Codec ID                                 : S_TEXT/UTF8
8 k; [* v8 b+ C+ I) MCodec ID/Info                            : UTF-8 Plain Text
3 N5 Y& }! m& k+ w4 KDuration                                 : 2 h 12 min
' m& e- ^3 A6 f7 i' H: q/ HBit rate                                 : 77 b/s' N2 M7 V' Z' O) E
Count of elements                        : 1872
1 a3 E+ e1 M$ N4 `Stream size                              : 75.6 KiB (0%)
0 U$ X: ]$ J- j& `8 Z9 CTitle                                    : English-SRT( f5 d; u- c6 P
Language                                 : English
' d' c) |; ^2 f" |% J& ?  QDefault                                  : Yes2 i2 \9 w5 Z% n" {
Forced                                   : No( C: F2 j" \1 y
7 q* S4 V% z* D* k9 \# }
Text #2
7 [+ q) a7 {1 J5 Y6 R. iID                                       : 5
3 r. u# Z1 C# c7 IFormat                                   : PGS  [/ A1 C; c$ `- F6 Y
Muxing mode                              : zlib
: ~. l: w+ k! @Codec ID                                 : S_HDMV/PGS
; w/ H. a1 a' Q! C! }# _Codec ID/Info                            : Picture based subtitle format used on BDs/HD-DVDs- L5 I$ i4 F( f0 T
Duration                                 : 2 h 12 min2 M8 S# |. Y8 o4 |1 A" g
Bit rate                                 : 20.8 kb/s- V/ `5 p' v4 P# K1 z1 d" N8 g
Count of elements                        : 4050( T1 e5 a5 u0 q* ]8 u
Stream size                              : 19.7 MiB (0%)
% d, o6 O7 ?0 A0 l8 v1 jTitle                                    : English-PGS
1 W3 v1 D8 ]' g" ?+ U" G9 i9 Q' PLanguage                                 : English$ k, O$ u% I, y+ x# I) F
Default                                  : No
6 b5 o+ L' j. KForced                                   : No( W* b6 a* W+ X  y: m6 }! L

9 ]/ J% D8 R0 OText #3: t' {( q  |0 G) {9 {
ID                                       : 6
( F1 C7 N. D6 e! j) H! wFormat                                   : PGS1 h0 s+ N; E4 E0 _: T5 _& O
Muxing mode                              : zlib, {: d8 t( u: m4 ~
Codec ID                                 : S_HDMV/PGS7 g+ Q, d3 ^+ O$ e1 F7 p6 f
Codec ID/Info                            : Picture based subtitle format used on BDs/HD-DVDs
3 X: K1 w) ^7 g% JDuration                                 : 2 h 12 min+ q) e  T$ S- c  y# H
Bit rate                                 : 21.6 kb/s
; ~8 F" p. s9 u: U3 {& N6 T$ xCount of elements                        : 4732' B7 b+ F/ R! ]' `' y' F8 v) v
Stream size                              : 20.5 MiB (0%)7 Q0 @* N/ H6 ?
Title                                    : French-PGS
$ Q/ O+ u7 m" o( N) }Language                                 : French5 r7 h! ^3 _/ M. A. q- Q7 u
Default                                  : No
) ^" L' b% w. a) |* KForced                                   : No8 M7 v4 j/ B; J$ }+ @
( @. m- \4 C+ u# M5 c0 r+ t4 X: u0 @
Text #4' _9 K2 z- \3 @' E
ID                                       : 71 y" o' G0 T9 u# j0 N$ _0 e
Format                                   : PGS
! c; D% w( `2 R- I$ `# eMuxing mode                              : zlib: u. t2 {% ]7 j5 j
Codec ID                                 : S_HDMV/PGS
" R$ D8 \. m* c" S: W; Z9 F% ~Codec ID/Info                            : Picture based subtitle format used on BDs/HD-DVDs
6 m8 k& S$ E; tDuration                                 : 2 h 12 min% i% [; c5 {( L6 ~! e# `
Bit rate                                 : 18.5 kb/s/ a- x5 ^0 \  s  N2 F1 E5 x0 o
Count of elements                        : 36848 c  b# ~! ?% _  k
Stream size                              : 17.6 MiB (0%)+ b, N- w2 p1 @4 n
Title                                    : English-SDH-PGS
" z! p( s4 I$ x' C5 H) ILanguage                                 : English* B, H9 M: G+ {
Default                                  : No9 j. U& @& Z4 H& E+ A( i" P
Forced                                   : No$ a' E  v- ~6 h" c* {" ]( k: k

0 S* x& O* x5 e+ X3 oText #5$ ]; }4 d# ]$ D% C" @- a
ID                                       : 8( e" E, M9 N3 a, p* @& W- Q
Format                                   : PGS0 V2 ?& g! q& \6 S6 t
Muxing mode                              : zlib
4 P. g2 |1 V% U9 |Codec ID                                 : S_HDMV/PGS# A; x. X& d7 p
Codec ID/Info                            : Picture based subtitle format used on BDs/HD-DVDs9 u0 {8 J( n" _2 c- ?; O4 k6 D, V
Duration                                 : 2 h 3 min) _- [8 r3 G, D  `) e
Bit rate                                 : 871 b/s$ X. y% X5 h+ q9 z3 f2 N7 e
Count of elements                        : 154
8 U, C( b+ Z( N) l- @Stream size                              : 790 KiB (0%)5 D& K0 T: s4 U
Title                                    : French-FORCED-PGS5 j) }: ]# }9 R2 w7 @* _) t$ C/ L6 f
Language                                 : French
# u3 m4 o, E5 S; `Default                                  : No& V( o: m) B8 o0 d. X0 @
Forced                                   : No
5 O# [; j% ~/ g7 H* f* O  t/ ]& {. X
Text #66 C8 U4 N. |" j( l! b: x/ U
ID                                       : 9  E/ R3 Y: s; v' I" S
Format                                   : PGS7 s/ z" k* |8 y1 T4 r
Muxing mode                              : zlib& ^% C- L% U  q: U. G2 o
Codec ID                                 : S_HDMV/PGS
3 @8 {& s( T- F/ ?. Q" a: \Codec ID/Info                            : Picture based subtitle format used on BDs/HD-DVDs
9 f& C. u7 g3 Y' v6 F: S8 ]* X, @* Y0 g) dDuration                                 : 2 h 11 min
% M# K& i$ ]6 P: e. j' kBit rate                                 : 788 b/s
0 J9 a2 s3 V% `( T# qCount of elements                        : 136( E2 k, K/ W6 G1 V* [$ U- q4 j
Stream size                              : 759 KiB (0%)6 p1 l7 l0 U6 H5 z9 F
Title                                    : Spanish-FORCED-PGS
8 a5 {5 t- j* s1 P/ _. PLanguage                                 : Spanish# w+ z  [& ?: c# H9 j
Default                                  : No
5 y0 @- D- u) w9 d$ J) P9 d* C3 c- ?Forced                                   : No

$ j. U6 l, X' G# t
游客,查看本帖隐藏内容请回复 | 加入VIP贵宾组可免积分免回复下载 了解详情 | 还不是会员:点击获取邀请码 Invitation Code

1

主题

95

帖子

357

积分

Sponsor

金币
21 枚
体力
149 点
QQ
davidqin 发表于 2021-1-2 09:43:21 | 显示全部楼层
每天都来蓝光论坛看看,我爱蓝光电影。
6 |9 h2 g: O  {" l  Z4 T要想蓝光电影论坛发展好,资源多,就靠你我他!To the development of Blu-ray movies forum, resources and more depend on you and me!
5 q: p6 b! K8 |6 }$ `2 K8 _9 G

26

主题

1464

帖子

7841

积分

Sponsor

金币
1087 枚
体力
3857 点
QQ
shiji1973 发表于 2021-1-3 09:21:43 | 显示全部楼层
感谢分享精彩电影

0

主题

618

帖子

2085

积分

Sponsor

金币
6 枚
体力
832 点
QQ
dailin 发表于 2021-1-7 11:49:55 | 显示全部楼层
果断回帖,如果沉了就是我弄沉的感觉很有成就感!
) W9 N2 C+ V1 i( m: @" p; ~$ W, e% |In fact, I have always felt that the landlord of good taste! Ha ha!
  K8 b7 M& _4 A+ H" |

0

主题

197

帖子

665

积分

Sponsor

金币
25 枚
体力
290 点
060701300 发表于 前天 22:38 | 显示全部楼层
谢谢楼主分享

本版积分规则

小黑屋|Archiver|蓝光电影资源网

GMT+8, 2021-1-21 09:51

快速回复 返回顶部 返回列表