BluRayCD Forum

 找回密码
 立即注册【分享大片】

QQ登录

只需一步,快速开始

查看: 160|回复: 12
收起左侧

[蓝光原盘] 深入敌后:危险营救 [REMUX无损版] Enemy Lines 2020 1080p BluRaycd REMUX AVC DTS-HD MA 5.1-FGT 17.57GB

[复制链接]

8045

主题

8239

帖子

6万

积分

Forum Moderator

金币
11432 枚
体力
10281 点

卓越贡献勋章

24小时 发表于 2021-1-28 02:34:32 | 显示全部楼层 |阅读模式
01.jpg
' |  T; i9 `& b# A" b9 Z' X$ W" K" G  U# s# l3 J
◎译  名 深入敌后:危险营救/敌军战线, ^7 x* Y2 B: E
◎片  名 Enemy Lines. E! H+ S  C7 O8 R# R
◎年  代 20203 Q* y2 t$ k+ w. l# [
◎产  地 英国
$ T& ~7 R6 I) R: ^) h/ m- P% n◎类  别 战争
- g  G' {& Y# j2 p# N6 U# t2 g◎语  言 英语
6 `6 l  K% V8 {' R6 ^◎上映日期 2020-04-23(荷兰)3 U9 ^: w$ [( h7 S/ R! n8 |
◎IMDb评分  4.8/10 from 1,132 users
  w$ g4 S- E) _8 d9 [1 F◎IMDb链接  https://www.imdb.com/title/tt9904802/- a/ }! |' Z- a* {1 D# C
◎豆瓣评分 4.8/10 from 241 users
3 n( K$ F8 R1 V) ]5 W! T/ s7 d+ b◎豆瓣链接 https://movie.douban.com/subject/1299092/5 ~( y$ e$ _* x* i
◎文件格式 x264 + DTS
# I- [- ?$ X, z- W◎视频尺寸 1920 x 10807 a4 X# U" R5 U" e
◎文件大小 1DVD 17.57 GiB* e* P' F6 O- p" b
◎片  长 1 h 32 min9 a( o3 [8 U; K
◎导  演 安德斯·班克 Anders Banke. M- W8 Q% H# M  C# S
◎编  剧 Michael Wright( M) V. Z5 U7 P' n: _. X
       汤姆·乔治 Tom George
$ Z7 ]+ ^# `) {; n% W& u2 L6 y$ [◎主  演 爱德·维斯特维克 Ed Westwick" F) l5 U7 N$ r# {8 q( p! O
       汤姆·威斯多姆 Tom Wisdom
: h/ g' D& u0 a; j7 f: U5 n4 r, U& g       约翰·汉纳 John Hannah
2 q4 ^+ h8 G% e! ?  J# B       帕维·德朗柯 Pawel Delag
! A4 ]' v8 c$ \1 e2 }9 L8 H! j$ h       Gary Grant; G1 x" |! p- p% O* n1 v% s
       Jean-Marc Birkholz
0 W9 }$ x: \- ~# q       克里·约翰逊 Corey Johnson2 b: \4 _# |+ K& L) R
       帕特里克·卡尔森 Patrik Karlson
" [7 b* p5 Z* m" F8 f       基里尔·普雷特涅夫 Kirill Pletnev
; i% Z9 M- W% l8 Q; T  \# x       亚历山德·兹拉托波尔斯基 Aleksandr Zlatopolskiy0 g# p5 p3 r5 S$ B, m
       伊卡普林,叶卡捷琳娜 Ekaterina Vladimirova: G6 r: x+ m! f/ W' r
       安德烈·卡拉科 Andrey Karako: Z% [- Y. a8 u. e+ h8 _
       斯科特·海宁 Scott Haining2 t( z" T  q! h0 H, b. T
  h: X, H/ x( G( O  o9 C) T" y
◎简  介
3 o& ^# J* E7 k5 O1 _' X& e/ r
6 d9 T% [4 I9 I8 |  1943年9月,一支英国突击队与一名美国军官组成一个秘密小组,深入敌后波兰执行任务。他们与抵抗军一起穿越严酷的荒野,意图从德国人手中解救波兰科学家法比安博士。
! U7 o  a# c8 E1 ]$ G" ^) c- _8 P
; y# M- \0 Q; h/ p  i  In the frozen, war torn landscape of occupied Poland during World War II, a crack team of allied commandos are sent on a deadly mission behind enemy lines to extract a rocket scientist from the hands of the Nazis.# w# `9 m: {: y+ T2 y
Video) F5 G2 C- ]4 H# F9 C' [+ s
ID : 11 j% P( @5 ^2 b1 s) c8 }$ I/ w
ID in the original source medium : 4113 (0x1011)# t( c: F1 [( L
Format : AVC3 y! c: C% N# q5 `  P
Format/Info : Advanced Video Codec: {0 ?( |, Y2 I  K
Format profile : High@L4.1
$ [6 g2 y/ o' ?/ y5 u" {5 j/ C& JFormat settings : CABAC / 3 Ref Frames0 s9 }- w9 x; r  I# R
Format settings, CABAC : Yes- f7 ?" K1 K+ Q" E; q5 O
Format settings, Reference frames : 3 frames/ S8 g0 g6 C0 |2 R0 K7 G
Codec ID : V_MPEG4/ISO/AVC
8 j% Z; }* y% [2 pDuration : 1 h 32 min6 Z- @$ {  |! s& i
Bit rate mode : Variable
$ I: B' A6 r% _. {  BBit rate : 25.2 Mb/s8 `+ ?/ ]4 H0 ^  ^3 B7 j7 g
Maximum bit rate : 26.0 Mb/s
& v; r% i* j2 \/ k5 F8 PWidth : 1 920 pixels
# z1 D" f' |; U6 }0 T. @# i8 ZHeight : 1 080 pixels* b9 R7 J% @" _
Display aspect ratio : 16:9
- R, S$ X( C& `+ G7 o* `7 IFrame rate mode : Constant1 [) V+ J" E, ^* E" c/ K/ J. d0 r* `
Frame rate : 23.976 (24000/1001/189150) FPS; g( L( o7 {5 i6 x
Standard : NTSC
6 |. I% U6 J# k, ZColor space : YUV9 G3 w' F6 i0 ~4 k
Chroma subsampling : 4:2:0* c$ k) S& U" J3 ?! e' W
Bit depth : 8 bits
+ K+ J; {# @4 g$ UScan type : Progressive
7 n, b6 |6 @+ g) r+ |% TBits/(Pixel*Frame) : 0.506
( @2 v9 B% A4 }. U1 HStream size : 16.2 GiB (92%)
! S% W% ^( X% d0 K; ATitle : Enemy.Lines.2020.1080p.BluRayCD.REMUX.AVC.DTS-HD.MA.5.1-FGT
( W$ m/ r. E% }Writing library : x264pro - Adobe CS Exporter Plug-in$ q. r! Y: ^2 e& A+ r$ V
Encoding settings : cabac=1 / ref=4 / deblock=1:-2:-2 / analyse=0x3:0x113 / me=umh / subme=9 / psy=1 / psy_rd=1.00:0.25 / mixed_ref=1 / me_range=16 / chroma_me=1 / trellis=1 / 8x8dct=1 / cqm=0 / deadzone=6,6 / fast_pskip=1 / chroma_qp_offset=-4 / threads=16 / lookahead_threads=2 / sliced_threads=0 / slices=4 / nr=0 / decimate=0 / interlaced=0 / bluray_compat=1 / constrained_intra=0 / bframes=3 / b_pyramid=1 / b_adapt=2 / b_bias=0 / direct=3 / weightb=1 / open_gop=0 / weightp=1 / keyint=24 / keyint_min=1 / scenecut=40 / intra_refresh=0 / rc_lookahead=27 / rc=crf / mbtree=1 / crf=1.0 / qcomp=0.80 / qpmin=0 / qpmax=69 / qpstep=4 / vbv_maxrate=26000 / vbv_bufsize=30000 / crf_max=0.0 / nal_hrd=vbr / ip_ratio=1.10 / aq=1:0.50& y- l2 e" b# l% B  D% |! z- \
Language : English) S1 y; M4 s1 l  j6 r
Default : No
! z' h& W7 f( ?/ NForced : No
4 a1 s0 t$ I) |5 U( D% E2 aColor range : Limited8 U0 ^. s- I2 ?6 T3 |$ \* h
Color primaries : BT.709
9 G: Q7 A  K  p% n: a9 g, NTransfer characteristics : BT.709
% E- z, e6 |4 c6 ?1 [8 hMatrix coefficients : BT.7094 F3 D1 S" B& c' u$ w+ R+ q
Original source medium : Blu-ray
  ?) D: R( S, Z2 ~$ @1 O. b7 _( c) @* f7 [( d! b
Audio( u: ], P5 }5 B& e  G5 ^+ g! P
ID : 2/ W% P3 L$ O$ p$ j/ u
ID in the original source medium : 4353 (0x1101)
5 v8 [: U1 l9 W% ]* IFormat : DTS XLL9 c, ]& ~" k% I( f% l) v* E3 I* R& A7 a
Format/Info : Digital Theater Systems
  v2 z3 E. k  e+ J7 C# \Commercial name : DTS-HD Master Audio+ l" M! V. m  W1 L
Codec ID : A_DTS
6 R$ K& v' y; O/ fDuration : 1 h 32 min& l: l2 F% U: K
Bit rate mode : Variable
3 h( @! V9 u! F* RBit rate : 2 089 kb/s
& C( F2 t' z; V9 @2 V* ~: NChannel(s) : 6 channels7 [: \4 l/ h1 H) X1 k. r- w
Channel layout : C L R Ls Rs LFE' i# S3 L! X  m6 L9 C9 Y$ G5 ~7 ]: x; b
Sampling rate : 48.0 kHz
3 g+ u* B: X9 h8 D1 x' DFrame rate : 93.750 FPS (512 SPF)3 z6 }$ f; t/ R  v* J
Bit depth : 16 bits6 w) N. m0 E+ U) g; J# n, n
Compression mode : Lossless
5 C  ]& h+ f% h9 QStream size : 1.35 GiB (8%), |- {) E8 H; H. O2 n( _6 L
Title : Enemy.Lines.2020.1080p.BluRaycd.REMUX.AVC.DTS-HD.MA.5.1-FGT
; s# v, r& r  F  BLanguage : English
( d) v# F* v( D1 V) y; A! [Default : Yes& ?+ ]& k, V: u  h: T
Forced : No
( ~- O- d+ `9 p/ p9 YOriginal source medium : Blu-ray1 q: E: g8 b5 ]) E* y' j, `
) s. L6 m/ H% j0 q* b, V
Text #1
7 w+ v9 a0 d1 }7 V+ Z, x$ cID : 3
" c8 R* H1 U# p  cFormat : UTF-8
2 G' M2 J: k% p6 a; S7 @  M; Z6 pCodec ID : S_TEXT/UTF8- P5 n" Z0 n* O, d( s# J
Codec ID/Info : UTF-8 Plain Text
, w( @1 |' Q9 oDuration : 1 h 26 min
& z& T( ]$ n# k9 f$ W+ }Bit rate : 8 b/s
; o6 V- D3 Y+ \# tCount of elements : 196
" U+ k0 T1 U0 u  `- ]Stream size : 5.65 KiB (0%)# y8 u7 d0 [2 z0 H! [
Title : English-FORCED-SRT$ ?! f. M* y  J, K
Language : English
: b9 ?1 c7 X# q5 kDefault : Yes
: F* [8 I3 K; I6 O* N8 |0 ]Forced : Yes, I' N1 z3 ~; o7 }

& ]0 D( p7 i1 k8 ]6 k4 UText #26 c! h# c* l* X$ i; j
ID : 4
, q% {0 d# s1 u, g! X3 u- }" g4 FFormat : UTF-8
! t+ v% f7 Q: b& ECodec ID : S_TEXT/UTF85 g& }# ]. z& p7 i
Codec ID/Info : UTF-8 Plain Text
) R9 U" v9 i' J  S$ k8 W' _Duration : 1 h 27 min
$ U1 ^9 }" w. K' fBit rate : 42 b/s
1 ~9 @0 [' e" u# c8 o# N. lCount of elements : 1087; D, R2 U9 u8 `( |
Stream size : 26.8 KiB (0%)
# I- ^1 }) y' B: t- uTitle : English-SRT9 ?6 O5 O) m9 I1 ?. W3 h. ~! O* x- f
Language : English
; F( [$ H% ~  h3 F# [7 }Default : No
# x, r$ D7 X+ xForced : No
! E! J% ~* d; z0 y8 R* n- r! X, k9 Y
Menu
% e7 g% y8 w6 p# M: t00:00:00.000 : en:Chapter 018 c& |1 k; X/ }7 b; Y* ]" w. `
00:05:36.836 : en:Chapter 025 n& ?- A% N, R# K6 x6 s  {! e0 Y
00:10:39.388 : en:Chapter 03- W4 G, ^& x4 D& {3 O* Y5 K
00:17:13.407 : en:Chapter 04* f- y. e+ a7 i' \7 I
00:25:36.868 : en:Chapter 05
2 F) I, H" m( m* n7 z00:32:54.305 : en:Chapter 06( e& k9 K7 N9 ~6 z+ G
00:37:29.121 : en:Chapter 07/ a# C! P$ S% U' i9 D! P$ Z
00:42:33.759 : en:Chapter 08
: ^: X% A) R# b, b7 \( b% u00:46:46.094 : en:Chapter 098 v5 d0 _  h8 u) l) l0 N" D
00:54:46.116 : en:Chapter 10# e; T' l9 J8 z" f! X( X) H
01:00:03.224 : en:Chapter 112 X8 G: ^) G6 V2 L# `
01:07:50.066 : en:Chapter 12
3 W3 ~5 A+ K$ ?# d" S. R01:10:31.060 : en:Chapter 13, B3 A3 U  [1 f) t: K' y6 o; s
01:15:10.422 : en:Chapter 14
# G4 W) `) `; A  z2 [5 m01:24:25.560 : en:Chapter 15% Q% ~6 `, a* R1 N
01:28:49.699 : en:Chapter 16
9 C* r. X0 h2 b, e6 X01:32:19.909 : en:Chapter 17

+ a2 E6 K' K% |5 h0 Y% n
游客,查看本帖隐藏内容请回复 | 加入VIP贵宾组可免积分免回复下载 了解详情 | 还不是会员:点击获取邀请码 Invitation Code

71

主题

2208

帖子

8495

积分

Sponsor

金币
919 枚
体力
3072 点
lanpanshuma 发表于 2021-1-28 07:04:06 | 显示全部楼层
楼主发贴辛苦了,I*老*虎*U!
& \( S7 ~5 ]8 [6 v" j( C要想蓝光电影论坛发展好,资源多,就靠你我他!To the development of Blu-ray movies forum, resources and more depend on you and me!* o4 u- s  a( c! ^
该会员没有 ...

236

主题

475

帖子

2738

积分

Sponsor

金币
567 枚
体力
1183 点
zhangwenbin 发表于 2021-2-25 11:16:57 | 显示全部楼层
[蓝光原盘] 深入敌后:危险营救 [REMUX无损版] Enemy Lines 2020 1080p BluRaycd REMUX AVC DTS-HD MA 5.1-FGT 17.57GB
蓝光论坛里

0

主题

23

帖子

251

积分

Sponsor

金币
152 枚
体力
47 点
yzxuefeng 发表于 2021-2-2 12:39:30 | 显示全部楼层
看了LZ的帖子,我只想说一句很好很强大!""8 y% [+ ^+ B  q6 B5 _8 }7 O9 S7 P' _
I love your Blu-ray movies Forum!
# x3 j' c6 A. h4 a- p, p, [

22

主题

290

帖子

1484

积分

Sponsor

金币
78 枚
体力
758 点
wyyo 发表于 2021-1-28 08:57:23 | 显示全部楼层
这么好的帖子不回对不起自己!
8 m1 \6 a' W& K* cAfter reading the posts have nothing to do I Amoy posts!1 _$ }5 t' z+ [" n3 C% }1 `1 V

0

主题

396

帖子

2053

积分

Sponsor

金币
44 枚
体力
1274 点
QQ
sunday_119 发表于 2021-2-1 10:21:37 | 显示全部楼层
啥也不说了,楼主就是给力!
! r) `5 I; J4 o& bYour resources, well, I am very satisfied!3 x( a4 Q! Q3 |: }4 S2 w/ `6 D( |

0

主题

366

帖子

1502

积分

Sponsor

金币
14 枚
体力
798 点
luyife 发表于 2021-2-3 16:35:43 | 显示全部楼层
谢谢楼主的分享

0

主题

56

帖子

265

积分

Sponsor

金币
22 枚
体力
146 点
top3dmax 发表于 2021-2-7 14:12:46 | 显示全部楼层
谢谢楼主的分享

0

主题

145

帖子

718

积分

Sponsor

金币
1 枚
体力
382 点
635338999蓝光 发表于 2021-2-7 17:47:51 | 显示全部楼层
好好好好好

0

主题

53

帖子

346

积分

Sponsor

金币
26 枚
体力
209 点
splj100200 发表于 2021-2-8 10:17:22 | 显示全部楼层
楼主真是给力,多谢楼主; F# A7 i9 H: r- w

0

主题

56

帖子

265

积分

Sponsor

金币
22 枚
体力
146 点
top3dmax 发表于 2021-2-23 15:20:39 | 显示全部楼层
楼主真是给力,多谢楼主

本版积分规则

小黑屋|Archiver|蓝光电影资源网

GMT+8, 2021-3-9 11:56

快速回复 返回顶部 返回列表