BluRayCD Forum

 找回密码
 立即注册【分享大片】

QQ登录

只需一步,快速开始

查看: 182|回复: 14
收起左侧

[蓝光原盘] 姜子牙 [REMUX无损版] Legend of Deification 2020 CHINESE 1080p BluRaycd REMUX AVC DTS-HD MA 5.1-FGT 27.79GB

[复制链接]

8043

主题

8237

帖子

6万

积分

Forum Moderator

金币
11419 枚
体力
10274 点

卓越贡献勋章

24小时 发表于 2021-2-14 04:33:00 | 显示全部楼层 |阅读模式
01.jpg & N' |7 b* H7 m3 j! o& k6 Q
  L4 Z) A* p0 o3 Y
◎片  名 姜子牙
( S& V/ Y; B, [+ Q& N◎译  名 Legend of Deification& H9 S3 a4 k- H. ^9 b8 e
◎年  代 2020
: X# I: _' d" x9 z. s◎产  地 中国大陆
* I) C" E9 O# W1 @+ h- y+ u◎类  别 剧情/动画/奇幻
7 D* O+ N. F4 n2 [5 q) N5 Z◎语  言 汉语普通话$ t! t6 y0 L! w& T  c
◎上映日期 2020-10-01(中国大陆)
4 a+ R3 W& `) ~1 P4 W3 q◎IMDb评分  6.4/10 from 695 users
$ _; H" v7 G7 x- Y: w2 x◎IMDb链接  https://www.imdb.com/title/tt11177804/5 K; \6 n" L, U, _" S. f) I! f
◎豆瓣评分 6.8/10 from 489,525 users
: L' |, `" y. ~7 A; n2 }9 F◎豆瓣链接 https://movie.douban.com/subject/25907124/6 M) M, d9 E3 }+ K4 n3 L. g( ~
◎文件格式 x264 + DTS
! h5 h* b- B7 {# k; Z  d◎视频尺寸 1920 x 10809 i% Z$ s  a% g
◎文件大小 1DVD 27.79 GiB
0 r' {1 ~( A. ^8 _. r2 B- d◎片  长 1 h 50 min
: r9 L. W) S+ E+ @◎导  演 程腾 Teng Cheng
: O" c1 V; f0 @       李炜 Li Wei1 t& _5 u4 @8 A( S3 r- N
◎编  剧 谢茜颖 Qianying Xie. X, T) b1 R2 E2 P% x3 [$ x* m, C
◎主  演 郑希 Xi Zheng7 U7 P6 G+ \8 B/ |( C
       杨凝 Ning Yang+ w: z6 {; N- @: _
       图特哈蒙 Sheng Feng1 x# e8 q8 i! a( L
       阎么么 Meme Yan
+ Q+ i/ Y! A! `' h+ f. N& X4 G       季冠霖 Guanlin Ji
, Y- O3 C, P+ l. U3 }6 S       姜广涛 Guangtao Jiang  u. U9 N6 J& R5 G6 N8 v1 Z
7 S3 d% v/ t0 D3 N6 R; r* y! p
◎标  签 国漫 | 国产动画 | 中国动画 | 奇幻 | 动画电影 | 动画 | 国产 | 动漫
- d. ~/ Q% m5 ]: u: d8 x- r: Q
2 M" F/ y: m, b: Z  q) x+ D◎简  介   
7 s% f& W/ w0 v3 q6 g5 v! j$ H
  Banished to the mortal world, a warrior has to slay a demon to return to the heavenly realm and become a god.
! ^' b4 W3 \2 K
+ b3 K3 M( n5 U% m* ]9 i/ g7 a9 c  故事发生于封神大战后。姜子牙率领众神伐纣,赢得封神大战胜利,以为可以唤回世间安宁。然而,一切并未结束。一个偶然,姜子牙发现了原来“封神大战”之下酝酿着更大的阴谋。姜子牙开始踏上探寻真相的旅途......
% m; b* V0 m+ `8 `" f
. s$ U, u; \5 Z+ r0 H$ l( t  Jiang Ziya, a top commander in the divine army of the Kunlun Sect, is victorious in the battle between the Heavenly powers and the Shang dynasty. Before he can ascend to his new position among the Gods, he is ordered to execute the Nine-Tailed Fox Demon who threatens the mortals' very existence. But when the Fox Demon shows him the secret to her power, an innocent human girl, he is unable to complete his task resulting in his banishment to the mortal realm forever. Ten years later, atop the ruins of war, Jiang Ziya is once again given a task that will bring him back to the Heavenly realm – execute the Nine Tail Fox Demon regardless if the innocent life is lost. Now Jiang Ziya must decide – follow the will of heaven or find his own path to becoming a true god.: z& t6 R9 U( T

1 i/ I$ a9 W8 v* p◎获奖情况  : t0 t# D4 z+ Q2 R7 w) M" t$ ^
' Z# ?' M/ h' A' _
  第6届豆瓣电影年度榜单(2019)
+ g  e% h, V  ~( D* G) N  最值得期待的华语电影(提名)
) H8 U; E' i) T% \/ l6 T
Video# J4 j, u. ~/ N" M5 Q
ID                                       : 1
6 @4 x, g; c' G: CFormat                                   : AVC
) O) l1 ?& K2 @( G0 |3 gFormat/Info                              : Advanced Video Codec3 g3 H! [) X+ D8 B
Format profile                           : High@L4.1
4 Q& P% @& s! \$ v4 |Format settings                          : CABAC / 4 Ref Frames
7 \% K, _& Z+ W8 R: v& pFormat settings, CABAC                   : Yes
/ h' ^* p& a% jFormat settings, Reference frames        : 4 frames
) _8 i  j) L+ {. WCodec ID                                 : V_MPEG4/ISO/AVC
  X  U# Q. |1 F- s5 p  U8 eDuration                                 : 1 h 50 min
" L- `( o9 V: O- o  S2 G1 bBit rate mode                            : Variable
( ~1 a; {1 X' O) A" W) S  W. [! ]Bit rate                                 : 17.5 Mb/s
) S* y) V  M" s4 c: V5 I- uMaximum bit rate                         : 18.0 Mb/s! c' T6 J" P) R5 f1 ^
Width                                    : 1 920 pixels  W7 N0 s) |4 T8 Z
Height                                   : 1 080 pixels
% L: R; i. c! M* s! @$ {& JDisplay aspect ratio                     : 16:9
  g2 s) a1 S& bFrame rate mode                          : Constant/ g) B$ u# {& e. [: z
Frame rate                               : 24.000 FPS
9 T* m* ?% l* A, }+ ?) K8 ^( n& fColor space                              : YUV% @. v: _5 M( c0 {
Chroma subsampling                       : 4:2:0+ F/ v' U' x, K1 E+ |* U( T7 }
Bit depth                                : 8 bits
3 P$ G' N" L" K3 eScan type                                : Progressive
# N* q$ q/ \# a# |- _' gBits/(Pixel*Frame)                       : 0.352- P+ T+ U" v2 C
Stream size                              : 13.3 GiB (76%)
0 Z9 I" x/ C1 l+ Z0 NTitle                                    : Legend.of.Deification.2020.CHINESE.1080p.BluRayCD.REMUX.AVC.DTS-HD.MA.5.1-FGT
1 G; N1 h  T% F, ?9 ?Language                                 : English
* o  @& U6 s' r' pDefault                                  : No1 W: w. a3 M7 |2 ^! }- q6 t3 z% V3 c
Forced                                   : No
8 r* P* i0 y% t. J! i& ?5 C; H& K/ d$ q: V) {  X9 r
Audio #1' n3 O& }8 A. ]/ V
ID                                       : 2: y2 x' ~% \" y, }% X8 h5 e+ D5 d
Format                                   : DTS XLL
/ {% [, A& X, t0 a+ k8 _* B5 iFormat/Info                              : Digital Theater Systems  I8 O9 ^/ I0 ~* I& [/ }) o
Commercial name                          : DTS-HD Master Audio
4 ]' W% `2 e( k, h: k$ @Codec ID                                 : A_DTS/ |6 h! k8 k; F. F  a
Duration                                 : 1 h 50 min, E7 C2 f( h  {, G& B% Z. ]
Bit rate mode                            : Variable
% v& f: H3 T' p( L* r; y4 qBit rate                                 : 2 307 kb/s8 x9 U. E* S2 S6 o
Channel(s)                               : 6 channels' M1 t3 O- b' }/ S2 M6 A& U$ e6 k
Channel layout                           : C L R Ls Rs LFE
, A) E# [) R) q% |% Z/ wSampling rate                            : 48.0 kHz
7 u% {+ f. G& a* Q7 q2 O+ \: ^" J8 ]Frame rate                               : 93.750 FPS (512 SPF)5 I6 [4 V$ h0 S% K4 V& ^% }
Bit depth                                : 16 bits5 H" _* \8 \+ t' A2 q# p/ W
Compression mode                         : Lossless
, v, y# ]0 X0 Z5 }1 EStream size                              : 1.75 GiB (10%)
1 J+ f; _3 p5 y% f. f, E$ STitle                                    : Legend.of.Deification.2020.CHINESE.1080p.BluRaycd.REMUX.AVC.DTS-HD.MA.5.1-FGT7 c4 d# C5 W. F2 L: L% t# k3 W5 {
Language                                 : Chinese6 p5 j& p. ^% {6 G- ?3 p
Default                                  : Yes) e- U! W: b4 A& ]0 ~
Forced                                   : No! Q* T2 X- _# k2 Z6 q
3 I7 f: p9 `# h, [% k4 g# t  |; N
Audio #2
: `1 o; L8 G/ ~  X% ?ID                                       : 3
2 y" `4 h- t2 x' s: Q( U$ b/ a& wFormat                                   : AC-3
3 r! q  J1 q' o. @5 S8 }Format/Info                              : Audio Coding 3% U. n/ L6 B3 u' C* e
Commercial name                          : Dolby Digital
5 E; l* ]7 t: b( g) u( `8 tCodec ID                                 : A_AC3
3 v( E: i7 y6 c  MDuration                                 : 1 h 50 min$ |5 L3 E% M! n" V9 i6 D
Bit rate mode                            : Constant
+ b0 p6 B$ [; R5 ]$ S) U2 BBit rate                                 : 384 kb/s
6 l6 _* @9 V! y5 o2 q& |$ dChannel(s)                               : 2 channels4 D& K0 Q5 p( `& k1 g
Channel layout                           : L R
/ G/ w  e8 d# V4 F) q$ Z; w* DSampling rate                            : 48.0 kHz
, q9 J9 N* r/ I1 M+ B, dFrame rate                               : 31.250 FPS (1536 SPF)& p) m2 K* }3 Z0 g8 [
Bit depth                                : 16 bits
# v1 X6 O/ c( Z  v- z% hCompression mode                         : Lossy
1 C4 X# _% w* X! ^* e0 mStream size                              : 299 MiB (2%)
4 P( I$ b- m; G/ QTitle                                    : Legend.of.Deification.2020.CHINESE.1080p.BluRaycd.REMUX.AVC.DTS-HD.MA.5.1-FGT
3 i: E. k) v" \  aLanguage                                 : Chinese
3 u5 ]0 I, u$ B! h, rService kind                             : Complete Main# v5 L# x$ S+ q2 c! k; C$ z
Default                                  : No$ c7 W1 W' O0 N
Forced                                   : No
" j' {5 U; h0 I/ ~, B2 Z( W
7 U% p3 a( l% p( |Audio #3, ~; B) L1 y3 U* e: ~& q4 Y
ID                                       : 4
% R7 J0 p) F: ?* r  dFormat                                   : DTS XLL  K: [5 w3 Q+ B5 `$ T8 F/ G/ o* I
Format/Info                              : Digital Theater Systems0 m  A: Q) h2 g3 }8 v! {2 V) j
Commercial name                          : DTS-HD Master Audio
/ }: y9 \5 `6 \/ |Codec ID                                 : A_DTS* x7 @- W4 G8 l! u  {1 I
Duration                                 : 1 h 50 min
# M( H; w: m/ r+ M+ S) HBit rate mode                            : Variable! k9 b$ X! @! B' o
Bit rate                                 : 2 287 kb/s
: `! _# v# t4 W9 I  \Channel(s)                               : 6 channels
7 \4 l* @* X6 ]: `& ?# CChannel layout                           : C L R Ls Rs LFE, G& K5 ]( A$ g% W; t' R5 G# b
Sampling rate                            : 48.0 kHz0 K1 d' a& D2 n- D8 X: K3 ?" V
Frame rate                               : 93.750 FPS (512 SPF)" W# a* H, Q, u8 X  k
Bit depth                                : 16 bits  ^$ o3 m0 J' \# @
Compression mode                         : Lossless
8 e* w4 s6 _) }: x1 E3 qStream size                              : 1.74 GiB (10%)
# ?6 t; ]& X& j0 d  V8 t1 F2 jTitle                                    : Legend.of.Deification.2020.CHINESE.1080p.BluRaycd.REMUX.AVC.DTS-HD.MA.5.1-FGT( X) |- T: g& m' b4 m; z# R- t
Language                                 : English$ D/ o, b! a1 @+ V: `
Default                                  : No
+ W3 @2 Y8 X1 zForced                                   : No
: F/ G8 T) ~2 u: _7 L: _) m9 x% d& x' W; |& u6 r
Audio #4
7 i8 c0 T; b# h! H6 s/ T1 J% UID                                       : 5- l0 I8 o8 \% j/ P* z  K
Format                                   : AC-3/ R# j/ E8 {9 {! B% U
Format/Info                              : Audio Coding 3- h! S% o& M' J) T" U! S# t: N: |
Commercial name                          : Dolby Digital& x4 I/ D9 W2 u- f4 j. L* b
Codec ID                                 : A_AC3! ?. T, h6 G1 I. N4 J
Duration                                 : 1 h 50 min1 \5 \' i7 Q5 `7 K' h, {2 z
Bit rate mode                            : Constant  m- e& x% n1 J6 S; `- ~
Bit rate                                 : 384 kb/s# f+ x1 t8 m0 ~7 }9 w- U& n
Channel(s)                               : 2 channels
- M- J" ^# k7 Q! IChannel layout                           : L R3 f" Q2 ~( _& v* p% u( w/ R& E+ u
Sampling rate                            : 48.0 kHz
% _& Y0 F9 ^; p+ P3 x3 wFrame rate                               : 31.250 FPS (1536 SPF)/ e0 j' L- U0 f/ v5 V, Z) O
Bit depth                                : 16 bits
! ]' n. M* D  D' gCompression mode                         : Lossy& s" B& \7 o, T# W" H
Stream size                              : 299 MiB (2%): P3 J6 h+ ], A) p) F6 Z% d
Title                                    : Legend.of.Deification.2020.CHINESE.1080p.BluRaycd.REMUX.AVC.DTS-HD.MA.5.1-FGT' O# f% Y5 T8 g
Language                                 : English
$ Z6 y, y* k9 iService kind                             : Complete Main; \* Q  T4 w9 L- Q
Default                                  : No+ Q! v& |& o/ W
Forced                                   : No
8 e* k6 F0 B0 y& e2 U7 X0 Q  U1 L6 |5 j8 P/ ]. e& r; C8 Y
Text #11 {' m" [) C; O
ID                                       : 6
% ^1 u6 ?' J/ O7 wFormat                                   : UTF-8
5 K) [( O- f; q  TCodec ID                                 : S_TEXT/UTF88 e! q* J4 f7 \
Codec ID/Info                            : UTF-8 Plain Text
0 A7 ?) L+ w% V6 ^3 HDuration                                 : 1 h 50 min1 S6 E% w% y  v$ t0 G
Bit rate                                 : 41 b/s2 ]1 U# U9 O( U- S: G9 r2 T* ]) |
Count of elements                        : 1214) k) M& m) D5 g2 M, d( x- z
Stream size                              : 30.5 KiB (0%)
9 p6 W) g, ^) @* x$ C0 P1 eTitle                                    : English-SRT
, k, v% f% S; i: ~0 a' RLanguage                                 : English
% |4 W" [( u/ k4 |! p3 n* q2 YDefault                                  : Yes( [  Q$ _8 j2 Z$ u4 z6 e
Forced                                   : No# {9 u1 n+ u, y2 A3 N$ C, S! J

$ c: n$ Y1 K5 h3 [! s( g; sText #2
9 t9 y1 U& R2 y: u. ?# [ID                                       : 7$ |3 m) F8 n, q1 o* B& k
Format                                   : PGS, Y* J$ ^2 Y9 ]. }  m5 U
Muxing mode                              : zlib* j  z" G- ]& T" b3 \
Codec ID                                 : S_HDMV/PGS( K2 L/ C% M' t- ?
Codec ID/Info                            : Picture based subtitle format used on BDs/HD-DVDs
. j( Y  o3 L; C* |$ c9 sDuration                                 : 1 h 50 min! O" \( D5 U; W- U6 F
Bit rate                                 : 27.1 kb/s
, ?( v! f! t) t4 i, yCount of elements                        : 2332' \* n2 A0 C: Y7 p' G3 ?  z
Stream size                              : 19.5 MiB (0%)% v% u; Z4 e8 G5 T# r' ^  ^
Title                                    : English-PGS8 |* w( M: ]# k$ s: c
Language                                 : English
, I  c3 o7 {% u! Y0 SDefault                                  : No+ a; l; L! Q7 z! z: h# ~+ F3 g- P
Forced                                   : No- H; n# P% @6 H/ Y& s
- Y# F' x: X* F: h
Menu/ H1 r1 m8 `0 b* s0 L
00:00:00.000                             : en:Chapter 01& m2 i7 N! Z4 E! }( Y4 H7 e: r
00:06:31.958                             : en:Chapter 02
' S, o, p7 E& K00:14:13.958                             : en:Chapter 03( `0 ^! \3 `$ N. L4 y
00:20:45.666                             : en:Chapter 04
- A3 B  C1 Y2 s/ w/ E# I2 A$ o00:27:08.083                             : en:Chapter 05
3 K5 R! D. |9 L2 ^8 _9 Z00:36:41.416                             : en:Chapter 06# }$ G* p8 h2 V  h7 Y. C& r" a
00:48:54.916                             : en:Chapter 07( v3 c1 K6 q9 J, L
00:57:53.791                             : en:Chapter 08( L" w& F3 G1 V/ u( C9 u# d
01:07:51.625                             : en:Chapter 09
$ H. D, h6 Z7 p4 j' z5 b( f01:18:34.541                             : en:Chapter 10
$ X% ^- ^: p: y: m01:24:51.458                             : en:Chapter 11, j" w3 n0 m6 z9 X
01:31:20.791                             : en:Chapter 12) L; t+ F9 J+ _  w9 A
01:42:38.375                             : en:Chapter 13

2 F  f+ x) i, ]5 H
游客,查看本帖隐藏内容请回复 | 加入VIP贵宾组可免积分免回复下载 了解详情 | 还不是会员:点击获取邀请码 Invitation Code

71

主题

2154

帖子

8283

积分

Sponsor

金币
889 枚
体力
2993 点
lanpanshuma 发表于 2021-2-14 07:45:10 | 显示全部楼层
这么好的帖子不回对不起自己!4 _3 s0 k, f4 \4 B* d
要想蓝光电影论坛发展好,资源多,就靠你我他!To the development of Blu-ray movies forum, resources and more depend on you and me!" F: n+ |/ D/ {4 ]1 Y* Y
该会员没有 ...

6

主题

253

帖子

1577

积分

Sponsor

金币
353 枚
体力
805 点
QQ
hellangelcx 发表于 2021-2-15 19:29:02 | 显示全部楼层
每天都来蓝光论坛看看,我爱蓝光电影。  d( W; \( a. _5 Q4 Z
Bluraycd.com movie updates really fast, also did not release issued, whether you believe it or not, anyway, I believed!
蓝光论坛里

647

主题

2231

帖子

1万

积分

VIP advanced

金币
2058 枚
体力
5103 点

公主勋章卓越贡献勋章

21cn 发表于 2021-2-14 07:07:15 | 显示全部楼层
看了LZ的帖子,我只想说一句很好很强大!""
- P4 e2 p. L( B0 aYour resources, well, I am very satisfied!
% J- I6 J! m4 g

0

主题

145

帖子

708

积分

Sponsor

金币
1 枚
体力
373 点
635338999蓝光 发表于 2021-2-14 11:55:50 | 显示全部楼层
好好好好好

2

主题

69

帖子

771

积分

Sponsor

金币
18 枚
体力
628 点
kang626@sina.co 发表于 2021-2-14 23:03:45 | 显示全部楼层
谢谢LZ发布,收下了

0

主题

83

帖子

671

积分

Sponsor

金币
57 枚
体力
434 点
renz 发表于 2021-2-16 13:23:10 | 显示全部楼层
每天都来蓝光论坛看看,我爱蓝光电影。
  I8 C1 R8 T( o5 s" SAfter reading the posts have nothing to do I Amoy posts!+ w. p. w, U( G, N' w

0

主题

113

帖子

613

积分

Sponsor

金币
4 枚
体力
377 点
kdavid 发表于 2021-2-16 23:27:39 | 显示全部楼层
啥也不说了,楼主就是给力!
9 x& J( F! r: e$ M1 c3 J3 i, o9 xBlu-ray movies Community: my favorite!* J  C$ D! H/ V! H/ \8 z+ p

1

主题

383

帖子

1454

积分

Sponsor

金币
40 枚
体力
670 点
firendzhon 发表于 2021-2-17 22:17:49 | 显示全部楼层
姜子牙 xxfx 谢谢分享
2020第一天 ...

本版积分规则

小黑屋|Archiver|蓝光电影资源网

GMT+8, 2021-2-27 21:04

快速回复 返回顶部 返回列表