BluRayCD Forum

 找回密码
 立即注册【分享大片】

QQ登录

只需一步,快速开始

查看: 11|回复: 1
收起左侧

[喜剧爱情] 致所有我曾爱过的男孩3 To All The Boys Always And Forever 2021 1080p NF WEB-DL x265 10bit HDR DDP5.1 Atmos-NWD 3.35GB

[复制链接]

4556

主题

4931

帖子

4万

积分

Post Share

金币
9604 枚
体力
8132 点

卓越贡献勋章

mvods 发表于 2021-2-23 16:18:31 | 显示全部楼层 |阅读模式
01.jpg
$ ?6 J' [. v% l4 J
( G/ ?& K0 ~# p  L◎译  名 致所有我曾爱过的男孩3/爱的过去进行式:我情永固/爱的过去进行式:真爱永远0 W- `8 w( X, R( _% K. @3 \
◎片  名 To All The Boys: Always And Forever Lara Jean! B+ W8 n$ }' H; }
◎年  代 2021$ H( P- f7 }2 y' L& a
◎产  地 美国1 J, C3 V4 i# L! J
◎类  别 喜剧/爱情% h* C  f! Y  |4 E' l$ d
◎语  言 英语
  E* q8 b9 L" A* J; n, C" h# A9 o' q% I7 n◎上映日期 2021-02-12(美国)  E* f, e' f; I$ C
◎IMDb评分  6.3/10 from 10,121 users
/ B* k+ W) @+ f3 T& P& C% ?◎IMDb链接  https://www.imdb.com/title/tt10676012/
. |7 I7 `1 v7 h5 o8 S- Q! g, H◎豆瓣评分 6.7/10 from 2,286 users
  ]/ s# u% B/ z: L# I4 Q3 [◎豆瓣链接 https://movie.douban.com/subject/34797212/
6 A& _  u4 v  v* X) r, ?" m◎片  长 1 h 49 min
) [9 S  H; A5 B- y◎导  演 迈克尔·费穆格纳瑞 Michael Fimognari
1 h, u3 w3 B: U) [2 \6 y◎编  剧 珍妮·汉 Jenny Han
- O4 E% O8 C% {( y7 S. Z       Katie Lovejoy
% B' |* `* i) o+ M9 h◎主  演 拉娜·康多 Lana Condor+ M+ ^/ M0 |, D/ S
       诺亚·琴蒂内奥 Noah Centineo
; N' d2 d5 _) |7 n+ L; }       玛德琳娜·亚瑟 Madeleine Arthur
# r3 s: O+ d7 n1 ~6 [: \! `# y, x       埃米利娅·巴拉纳茨 Emilija Baranac) z6 j9 q7 k- k
       莎拉尤·拉奧 Sarayu Blue
! b1 @' A, d( S) X: P       丽莎·杜鲁普 Lisa Durupt+ s  _  e/ A) W2 Q9 z
       莫莉·格雷斯 Molly Grace
, [# z4 h  v* l* E" }       C.恩斯特·哈斯 C. Ernst Harth
5 D8 x" L- L& m, @% _) v       乔伊·帕切科 Joey Pacheco
7 ~. I' w/ k, X8 h8 c  `; R       贾娜尔·帕里希 Janel Parrish$ N+ Z) ?. M1 ^# C$ i. g" G
       里什·沙阿 Rish Shah
5 \0 J7 M" ~1 E/ i3 Y1 L       莫莫娜·塔玛达 Momona Tamada
. q' E, d  F: B( b& ]  ?       琼·B·王尔德 June B. Wilde: S( Q. y6 }, u+ w( S3 Q9 t* a5 n

1 B/ G, l$ V1 e2 C: ~* S◎标  签 青春 | 爱情 | NETFLIX | 2021 | 美国 | 美国电影 | 喜剧 | 改编
6 {: b2 T. b" O/ ~+ _' Z* i0 A6 Z6 V/ H: r
◎简  介
  x  L0 y+ C& U% ~8 K1 d
# Q5 }  n3 e5 W8 O  即将高中毕业的劳拉准备踏入成人阶段,两段改变人生的旅程使她明白原来毕业后与家人、朋友和彼得的相处并非如想像中那样。
* \/ ]/ T, p( v: i
! b  M  @! j4 U7 _' i  Senior year of high school takes center stage as Lara Jean returns from a family trip to Korea and considers her college plans - with and without Peter.) g8 j# d: Z6 ^: P$ ]/ b" l
Video6 u4 j- \0 d$ f4 w1 g& |/ @7 {
ID : 19 Q' t; q4 l) k8 C% _
Format : AVC, e+ p; g' e+ h3 \6 p
Format/Info : Advanced Video Codec
5 k' F4 }8 _' h+ x! C4 ?* iFormat profile : High@L4.1
" B1 S; @$ c& K) _6 S% j( H: K+ d. HFormat settings : CABAC / 4 Ref Frames
9 `8 Y; j! l7 b2 u$ V8 LFormat settings, CABAC : Yes
3 {: R- v8 r% t0 LFormat settings, Reference frames : 4 frames
" Z  v& B5 [% M9 f) Y8 uCodec ID : avc1
4 K3 ]- y9 W6 KCodec ID/Info : Advanced Video Coding% [- R/ J- W4 f6 R* {# y; c
Duration : 1 h 55 min& k" S/ r. R, P% c+ [5 a
Bit rate : 2 500 kb/s
) B, g5 B7 w: U" j& a3 z4 y: O" CWidth : 1 920 pixels
; R1 v9 a4 `) rHeight : 804 pixels
2 |6 W1 X3 j4 n( q9 y6 r& UDisplay aspect ratio : 2.40:1
6 M2 M, Y! d8 `' r# D( {Frame rate mode : Constant
0 A! C; O. E$ l3 A- @7 |Frame rate : 23.976 (23976/1000/189150) FPS& ~8 R5 B' Z# c( Y" I
Color space : YUV
) X" p, D( |7 _) f; hChroma subsampling : 4:2:00 h5 r! k. Q" v3 ~4 D* Y% f
Bit depth : 8 bits4 \, |+ D$ ^; e; s, I
Scan type : Progressive- B% a5 Y$ X; s" _0 {8 r1 I% r
Bits/(Pixel*Frame) : 0.068
  S" }; h5 ^) a& M1 c( q( VStream size : 2.03 GiB (92%)- F/ ?5 d6 B2 g6 ]+ r$ A$ @" I. \
Writing library : x264 core 152 r2851M ba248994 ^) Z* X1 s0 w6 _2 d" p& W" C
Encoding settings : cabac=1 / ref=4 / deblock=1:-1:-1 / analyse=0x3:0x113 / me=umh / subme=9 / psy=1 / psy_rd=1.00:0.15 / mixed_ref=1 / me_range=24 / chroma_me=1 / trellis=2 / 8x8dct=1 / cqm=0 / deadzone=21,11 / fast_pskip=1 / chroma_qp_offset=-3 / threads=16 / lookahead_threads=4 / sliced_threads=0 / nr=0 / decimate=1 / interlaced=0 / bluray_compat=0 / constrained_intra=0 / bframes=3 / b_pyramid=2 / b_adapt=2 / b_bias=0 / direct=3 / weightb=1 / open_gop=0 / weightp=2 / keyint=250 / keyint_min=25 / scenecut=40 / intra_refresh=0 / rc_lookahead=50 / rc=2pass / mbtree=1 / bitrate=2500 / ratetol=1.0 / qcomp=0.60 / qpmin=0 / qpmax=69 / qpstep=4 / cplxblur=20.0 / qblur=0.5 / vbv_maxrate=31250 / vbv_bufsize=31250 / nal_hrd=none / filler=0 / ip_ratio=1.40 / aq=3:1.00
" ]3 T2 n+ s. M1 J" P; M& \! e; A# cEncoded date : UTC 2021-02-12 08:43:30
* U7 t0 N1 b; z; w! j' iTagged date : UTC 2021-02-12 08:43:30
) ^2 K6 L5 K% t" kCodec configuration box : avcC( e2 n0 c' M4 t
. Q* G% q) p/ ~+ ~
Audio
! x$ B/ N' J/ y0 d, ~9 w8 ^ID : 2
% n( U! f+ d+ r8 g, [Format : AAC LC
0 U# h% b  L  s& @4 ?Format/Info : Advanced Audio Codec Low Complexity
. R7 `' L# A% p$ q; f' LCodec ID : mp4a-40-2* N" x( B8 O1 j) A6 `" D6 R& j
Duration : 1 h 55 min
7 w( Y6 ~3 j& v  i+ C; PDuration_LastFrame : -11 ms* q6 a& v2 \8 D2 Y5 J+ c
Bit rate mode : Constant
  K! M( t4 W  W" ~+ BBit rate : 224 kb/s. h  Z( z4 v- u( S( L" t1 y
Channel(s) : 6 channels2 @0 @% H$ d2 s6 A2 o" {  f% ~% R
Channel layout : C L R Ls Rs LFE9 j: W& r& M' U3 [) |! F. t
Sampling rate : 48.0 kHz9 H7 D0 R3 w: ^/ z$ `
Frame rate : 46.875 FPS (1024 SPF)! v9 `. f8 r) N5 y# X6 c
Compression mode : Lossy
! v8 ^# J- N* f0 X' QStream size : 186 MiB (8%)
, t, `+ _! O  Y  s, U9 U. p& GLanguage : English
2 {! u* t, P' j8 Z/ z2 NDefault : Yes, k: U8 G7 n  y3 ?, C
Alternate group : 1
0 `1 P' x$ X3 k8 ~8 dEncoded date : UTC 2021-02-12 08:43:30
: a, J& |" K) V! _Tagged date : UTC 2021-02-12 08:43:30

  G' ~8 Z9 }& L6 ^
游客,查看本帖隐藏内容请回复 | 加入VIP贵宾组可免积分免回复下载 了解详情 | 还不是会员:点击获取邀请码 Invitation Code

0

主题

21

帖子

193

积分

Sponsor

金币
127 枚
体力
24 点
fuji9226 发表于 3 天前 | 显示全部楼层
感谢楼主的分享

本版积分规则

小黑屋|Archiver|蓝光电影资源网

GMT+8, 2021-3-9 12:03

快速回复 返回顶部 返回列表