BluRayCD Forum

 找回密码
 立即注册【分享大片】

QQ登录

只需一步,快速开始

查看: 9|回复: 1
收起左侧

[喜剧爱情] 致命恋爱/危险罗曼史 Life Risking Romance 2016 KOREAN 1080p AMZN WEBRip DDP2.0 x264-MRCS 7.15GB

[复制链接]

4557

主题

4932

帖子

4万

积分

Post Share

金币
9608 枚
体力
8134 点

卓越贡献勋章

mvods 发表于 2021-2-23 16:56:59 | 显示全部楼层 |阅读模式
01.jpg
& o/ J6 N0 u6 J( F! z. V. E7 p. Z+ o' y. r/ v
◎译  名 致命恋爱/危险罗曼史(台)' i. D" @* e9 X
◎片  名 목숨 건 연애 / Life Risking Romance / Mok-sum Geon Yeon-ae  m( }5 ~2 G; f2 `2 _, X. P
◎年  代 2016
$ a0 Z7 a5 K5 v◎产  地 韩国: P  V0 x) g) ~( h9 q: m
◎类  别 喜剧/爱情/惊悚. A$ i; {0 Z5 Y4 ^7 \! K& s
◎语  言 韩语/英语! t2 H+ ~/ i# Y/ C0 f
◎上映日期 2016-06-11(上海电影节)/2016-12-14(韩国)
$ A. s! v( n1 a0 A/ m0 f! f◎IMDb评分  5.3/10 from 187 users
. \* v" r; _5 i* M0 O( T4 `& |' U3 i◎IMDb链接  https://www.imdb.com/title/tt6343000/
! d6 d/ ]  m+ b5 j◎豆瓣评分 5.1/10 from 1,183 users8 J# G1 h; W1 G# B5 V0 J
◎豆瓣链接 https://movie.douban.com/subject/26348778/
) o5 V9 k0 U/ K0 [◎片  长 1 h 43 min! F& M  E8 C+ P) ?
◎导  演 宋闵奎 Min-Gyu Song
7 b/ b/ i% R2 C◎编  剧 金巴达 Ba-da Kim
; }0 P: D+ G4 _' [" s       宋闵奎 Min-Gyu Song
# U0 c4 W  o+ R* M  V& H2 x8 N◎主  演 河智苑 Ji-won Ha& X# t. b" k- x8 j
       千正明 Jeong-myeong Cheon" d( @7 y( @& f$ T  K4 }
       陈柏霖 Bo-lin Chen
0 P) h4 r) p& F; Q2 w/ d9 w! o       郑海钧 Hae-kyun Jung
' Z) y# e# i) Y5 z- y- I; R/ Z       金元海 Won-hae Kim4 p% |4 r* L5 U) \6 X( P; q$ b" e* z( ~
       吴政世 Jeong-se Oh- y& x; c  U* c% k3 S
       尹素熙 So-Hee Yoon
0 |; d, z- Y! w) C6 y. b       赵炳奎 Byeong-gyu Jo( ~  B& }) I5 \! @) x$ g4 O$ W
       李多寅 Da-in Lee; k; g# a3 m2 M9 ?4 j% Y
       崔录运 Ro-woon Choi
+ D" \# Q5 S0 S9 R; U" `- x       宋彩允 Song Chae-yun) ]0 y8 J6 l( [( x% y
       尹敬浩 Kyung-ho Yoon$ }' ~- x  k3 Z, E& B5 f  t" M' H' r

3 V8 |: r$ ]3 h& |◎标  签 韩国 | 喜剧 | 爱情 | 悬疑 | 2016 | 犯罪 | 剧情 | 惊悚4 n5 B/ p1 w8 m
( S' `" I: B: n1 f! {+ }
◎简  介
) L% f1 F/ Z4 e: P% |# E( o
9 L! X7 b! U7 l  V  《致命恋爱》是一部围绕连环杀人事件讲述三个男女间的浪漫搞笑故事的电影,融合惊悚、浪漫、幽默多种元素的风格。河智苑扮演热情高涨的推理小说家,一路追踪连环杀人犯。千正明扮演片中河智苑的好朋友,是一名刑警,陈柏霖扮演让女主角脸红心跳的帅气暖男,将与女主角上演一段浪漫情缘。% U7 X4 Z8 w# a( R5 r
; R( g( a6 `8 v- x6 P" v; d
  A detective fiction authoress makes a lot of romantic and funny stories with a criminal police and a fascinating sweet guy when she traces a serial killer
- [, Q, a  y, S9 H+ L2 \
Video
2 \' W" z' r1 Z8 `* B# wID : 13 u2 y8 U1 b, h$ A: o; m( ]2 g
Format : AVC0 k/ y5 x' d+ b% ^- F
Format/Info : Advanced Video Codec
2 d; Z5 K( r9 x: }) EFormat profile : High@L4* \  p7 O# B$ z
Format settings : CABAC / 4 Ref Frames2 S& [3 d' h+ R" ?! C6 E6 Q9 B. d
Format settings, CABAC : Yes
7 Q) d9 ~: \6 Y$ q9 d7 X3 ^Format settings, Reference frames : 4 frames1 p9 b5 f& T$ I  r0 {8 X/ o
Codec ID : V_MPEG4/ISO/AVC) `% S$ x7 c& W  d% k
Duration : 1 h 43 min
8 J, a3 z% m9 w0 _Bit rate mode : Constant
' I1 p$ O. J  I; T, |6 G( JBit rate : 10 000 kb/s6 B& r0 u) C0 C4 T) ]
Width : 1 920 pixels
- G0 m+ P% F9 d6 x3 [( q+ h, sHeight : 816 pixels
, e: o& J( ?( vDisplay aspect ratio : 2.35:14 j1 D3 {* I2 a$ k1 [5 b9 }, ?
Frame rate mode : Constant1 y) ^* E- ]1 `5 g
Frame rate : 23.976 (24000/1001/189150) FPS
5 M. \; P  e: M. _, G9 c! _Color space : YUV
2 n. ^) ]  Q) f2 d* t! YChroma subsampling : 4:2:0% w- V7 h. z4 j* }3 x
Bit depth : 8 bits
8 t* p. X: u7 H) k, \! SScan type : Progressive
9 U# l$ F6 u) s  rBits/(Pixel*Frame) : 0.266
1 u& ?5 u/ E! {" X3 s* B# W* YStream size : 6.99 GiB (98%). f) F% l, |8 ]! k( v+ M9 a) D
Language : English
1 h7 y% u$ J# |1 ^, dDefault : Yes
- c5 @) |* R! j$ CForced : No# i9 W6 o2 b  _. _3 }1 F
Color range : Limited
0 K* E& V8 P; v$ GColor primaries : BT.709
: U/ |: H8 u" f8 o1 R) y' yTransfer characteristics : BT.709
9 f' v9 Q& \; G6 HMatrix coefficients : BT.709
! G7 I! y1 o# l4 r; \4 ^( \, [! T* u: z  G
Audio5 |; ?& z0 q& R) [& X; W9 K9 `- v
ID : 26 B5 t6 M- [! N- C6 R2 p6 e
Format : E-AC-3
/ |" e2 n* U6 A9 m+ MFormat/Info : Enhanced AC-3
4 n1 p6 g, a2 N( G3 BCommercial name : Dolby Digital Plus
/ W) q' [; {! hCodec ID : A_EAC3
$ O7 V6 q0 |2 QDuration : 1 h 43 min
- Q- Q6 t% G" w9 s) N' mBit rate mode : Constant
8 D; n' @) R2 L3 a& v$ x( n! `- `Bit rate : 224 kb/s
" q2 ~6 d! ?' f1 e1 L6 A, m; rChannel(s) : 2 channels
4 |; Q4 x5 Y/ z+ EChannel layout : L R
, W7 O+ `( G+ Z" e7 |: L' y% |  ~* G0 |Sampling rate : 48.0 kHz1 Z, e* f' o: d; A; F) V+ d2 E! b
Frame rate : 31.250 FPS (1536 SPF)
1 _0 g" `; J) r2 ^; R' NCompression mode : Lossy
5 y+ c$ C& H: KStream size : 166 MiB (2%): q+ `) V, H) H; x0 m' E$ E0 G
Language : Korean/ J  A; a: h! S0 i
Service kind : Complete Main* A7 d4 `0 |) A4 S
Default : Yes
- Q7 M5 {* x( h1 |1 A" rForced : No7 n7 i; b5 P, [- v/ ]2 h

" W' K5 S# p( TText
  R4 Q; `; P8 Z4 _- Q: h; J% ?ID : 33 ?/ H2 P- G9 r" P+ _- H- }
Format : UTF-81 c/ c, b: W+ k+ }
Codec ID : S_TEXT/UTF8( |% y' ]7 Y9 Y) Y$ M
Codec ID/Info : UTF-8 Plain Text1 d# d  c4 t- L+ u; _+ h* @  E
Duration : 1 h 43 min: e+ I; u1 Q4 j( Y1 b
Bit rate : 42 b/s! a  y9 i$ g, c) o$ `# @
Count of elements : 1204
2 O. a+ W) i6 _3 u- hStream size : 32.4 KiB (0%)/ J+ s$ \% |8 F3 n# N
Title : SDH; z  v8 L( o7 B% J- j) W
Language : English$ ]7 D* L2 a- v9 S: A" s; F( f
Default : No
* o1 c# l; Q  v) {1 ?, A; XForced : No

' b2 i; m0 S# F! B: E, k1 g
游客,查看本帖隐藏内容请回复 | 加入VIP贵宾组可免积分免回复下载 了解详情 | 还不是会员:点击获取邀请码 Invitation Code

71

主题

2208

帖子

8495

积分

Sponsor

金币
919 枚
体力
3072 点
lanpanshuma 发表于 2021-2-23 23:30:13 | 显示全部楼层
楼主发贴辛苦了,I*老*虎*U!& f& V1 l5 W) [) `; i( C8 Z) ]
In fact, I have always felt that the landlord of good taste! Ha ha!- D/ J3 u! I( u. R" q' E3 O- x+ X
该会员没有 ...

本版积分规则

小黑屋|Archiver|蓝光电影资源网

GMT+8, 2021-3-9 12:13

快速回复 返回顶部 返回列表