BluRayCD Forum

 找回密码
 立即注册【分享大片】

QQ登录

只需一步,快速开始

查看: 180|回复: 7
收起左侧

[蓝光原盘] 停尸房收藏/殡仪馆收藏 [REMUX无损版] The Mortuary Collection 2019 1080p BluRaycd REMUX AVC DTS-HD MA 5.1-FGT 21.76GB

[复制链接]

8110

主题

8304

帖子

6万

积分

Forum Moderator

金币
11666 枚
体力
10435 点

卓越贡献勋章

24小时 发表于 2021-3-12 07:15:15 | 显示全部楼层 |阅读模式
An eccentric mortician recounts several macabre and phantasmagorical tales that he's encountered in his distinguished career.
! `2 O9 i4 W, h! d: o8 m% a
* N8 W0 Q& Y# j$ ?% _2 ^ 01.jpg ; V3 I# d6 Y3 m3 n

- {+ |5 ~7 c; A! J& X, @( P◎译  名 停尸房收藏/殡仪馆收藏" ^( S) I2 e9 y2 y! l. o% W$ T; v
◎片  名 The Mortuary Collection6 C; ]7 w) f7 y4 ]& k! w  m
◎年  代 20192 B- \+ g7 b& D" G
◎产  地 美国
. {! s' C  \' x8 x" i◎类  别 恐怖/奇幻
  W# b7 F) K& b$ q◎语  言 英语
8 k# L' Y# f" u* Y◎上映日期 2019-09-21(奇幻影展)/2020-10-15(美国), v8 p, u1 e) y! s% X" i: a5 N
◎IMDb评分  6.4/10 from 6,341 users# g( ~( T- Z* t9 e. H
◎IMDb链接  https://www.imdb.com/title/tt7781432/
7 {! @. `8 ~* S: y8 q. ~2 P◎豆瓣评分 7.1/10 from 17,068 users
* G  z+ _2 t6 ^6 @0 R& v% w◎豆瓣链接 https://movie.douban.com/subject/30257386/
8 x, B; D0 D( r, Q& O$ @◎文件格式 x264 + DTS
, m" O6 y9 f* E◎视频尺寸 1920 x 1080
1 l" D' m0 ^2 E8 X9 I1 K/ ]◎文件大小 1DVD 21.76 GiB7 J# ^- L0 h2 Q7 {) _% {5 o
◎片  长 1 h 50 min2 k7 Z) M% K' T; Y
◎导  演 瑞恩·斯宾德尔 Ryan Spindell7 S" v1 [3 h% m- j0 L; M# Q
◎编  剧 瑞恩·斯宾德尔 Ryan Spindell6 B* E( ~& d* v" T: Q* }
◎主  演 克兰西·布朗 Clancy Brown
" ?+ d3 [6 s( k( Z       凯特琳·卡斯特 Caitlin Custer
; z0 ]0 \% V+ i       克里斯汀·基默 Christine Kilmer
, {8 I. J' ]3 H8 @4 Q4 L9 I! R       雅各布·艾洛蒂 Jacob Elordi
2 x# _- R$ `3 U& T4 d       艾玛·霍瓦特 Ema Horvath# J  N4 o0 \  `1 d1 p& M
       珍妮弗·厄文 Jennifer Irwin
9 N$ v1 T+ k. Q# H1 a       詹姆斯·巴克曼 James Bachman
8 l) u1 j- ]( r- v       巴拉克·哈德利 Barak Hardley; f8 ^# x; O3 A, M
       莎拉·海伊 Sarah Hay& u5 |/ P) e& S2 |1 g
       迈克·C·尼尔森 Mike C. Nelson1 T  Z% ]1 C- f  ?* K
       迈克尔·鲍 Michael Bow1 ~6 T: A1 V' ~! @
       汤姆·伍德鲁夫 Tom Woodruff Jr.4 `2 ^: @$ g, n3 a( g/ N; Q
       山姆·艾德森 Sam Eidson& u, E0 @7 `4 K: B* [9 S) n+ A
       大卫·菲耶罗 David Fierro
$ `5 {, L- J( T0 J9 ?       约瑟芬·麦克亚当 Josephine McAdam
4 F% B! W# ^! h  r* `       伊登·坎贝尔 Eden Campbell
) d, h( S4 B7 i8 X) c+ m, u: V/ V/ z- _; v
◎标  签 恐怖 | 惊悚 | 美国 | 奇幻 | 灵异 | 魔幻 | 美国电影 | 2019/ c/ @) V/ {) r5 ]
8 S: y  O  v) _. \
◎简  介, R4 A4 v, c; e5 B2 k2 S( c1 ]

$ G6 n& i5 b* s  M  讲述少女走进一间古老的停尸房,管理员老人有很多跟尸体和死亡有关的收藏,他带女孩回顾1950-1980年代四起死亡的秘密,曾经和现在,可怕的事发生……1 @7 i9 |2 k7 }! j1 Y" y
1 ~, l5 p: ^9 t  ~% h5 H
  A creepy old mortician manages a very strange mortuary all alone until a young woman shows interest in working in the mortuary for the mortician. The mortician tells the young apprentice a series of stories about those that have died in the town.
8 w4 D3 D# @: d  u% m
Video
' R( m; p5 ~) m; h3 k5 K" N2 hID : 1
5 U4 G, O; @$ ?8 J0 b0 A$ hID in the original source medium : 4113 (0x1011)
0 O4 z9 Z: t! A2 }( N) O8 G* {Format : AVC1 j1 i0 j0 p, ^. L7 Y% K% W
Format/Info : Advanced Video Codec0 q: G* I8 P" R% S. H2 c9 X
Format profile : High@L4.1& g& Z* Y/ B  ^$ q( |4 v
Format settings : CABAC / 4 Ref Frames, w6 t, l5 `4 g$ r& O/ B
Format settings, CABAC : Yes# N# y4 f  m/ ~1 y% [
Format settings, Reference frames : 4 frames
. \5 t2 Y: e+ U; V: b' G. B( mCodec ID : V_MPEG4/ISO/AVC7 b4 A% X8 f+ J( s3 F
Duration : 1 h 50 min
& }7 V  W$ z' F) R. R5 x$ b1 B; TBit rate mode : Variable9 Q/ H  p" C$ A! t, f0 b7 H; A, ]$ p
Bit rate : 25.9 Mb/s$ N8 N5 x$ @- I, B8 L* O
Maximum bit rate : 38.0 Mb/s
" i5 n  H) a  B( u! }. T& M/ `0 YWidth : 1 920 pixels
$ H" f3 K1 g0 o6 ^. C. v; s1 u8 `( XHeight : 1 080 pixels8 W' T+ Y" I0 A- m  V# G0 r
Display aspect ratio : 16:9
! l) }3 v4 n2 s& _Frame rate mode : Constant/ [# _* e- M, ]) g, U
Frame rate : 23.976 (24000/1001/189150) FPS
; w' d, M8 |+ {& \8 p4 n3 |3 xColor space : YUV- f0 e. }( ~4 v1 @0 a; V
Chroma subsampling : 4:2:0
3 F% M9 Z1 \5 }4 e1 c% G; w" g. p1 y4 {Bit depth : 8 bits$ J) ^$ d* `. @' G# [  b
Scan type : Progressive
/ t! H8 n$ @5 f3 e/ E: e" cBits/(Pixel*Frame) : 0.520) x# L" Z/ n( a; Y' t" Z+ [
Stream size : 20.0 GiB (92%)
; C# L' g7 l+ j, j  }Title : The.Mortuary.Collection.2019.1080p.BluRayCD.REMUX.AVC.DTS-HD.MA.5.1-FGT( I! _$ Q2 F: H
Language : English
7 [( J: R5 C$ H4 F: r4 P) {- V3 NDefault : No& L) x3 ]' B" M
Forced : No5 M' d6 y# ^7 h' ]+ B% O; V  _
Original source medium : Blu-ray
, N! H6 J" r* b2 ~2 n$ H" F/ U2 ~; i9 j- r
Audio #1
6 p  x3 u' Z3 T' QID : 2# F8 q* E& }; }  H
ID in the original source medium : 4353 (0x1101)1 S8 D* S6 E# u7 }, G. m; u2 }
Format : DTS XLL
/ O( p7 h. c2 N0 o6 SFormat/Info : Digital Theater Systems
% r8 L7 s$ `' |; J4 K0 NCommercial name : DTS-HD Master Audio! c+ N' k% B( `) a( l4 t0 {
Codec ID : A_DTS9 }3 J' u2 @' e5 z, G
Duration : 1 h 50 min- \. ~# k: T! J
Bit rate mode : Variable
0 D, }0 z# S9 v; D+ ^4 @Bit rate : 1 983 kb/s; L# P# A- L5 X9 y- `
Channel(s) : 6 channels0 t  [3 T+ i8 w6 f
Channel layout : C L R Ls Rs LFE+ i( k% ]" f) z" K% N" d  Q: g6 _, C
Sampling rate : 48.0 kHz3 K- X) C. E+ w
Frame rate : 93.750 FPS (512 SPF)0 R& L! E; @1 P% u
Bit depth : 16 bits
& n: C0 g" C- x, B# a( hCompression mode : Lossless
. {; g3 @6 P7 Y9 n" BStream size : 1.54 GiB (7%)
( Y& R  A+ h4 u1 Z+ ZTitle : The.Mortuary.Collection.2019.1080p.BluRaycd.REMUX.AVC.DTS-HD.MA.5.1-FGT  W& K8 p+ T+ b; }' z3 j$ `
Language : English* Z- i2 P! y; a" N7 s- f
Default : Yes! H" K& g; G8 [6 j! H5 ]
Forced : No
2 D% b! Z# m: h/ G) f" N1 m2 Z8 aOriginal source medium : Blu-ray
1 l9 I+ N  U) k" N( ~1 a2 V% v, f1 W( w& q+ F! m
Audio #2! A0 V( O: a  \
ID : 3
6 E& s/ Q7 R& y- Q- R* AID in the original source medium : 4354 (0x1102)& Y1 R  p& H. o9 c0 X1 ]
Format : AC-3% S7 E# V5 f$ f
Format/Info : Audio Coding 31 R0 x6 y) a0 H% y2 k
Commercial name : Dolby Digital
7 o1 u8 P2 \1 f; t, R5 cCodec ID : A_AC3) K% o; `- M  Z9 G$ `
Duration : 1 h 50 min; X: k+ u$ @5 q# V' I! E. x
Bit rate mode : Constant2 i  V  k9 a2 h( S" A& y" F9 t
Bit rate : 224 kb/s  l3 x  ^' \. |% `8 j! _5 S
Channel(s) : 2 channels
7 f  ?: I) \5 x# W2 R) hChannel layout : L R
% V4 O& g" I+ ]3 |( [' o0 qSampling rate : 48.0 kHz) U) T# p5 c& {6 \5 B
Frame rate : 31.250 FPS (1536 SPF)
, p* O  P  w4 Z5 `, D9 VCompression mode : Lossy2 O+ ^# N2 N% b9 v. a
Stream size : 178 MiB (1%)
1 J- C4 p: N  n* H, d& Z0 E# aTitle : The.Mortuary.Collection.2019.1080p.BluRaycd.REMUX.AVC.DTS-HD.MA.5.1-FGT9 Q# o* m5 l4 p- n, }
Language : English( X6 S2 |+ u) \: Y$ v# G
Service kind : Complete Main
4 c7 D: Y( K6 V+ i; N2 @" x) DDefault : No
& F7 T# i1 a  ?' y) |Forced : No
3 a0 v+ g. y# [* @Original source medium : Blu-ray( b. {- Z9 N/ e, _
$ {; {# W4 D; J3 o$ M/ \
Text- R7 k. [7 ?% B
ID : 4
! w# q: o# m5 v' k  p9 d8 DFormat : UTF-8
# W2 G/ v6 T, I2 R1 _/ ~3 xCodec ID : S_TEXT/UTF8
8 L) }  G3 Z. y4 z2 K& G8 wCodec ID/Info : UTF-8 Plain Text1 d# K5 C" `5 G2 a
Duration : 1 h 50 min
4 T' }, B7 l( A6 e/ k! n8 FBit rate : 38 b/s
7 n( ^/ C* k0 y- A* LCount of elements : 13829 F5 M" V) b* t2 v$ {: J
Stream size : 31.4 KiB (0%)* b0 T; J0 t* D" J% x# h1 ]4 F
Title : English-srt
1 Y0 d5 z* ^3 C  K6 V8 |/ ULanguage : English! k. G. |" d7 ^0 h1 ^5 K& z
Default : Yes
3 {6 U) j3 y, V9 G) c0 pForced : No% N6 q( X: h: D- s' G; q

% [. p3 M* b2 N* EMenu0 v- t# M$ n% T: Z, I$ M$ }
00:00:00.000 : en:Chapter 01
! I- P8 F3 \: e; R! U# V00:07:36.998 : en:Chapter 02
  G; U1 s" w7 v4 f  M) ]& ?$ ~! S9 ^00:11:07.833 : en:Chapter 03
5 _4 s4 Q3 a) T- J00:16:33.617 : en:Chapter 04
  h' _( T# a/ ~( r5 J00:19:38.385 : en:Chapter 05
/ {" l4 @+ z/ D4 C  Y" l  B9 i00:45:07.746 : en:Chapter 06
. T1 V4 F) g$ f8 [00:48:57.017 : en:Chapter 07. K# u; A0 D( ~
01:14:32.968 : en:Chapter 08
6 o+ X$ q4 r' Z, J0 A# D7 U01:18:26.576 : en:Chapter 09
* }( ~/ ]% ]0 w4 b; Y01:37:01.232 : en:Chapter 10! E6 Q. W! v, c  r+ Q8 D. e
01:39:39.306 : en:Chapter 11
0 R% _  ]9 ~( y01:46:47.818 : en:Chapter 12
4 M* D3 B9 o9 N
游客,查看本帖隐藏内容请回复 | 加入VIP贵宾可免积分免回复 了解详情 | 还不是会员:点击获取邀请码 Invitation Code

718

主题

2388

帖子

1万

积分

VIP advanced

金币
2362 枚
体力
5453 点

公主勋章卓越贡献勋章

21cn 发表于 2021-3-13 02:14:15 | 显示全部楼层
啥也不说了,楼主就是给力!1 v/ a/ P/ K6 F$ K0 N
Not see, I am a novice, the inadequacies of the first Please bear with me!
9 E# b+ q. @: Q! e8 S, k& F

75

主题

2420

帖子

9375

积分

Sponsor

金币
1068 枚
体力
3381 点
lanpanshuma 发表于 2021-3-14 05:57:48 | 显示全部楼层
果断回帖,如果沉了就是我弄沉的感觉很有成就感!
& @0 j# Z+ z; X8 W7 _. `7 b祝愿蓝光社区越办越好!I wish Blu-ray communities better and better!8 u! [2 U; S+ O, q& i4 k
该会员没有 ...

0

主题

111

帖子

461

积分

Sponsor

金币
60 枚
体力
177 点
指环王170406 发表于 2021-3-15 21:35:45 | 显示全部楼层
楼主就是给力!

0

主题

44

帖子

216

积分

Sponsor

金币
3 枚
体力
123 点
sj19920312 发表于 2021-3-15 21:36:19 | 显示全部楼层
啥也不说了,楼主就是给力!
  Z6 n9 D8 @( [$ p7 a! x( iNot see, I am a novice, the inadequacies of the first Please bear with me!- u+ K" s+ j8 I! N. Y. ^6 T- j3 Y

0

主题

111

帖子

461

积分

Sponsor

金币
60 枚
体力
177 点
指环王170406 发表于 2021-3-26 07:09:25 | 显示全部楼层
祝愿蓝光社区越办越好

0

主题

34

帖子

321

积分

Sponsor

金币
171 枚
体力
76 点
wuyan7734 发表于 2021-3-28 18:38:36 | 显示全部楼层
Bluraycd又有新电影发布了,激动中……!
. D# d6 W) [, |; y1 BIn fact, I have always felt that the landlord of good taste! Ha ha!9 ?1 D; c# J* N& k! u  x' @0 [

本版积分规则

小黑屋|Archiver|蓝光电影资源网

GMT+8, 2021-4-20 19:13

快速回复 返回顶部 返回列表