BluRayCD Forum

 找回密码
 立即注册【分享大片】

QQ登录

只需一步,快速开始

查看: 357|回复: 6
收起左侧

[蓝光原盘] 自卫的艺术/自卫艺术 [REMUX无损版] The Art of Self Defense 2019 1080p BluRaycd REMUX AVC DTS-HD MA 5.1-FGT 26.80GB

[复制链接]

5345

主题

5519

帖子

7万

积分

Post Share

金币
11847 枚
体力
18671 点

卓越贡献勋章

黄金嫖客 发表于 2021-3-22 19:41:48 | 显示全部楼层 |阅读模式
A man who is attacked at random on the street and enlists in a local dojo, led by a charismatic and mysterious Sensei, in an effort to learn how to defend himself.- ^+ w5 {( M! _$ @

: T4 S, l) ^1 f, | 01.jpg
0 ]" W8 A. l: C' I" E& s/ N
# j- u: _) Z* f! I3 S◎译  名 自卫的艺术/都是自卫惹的祸(台)/自我防卫的艺术/自卫艺术
5 v8 U* X8 S8 _& |4 q◎片  名 The Art of Self-Defense, O2 \+ {/ x# s& F' M
◎年  代 2019
* p% d  [* P" F2 a$ _◎产  地 美国6 I9 H: w0 [% U; V
◎类  别 动作/喜剧/犯罪
' ~0 G) F- A/ L* n) G◎语  言 英语/法语/德语
1 C0 a: r2 _' J  s8 s( Y' C% [3 J◎上映日期 2019-03-10(西南偏南电影节)/2019-07-12(美国)
/ L2 Q& {0 ~* I( P4 K◎IMDb评分  6.6/10 from 28,875 users
6 X' D. ~" Q) h1 Y7 Q' n◎IMDb链接  https://www.imdb.com/title/tt7339248/
% T) G% g, T- `0 l- f5 ?% q◎豆瓣评分 7.3/10 from 11,825 users0 U& z6 l/ C  _
◎豆瓣链接 https://movie.douban.com/subject/27138615/
6 D1 J* W' `$ ~! k9 e◎文件格式 x264 + DTS  G; E* G8 A0 T6 ?% g
◎视频尺寸 1920 x 1080* l+ u9 q1 Z' c( b  N
◎文件大小 1DVD 26.80 GiB
: @2 @6 k3 F: Q◎片  长 1 h 44 min* Y8 n: l8 b% Z: N7 Y* B
◎导  演 莱利·斯特恩斯 Riley Stearns
, I& R, M9 ~2 {/ [, h: |◎编  剧 莱利·斯特恩斯 Riley Stearns
0 n2 J) g& R8 F) {2 P+ F◎主  演 杰西·艾森伯格 Jesse Eisenberg
% R0 ]1 z+ f$ E8 k" e       亚历桑德罗·尼沃拉 Alessandro Nivola0 I9 a1 G7 ]3 f
       伊莫琴·普茨 Imogen Poots
2 j! R5 y% m/ K4 ~" t& M% h3 z       菲利普·安德烈·博特略 Phillip Andre Botello
0 x* s) @& I9 ?/ W- i5 U/ N       利兰·奥瑟 Leland Orser
0 e0 u# K. O! i* y, `       乔希·法德姆 Josh Fadem$ x2 t" T* z3 x8 U+ f
       杰森·伯基 Jason Burkey
/ d- `2 Z; C8 C  B% B( B9 @3 e       大卫·泽尔纳 David Zellner
4 G% c( l8 f6 U2 R% L6 a       戴维·约翰逊 Davey Johnson
9 u  n5 z# l  s' c3 |8 ^8 _  G$ @8 U- V7 u: o
◎标  签 黑色幽默 | 美国 | 喜剧 | 犯罪 | 2019 | 杰西艾森伯格 | 社会 | JesseEisenberg
# x6 I" f  k$ J; c. _3 T+ F6 X! @( H7 Y, ^) K- p
◎简  介9 ~) ]6 |" T' R0 X1 t
  G/ x2 @- l% _1 d8 r& [! m
  Bleecker Street购得莱利·斯特恩斯执导的黑色喜剧新片《自卫艺术》 的全球发行权,杰西·艾森伯格、伊莫珍·波茨、亚历桑德罗·尼沃拉主演,艾森伯格饰演一个在街上莫名遭遇攻击的倒霉孩子,后加入柔道训练学校跟着极有魅力又充满神秘的师傅(尼沃拉饰)学习自卫防御术,揭开了充满兄弟会情谊、暴力、超男子主义的邪恶世界的面纱,波茨扮演的女主角正努力奋斗想取得一席地位。该片已于周一在肯塔基开拍。
: g4 }- D- C3 a
) m; x! y9 O6 O) M% f  After being attacked on the street, a young man enlists at a local dojo, led by a charismatic and mysterious sensei, in an effort to learn how to defend himself from future threats.( D( |7 V( ]+ a( b5 T2 Q3 g

/ _  z" F, @0 S. S  t/ N( y7 d
Video
( ]6 ?6 {% T+ p( w, J: lID             : 15 F9 ]; ]- z# ?' Q& ?& Y( d1 b
Format           : AVC
$ v6 l4 l4 z. YFormat/Info          : Advanced Video Codec
8 J* j* D  F# M5 }0 u( mFormat profile         : High@L4- p: {0 L' L6 m* t$ O7 f2 ~: g
Format settings        : CABAC / 4 Ref Frames
" e& X0 N" n: SFormat settings, CABAC       : Yes
& n) x( B: G( U, pFormat settings, Reference frames  : 4 frames6 |1 N+ J+ T7 K: x: U
Format settings, GOP       : M=3, N=120 N# [. d. o' c  O6 @$ e3 g- z
Codec ID           : V_MPEG4/ISO/AVC- q7 N2 y# f" C+ |, b
Duration           : 1 h 44 min! S- c1 g9 w" |8 D+ B- B( W
Bit rate mode          : Variable. `7 R% p% ?7 E7 l2 Q. k+ [
Bit rate           : 33.4 Mb/s5 i- L$ _' Z0 N5 v5 O
Maximum bit rate         : 36.0 Mb/s
& x, \/ W+ V1 |% u6 YWidth            : 1 920 pixels$ L) m) }& H# L
Height           : 1 080 pixels
; ?7 c  o/ s8 _* H" P6 QDisplay aspect ratio       : 16:9
/ v" B9 K9 {9 J2 V3 H  Z: `Frame rate mode        : Constant9 y7 p" f9 ]/ J* H3 R; v
Frame rate           : 23.976 (24000/1001) FPS
, Q& b$ M1 q! e; i- i1 CColor space          : YUV4 y. p6 y" D: |+ C1 k
Chroma subsampling       : 4:2:0
' L8 f2 Z0 u5 X5 y7 o, ZBit depth          : 8 bits
1 b5 {/ I0 D! {: nScan type          : Progressive
7 X; U# B& c# I% h: q6 w$ H, o0 NBits/(Pixel*Frame)       : 0.671
3 l& |* f- L; t4 f, RStream size          : 24.3 GiB (91%)6 ]0 N/ ~/ h, C- k0 B% m; t
Title            : The.Art.of.Self.Defense.2019.1080p.BluRayCD.REMUX.AVC.DTS-HD.MA.5.1-FGT9 |5 p/ j) E* U! `9 u
Language           : English
9 L& s( d# @4 o' aDefault            : No8 r. z- }0 ]0 M/ l. d$ q. @
Forced           : No" s4 c! n# L  n4 Z3 v
! d" M6 p  o5 H3 b" R
Audio #1$ c% ?& x% M9 e! h
ID             : 2& {2 s& s7 C  e' C7 U: f9 I/ {
Format           : DTS XLL' A  v/ M+ ^$ i6 z2 s" H
Format/Info          : Digital Theater Systems) C- E- v1 A! T( y! q
Commercial name        : DTS-HD Master Audio: X, |3 `4 J0 |0 Y0 k( k( e
Codec ID           : A_DTS
* D) ]6 p: M* n9 y. u) SDuration           : 1 h 44 min4 x. @; i  t6 D  J) V' G6 {
Bit rate mode          : Variable6 b  b7 z0 G; a
Bit rate           : 3 203 kb/s5 n. p' s# X3 J, |5 e' ^* K
Channel(s)           : 6 channels
* M8 e8 D: ]1 n5 s4 Y7 `' sChannel layout         : C L R Ls Rs LFE8 c) j+ s, f& i* p# n* f/ O
Sampling rate          : 48.0 kHz
- c* m# _/ x# k# E4 N$ F6 V' l" Z6 ZFrame rate           : 93.750 FPS (512 SPF)
9 k0 F9 P- O" w3 v( lBit depth          : 24 bits
4 _$ i3 V* V2 S% d6 Q% r# MCompression mode         : Lossless9 w2 \- n/ W, X  r
Stream size          : 2.33 GiB (9%); z  ^6 |# y5 U7 P( F* m3 _7 F3 s7 Y
Title            : The.Art.of.Self.Defense.2019.1080p.BluRaycd.REMUX.AVC.DTS-HD.MA.5.1-FGT. I, I) D2 ~4 C( {
Language           : English
$ b4 p: }2 t" d; r  _% t0 g6 o2 HDefault            : Yes
. U! H6 B# m" R$ e) G# jForced           : No+ j+ U8 G' }7 z

" f6 v$ M/ [5 D, `3 P- g$ OAudio #2
3 M6 y$ d2 W- ?6 |ID             : 3
! }" M3 H: ]5 D& SFormat           : AC-3
/ H. r: s  v9 ^- L# d3 aFormat/Info          : Audio Coding 38 ~$ O4 |/ `  ?) B" z. y" E
Commercial name        : Dolby Digital: @; c4 ~( ]4 c; w$ {& `  I5 }
Codec ID           : A_AC3
2 L: M1 {5 I. j) x% ~Duration           : 1 h 44 min
( d/ O# i  V$ _* ~Bit rate mode          : Constant; A5 m$ V# [! z7 X. _0 p$ M, A) h  g
Bit rate           : 192 kb/s  S5 ]8 R) [" ]( D7 c+ g+ h, f
Channel(s)           : 2 channels8 O) w/ v! B$ m' _- h
Channel layout         : L R6 t: {- N1 k* [
Sampling rate          : 48.0 kHz( Z7 ~7 |6 w. d% D4 f+ T# U% p
Frame rate           : 31.250 FPS (1536 SPF)3 S1 I  y# P8 w+ k! \
Bit depth          : 16 bits& P& {: C% V( T4 V; M
Compression mode         : Lossy
3 S/ C, P- b& `. P6 ~2 q- hStream size          : 143 MiB (1%)6 g( @3 U" H1 g& Z: M! ?
Title            : The.Art.of.Self.Defense.2019.1080p.BluRaycd.REMUX.AVC.DTS-HD.MA.5.1-FGT
0 e3 I# ]5 N, U, j% M( [- o3 H( sLanguage           : English
5 W3 F, ^) d! W- F! M& iService kind         : Complete Main! F0 W; Y; E! r; `
Default            : No; k/ M$ E, Z8 o) `' ~! ~6 G0 W
Forced           : No
7 E" i: b+ f, U( h
% \+ f9 X8 a) @3 A4 }Text #1
% d' d' Q! @( i0 A2 j7 x2 d1 i7 mID             : 4
" U/ G' N, C0 U* n  BFormat           : UTF-8- u' ?* Y- x$ j& n
Codec ID           : S_TEXT/UTF8
4 T$ j) y# H' `8 }" S: MCodec ID/Info          : UTF-8 Plain Text+ U2 z# j( ?' T& |* F5 [. C2 g
Duration           : 1 h 39 min. g9 G" a  I; A% e
Bit rate           : 52 b/s' [, K! ]5 v& i0 _
Count of elements        : 1010$ v2 |& y( L8 O: l
Stream size          : 38.4 KiB (0%)6 m/ U0 }$ d: ]( Z6 }5 ^% \
Title            : English-SRT
& p+ P4 U0 o1 i5 KLanguage           : English8 s2 g# L- n1 i" T
Default            : Yes2 F0 R0 f6 k. w5 N! p) }1 j, X
Forced           : No: c) Q" W( ]- b# g, z- U; M1 o

/ d/ l* k! I! c4 t# A* Z* b( \; QText #24 U' Q: Y. m' ^" a! {
ID             : 50 N4 K/ }3 v5 I5 Y/ }
Format           : PGS: O. C) k6 F. C0 d
Muxing mode          : zlib. L9 u; V( r" C% |, b
Codec ID           : S_HDMV/PGS' H1 n7 A+ r7 _
Codec ID/Info          : Picture based subtitle format used on BDs/HD-DVDs( e0 r( h- z5 G, ^
Duration           : 1 h 39 min
6 J+ |6 U' ]+ E% k. X' yBit rate           : 38.0 kb/s# H8 A& r- h, t" T0 W2 p: J
Count of elements        : 2322
9 l% @0 t" R1 Y4 HStream size          : 27.0 MiB (0%)0 b$ R+ g" ]9 q8 j$ p8 j% H$ h6 \& X0 d
Title            : English-PGS& Q8 C4 ]( g( g. y' B7 Z
Language           : English4 b! m4 J/ o0 h4 F0 ?. A: d
Default            : No
. K5 E) R, j- s$ N/ I$ e4 p  LForced           : No' K* U0 m; D' H
8 S) s2 i3 T. v, m
Text #3
: z% F5 W. ^4 KID             : 6( o3 R* @: `. Y! t/ V
Format           : PGS
* ]; n  K' Z* W6 vMuxing mode          : zlib
4 D5 N7 u* O. ~, \- n7 n, \Codec ID           : S_HDMV/PGS
% `1 B, d3 y" N/ fCodec ID/Info          : Picture based subtitle format used on BDs/HD-DVDs7 M, [7 w" r( s: ]
Duration           : 1 h 42 min7 n* u+ t* {: p/ _% [8 U% \7 V
Bit rate           : 30.0 kb/s
7 v8 A! Q+ R; a7 j4 P1 lCount of elements        : 2054$ ~) L1 e# B& H8 ], E& ?. s& B- y
Stream size          : 22.0 MiB (0%)
$ h' S/ \! ~; o+ @Title            : Spanish-PGS# T" ]  h. [9 L1 P$ m; t. a
Language           : Spanish
* ]  ^- ]( ]4 x5 R- z0 u/ uDefault            : No
+ f8 Q3 O$ {2 |: BForced           : No
$ t4 R. Q% b7 n& A6 w# x+ K0 K: j7 Y7 V  [
Menu2 _* G7 A& t6 T8 f6 G- W4 @% |3 C
00:00:00.000         : en:Chapter 01
6 b7 E* x3 r* J% S" X3 |) z( k8 H00:05:58.107         : en:Chapter 022 T4 U5 @; }* G5 l5 i. r
00:11:27.478         : en:Chapter 03
' M/ \, a) Z% ^. x! c# [- a. q00:16:24.900         : en:Chapter 04
4 E; S3 [! ~2 K4 D. N+ H00:22:05.574         : en:Chapter 05
/ `" n. _' M5 n( H% c8 |00:27:34.861         : en:Chapter 06
9 a; d. C% y8 \9 k1 I* _8 `00:30:49.264         : en:Chapter 07
( G4 @) d! l* k7 M0 t. ~1 L5 u' C00:37:58.526         : en:Chapter 08- n) {7 U) z+ B, Y. f5 X/ x! j% n
00:43:38.616         : en:Chapter 09
7 Q/ B- H, s9 a. L+ J0 h) f00:47:33.058         : en:Chapter 10) n5 \* ~& l$ y/ h3 [- K! V' I
00:51:34.925         : en:Chapter 11
; E( n0 C& [& J00:57:38.955         : en:Chapter 12
# G* x0 T5 H: X! J01:02:57.690         : en:Chapter 13
( v; t' M4 r! O/ @01:09:50.311         : en:Chapter 149 j! c2 k& E1 F8 Y) C& @3 b
01:16:10.232         : en:Chapter 15( c" ~, r. [' N& w; Y3 t- J
01:20:53.682         : en:Chapter 16# r* J: I: V1 \; u+ i4 h! T4 N. \
01:24:42.994         : en:Chapter 17
  @/ o3 [6 G4 l9 o6 N% l/ y01:30:55.450         : en:Chapter 188 n" O+ P* D4 ]5 ?5 `+ A# B* k+ X
01:35:38.858         : en:Chapter 19
7 \  P% N# ^5 |+ h, g% T! u01:39:41.350         : en:Chapter 20

6 I9 H# V3 s6 i( F
游客,查看本帖隐藏内容请回复 | 加入VIP贵宾可免积分免回复 了解详情 | 还不是会员:点击获取邀请码 Invitation Code

75

主题

2420

帖子

9375

积分

Sponsor

金币
1068 枚
体力
3381 点
lanpanshuma 发表于 2021-3-27 01:03:18 | 显示全部楼层
这么好的帖子不回对不起自己!- N0 g" g; Y* S* N
The decisive Replies sink is I get the sinking feeling great sense of accomplishment!* ^+ S: d' c' c  Q8 `" X2 C' d
该会员没有 ...

0

主题

593

帖子

2818

积分

Sponsor

金币
9 枚
体力
1567 点
sclzywxl 发表于 2021-3-28 11:11:51 | 显示全部楼层
谢谢楼主分享

1

主题

131

帖子

726

积分

Sponsor

金币
228 枚
体力
270 点
QQ
ccfys888 发表于 2021-3-30 09:58:30 | 显示全部楼层
果断回帖,如果沉了就是我弄沉的感觉很有成就感!7 _( N$ _# ^" k2 k
Blu-ray Film Forum: I will always support you!
! l6 h2 H2 Y3 ?3 }# C4 f2 n

0

主题

67

帖子

440

积分

Sponsor

金币
165 枚
体力
116 点
tulyzyn 发表于 2021-4-6 18:26:28 | 显示全部楼层
有点点意思

0

主题

60

帖子

295

积分

Sponsor

金币
19 枚
体力
171 点
top3dmax 发表于 2021-4-9 13:45:56 | 显示全部楼层
果断回帖,如果沉了就是我弄沉的感觉很有成就感!

30

主题

1559

帖子

8403

积分

Sponsor

金币
1179 枚
体力
4156 点
QQ
shiji1973 发表于 前天 09:57 | 显示全部楼层
感谢分享精彩电影

本版积分规则

小黑屋|Archiver|蓝光电影资源网

GMT+8, 2021-4-20 19:21

快速回复 返回顶部 返回列表