BluRayCD Forum

 找回密码
 立即注册【分享大片】

QQ登录

只需一步,快速开始

查看: 20|回复: 1
收起左侧

[2160P极清] 全力以赴:为民主而战 [4K高清版 内嵌中字] All In The Fight for Democracy 2020 2160p AMZN WEB-DL x265 8bit SDR DDP5.1-SWTYBLZ 7.45GB

[复制链接]

4917

主题

5293

帖子

5万

积分

Post Share

金币
11104 枚
体力
9011 点

卓越贡献勋章

mvods 发表于 2021-4-7 22:45:39 | 显示全部楼层 |阅读模式
01.jpg 7 i, _, O' c9 K: j+ f/ D: d, P7 \. C

# H$ L7 @7 @% ^* z7 m. ]! p+ {1 m◎译  名 全力以赴:为民主而战/全力一搏:为民主而战(台)& e* ~* E$ l' S7 r( f
◎片  名 All In: The Fight for Democracy0 x+ r) o( E; p* O% m4 E
◎年  代 2020: N: ~  g+ P+ _
◎产  地 美国
1 O1 @2 ], G; j/ Z  F# B$ d◎类  别 纪录片
) K  R9 ?+ z: j5 g! e* e4 K& X◎语  言 英语. ?" O; e5 a- \; \: S1 w
◎上映日期 2020-09-18(美国)
  c7 M& s3 Z$ u9 e◎IMDb评分  6.5/10 from 1,553 users- D) k  o9 E5 |) f
◎IMDb链接  https://www.imdb.com/title/tt12538822/
0 t' `: Y" m) g( F; ^; S◎豆瓣评分 0/10 from 0 users
* d/ H8 c/ q& m. P9 ^◎豆瓣链接 https://movie.douban.com/subject/35165191/
5 W$ q, b2 `# D/ X( V◎片  长 1 h 42 min
* j1 o& B3 W3 z  R2 L! Y, k◎导  演 丽莎·科特斯 Lisa Cortes$ A& o. b0 X+ D6 v8 ^$ @- `
       莉兹·加伯斯 Liz Garbus. b- d2 [7 s' ~0 S% n0 \7 q: d
◎编  剧 杰克·扬格尔森 Jack Youngelson
4 k) V) Q* C8 D, h& ]* B( a◎主  演 Stacey Abrams
. R+ c% S0 S7 x# W. g- w3 g       安德鲁·杨 Andrew Young
8 Y9 C: p/ d+ M7 ]  D5 e2 Z3 q       埃里克·方纳 Eric Foner4 l8 m% g$ `7 z7 H
       露西·拜恩斯·约翰逊 Luci Baines Johnson
4 @* E5 O2 _8 D+ Y! A' r/ A- L( m       Lauren Groh-Wargo
- X( D( l. S- P. t9 ~1 |3 {       Debo Adegbile9 I( L: J6 o$ ~
       Michael Parsons0 _( E* ?# a' B- J
       Frances Fox Piven
3 p+ P- j! J9 V9 d) _       Marcia Fudge
# n( c' o% C; |       Michael Waldman
8 j2 d8 w" i  H6 Z" H" v       Carol Anderson
; M: L' m9 p4 R       Jayla Allen0 J; X: _6 Q( l( F9 z- D  W
       Sean J. Young
( y3 u, x8 Q. J( z6 A       Bert Rein
9 s  O: |# p' k3 n2 c' }0 K       Desmond Meade8 O- q1 g: W: u9 ?% m" u

# D1 _  O5 o/ z9 r+ K  @: e" v◎标  签 纪录片 | 美国 | Documentary | 政治 | 2020 | Amazon | 皿煮食油 | Streaming-amazon
1 J# N0 h3 ~& y3 p4 V  z9 {6 h7 F0 W$ L
◎简  介   
1 t9 `, T. d3 t$ W3 Q! `% F" R& [9 o3 u3 R
  这部纪录片回顾了反对选民压制的历史和当前的激进主义,以及大多数人甚至不知道的投票障碍是对他们作为美国公民的基本权利的威胁。
) H1 Y! Z) G4 D  I- b. i7 s+ U; X4 J6 w7 J, ?, z2 C
  The documentary takes a look at the history, and current activism against voter suppression; barriers to voting that most people don't even know is a threat to their basic rights as citizens of the United States.
- ], w7 q: m' e. r! M
/ Y  P8 W) G, E9 E( a- K( C◎获奖情况6 Q& F0 P  y% Z/ m# U  U
3 X8 b9 D6 j7 w. l5 H5 _, ^
  第92届美国国家评论协会奖 (2020)
: |4 `( y5 U/ l# I. i. c- z7 y+ W3 t  五佳纪录片
8 y" `9 N9 `8 g; s# @3 @" d. A8 w
Video# q, U6 `3 {- b9 @+ x
ID : 16 J, ~0 ^: J$ n. ]' }% n) x
Format : HEVC# g! N2 a* Y: b2 {+ j. W
Format/Info : High Efficiency Video Coding8 X3 p/ \/ G  @/ Y0 z8 ]) ]/ ^
Format profile : Main@L5@Main
- E. O7 N) o1 O  C$ UCodec ID : V_MPEGH/ISO/HEVC
: V7 ]# y& Y' ]" T* {Duration : 1 h 42 min
( v) L' C- J8 F: h! G4 yBit rate : 9 781 kb/s. q1 w" O: p) X7 {" S2 g
Width : 3 840 pixels- j3 B* a+ I9 Q
Height : 1 600 pixels
. F6 ~/ g5 i8 ]: j3 |% @Display aspect ratio : 2.40:1
+ V5 E6 f- L; Q% HFrame rate mode : Constant9 z3 z' w; w4 `, @* w5 ]& O1 r
Frame rate : 23.976 (24000/1001/189150) FPS
6 _& ?: X' q4 Z7 b3 p+ |# RStandard : NTSC& F+ }& c9 S4 P0 k; J7 F% P
Color space : YUV2 H7 I6 v/ }: E+ f: t. B8 k
Chroma subsampling : 4:2:05 Q: P9 F6 _5 H9 A" ^6 ~
Bit depth : 8 bits
  f2 X0 R) u( Z, t& B% a$ TBits/(Pixel*Frame) : 0.066
* R% _6 V; M/ _' X1 AStream size : 6.99 GiB (94%), q8 c4 O9 \1 X' H' s0 Q
Writing library : x265 2.9_elemental9e0607aa5b6f:[Linux][GCC 4.8.5][64 bit] 8bit+10bit+12bit
! L$ C8 i# d5 H; w; r8 nEncoding settings : cpuid=1111039 / frame-threads=2 / wpp / no-pmode / no-pme / psnr / ssim / log-level=2 / csv / csv-log-level=2 / input-csp=1 / input-res=3840x1600 / interlace=0 / total-frames=0 / level-idc=50 / high-tier=1 / uhd-bd=0 / ref=5 / no-allow-non-conformance / no-repeat-headers / annexb / no-aud / no-hrd / info / hash=0 / no-temporal-layers / no-open-gop / min-keyint=61 / keyint=120 / gop-lookahead=0 / bframes=8 / b-adapt=2 / b-pyramid / bframe-bias=0 / rc-lookahead=120 / lookahead-slices=4 / scenecut=0 / radl=0 / no-intra-refresh / ctu=64 / min-cu-size=8 / rect / amp / max-tu-size=32 / tu-inter-depth=4 / tu-intra-depth=4 / limit-tu=4 / rdoq-level=2 / dynamic-rd=0.00 / no-ssim-rd / signhide / tskip / nr-intra=100 / nr-inter=600 / no-constrained-intra / strong-intra-smoothing / max-merge=3 / limit-refs=3 / limit-modes / me=3 / subme=3 / merange=57 / temporal-mvp / weightp / weightb / no-analyze-src-pics / deblock=0:0 / no-sao / no-sao-non-deblock / rd=4 / no-early-skip / no-rskip / no-fast-intra / tskip-fast / no-cu-lossless / b-intra / no-splitrd-skip / rdpenalty=0 / psy-rd=4.00 / psy-rdoq=10.00 / no-rd-refine / no-lossless / cbqpoffs=0 / crqpoffs=0 / rc=crf / crf=25.0 / qcomp=0.60 / qpstep=1 / stats-write=0 / stats-read=0 / vbv-maxrate=15000 / vbv-bufsize=20000 / vbv-init=0.9 / crf-max=0.0 / crf-min=0.0 / ipratio=1.10 / pbratio=1.00 / aq-mode=0 / aq-strength=1.50 / no-cutree / zone-count=0 / no-strict-cbr / qg-size=32 / rc-grain / qpmax=69 / qpmin=0 / const-vbv / sar=1 / overscan=0 / videoformat=2 / range=0 / colorprim=1 / transfer=1 / colormatrix=1 / chromaloc=0 / display-window=0 / max-cll=0,0 / min-luma=0 / max-luma=255 / log2-max-poc-lsb=8 / vui-timing-info / vui-hrd-info / slices=1 / opt-qp-pps / no-opt-ref-list-length-pps / no-multi-pass-opt-rps / scenecut-bias=0.05 / no-opt-cu-delta-qp / no-aq-motion / no-hdr / no-hdr-opt / no-dhdr10-opt / no-idr-recovery-sei / analysis-reuse-level=5 / scale-factor=0 / refine-intra=0 / refine-inter=0 / refine-mv=0 / no-limit-sao / ctu-info=0 / no-lowpass-dct / refine-mv-type=0 / copy-pic=1 / max-ausize-factor=1.0 / no-dynamic-refine / no-single-sei
% F7 f( t3 H/ t: BDefault : Yes
+ h8 Q, p& v' wForced : No
0 Y' n% M7 w* R) H, ], m) }# ?Color range : Limited
& v. e! g6 l5 E% x1 d+ Y- gColor primaries : BT.709" P% r9 p+ m- i
Transfer characteristics : BT.709
8 [2 F& V3 U* M) z7 b9 w# L$ `/ p7 BMatrix coefficients : BT.709. d# S3 a8 x: P: p0 z

. T) y1 l0 S6 f$ H5 uAudio
: X" w3 D% X1 F$ @0 J7 h9 F% XID : 2, G, w) e$ v9 T# L( K
Format : E-AC-3) \7 d3 U  {5 x$ _
Format/Info : Enhanced AC-33 f7 T; F! q/ ~2 o
Commercial name : Dolby Digital Plus
$ c' U% g: q0 L! S! `# {! @Codec ID : A_EAC3) i; P1 Z1 p) c" a+ F
Duration : 1 h 42 min
& U( g1 E( l0 U7 VBit rate mode : Constant
( c  k& M* \; C3 m/ w, NBit rate : 640 kb/s
2 ~7 Q: w& d! dChannel(s) : 6 channels
' }1 L: K6 ^- o. k4 Z2 FChannel layout : L R C LFE Ls Rs0 `: ]4 k' U. ]  V) _% ?
Sampling rate : 48.0 kHz# R9 H7 k, m; V
Frame rate : 31.250 FPS (1536 SPF), Q( A+ W! g& E! a! I
Compression mode : Lossy% W5 v1 Y! V# d0 L
Stream size : 468 MiB (6%)8 a. b* F6 G. f0 ]8 H* N2 n7 O
Title : DDP 5.1; U7 y% L5 ^! C- v& K9 b$ O1 s. B: R
Language : English, f/ J; }# g) H6 S1 g( \
Service kind : Complete Main
. H7 Y8 X' y$ O, d2 Q, f; [* dDefault : Yes
8 o6 u$ P/ U- N6 DForced : No
$ U: C# {/ l9 @* e+ N9 P4 Z4 k: i& K5 J, D& B) h$ p
Text #1' o1 h; f% q" N* D3 U
ID : 3
% h- _2 h; W* p& ?  gFormat : UTF-8# G5 j) I- }" f" j* x' m
Codec ID : S_TEXT/UTF8
" A, S' h( o# w4 QCodec ID/Info : UTF-8 Plain Text% U: ^4 R/ F# e. w7 x
Duration : 1 h 39 min
* e' t. `( ?- n& \) H8 K0 F5 r- i5 SBit rate : 95 b/s: @4 j' L: V4 @- H- p
Count of elements : 1878
! T3 D1 N: W' N" M, [3 IStream size : 69.7 KiB (0%)8 q1 g2 }+ Y) i; y& x1 I+ r# N! \5 ?
Language : English
. D, n: Y9 z: y; i1 D) ^Default : Yes3 M- e! l- K, _2 p( ~. c
Forced : No
+ n# l+ g9 b  D3 \, F3 `& `2 r. y2 E! d: V* T7 W' F& ]6 z
Text #2
) {8 \) n% R/ f) w; n' |ID : 4+ L$ ^% R* n1 q% B
Format : UTF-8& c% n1 R" _5 b+ ?: _
Codec ID : S_TEXT/UTF8
  U& \7 W4 u, e+ LCodec ID/Info : UTF-8 Plain Text
$ [. \; n' c6 K7 s7 j! LDuration : 1 h 41 min2 d( b) E5 j( |2 V* D; T
Bit rate : 103 b/s# f4 a# \# ^8 o
Count of elements : 2053$ H# d# k6 b4 M% C8 p
Stream size : 76.9 KiB (0%)
% q  f2 W2 ~: {  |) S( _Title : SDH
5 Y; o2 L% Z/ U- @& F% LLanguage : English  n9 W# J( z3 G& [9 y+ _* A
Default : No
& H9 r8 p: A" k7 O7 KForced : No' V% L; N: ]: r' a5 _) P

/ w3 t7 d8 A' a% v, r) OText #3
+ `9 D$ x7 c# _9 W0 `% NID : 5
' P; g9 G" r# t6 N& M$ UFormat : UTF-8% A. K5 N/ n6 c
Codec ID : S_TEXT/UTF8- j3 ?( G: k3 U3 b# r* Y
Codec ID/Info : UTF-8 Plain Text3 V- K5 a7 S1 E9 g6 U' j
Duration : 1 h 39 min
6 P' \3 W) u" NBit rate : 102 b/s
0 Q: m8 k/ v3 wCount of elements : 1650+ Q, h: a0 C' I. N% b$ v
Stream size : 74.6 KiB (0%)
& j3 f# t5 V! E* ]Language : Malay) h  ?  L1 Y- d& _' }( R
Default : No
1 V9 P  {- }# x3 _1 J, m( \Forced : No8 c/ {% V+ [; w' W2 A' \; Q9 Y

7 R) b6 q! f8 n7 J5 J7 y: T; g: ~# \Text #4
  Q. h6 {/ g5 `  rID : 67 Y- [# k: u% I: Y3 Y% O% x2 M
Format : UTF-8
* E4 `1 y( [5 Y8 f  |( g0 [7 BCodec ID : S_TEXT/UTF82 g8 E# C! h$ B. B0 m
Codec ID/Info : UTF-8 Plain Text
6 w' m5 W, y9 o/ U2 uDuration : 1 h 39 min! h7 o5 D5 T3 p* U# J' m
Bit rate : 94 b/s
+ X1 G  T1 Q6 o8 m  jCount of elements : 1536& m2 ~# Q1 I3 C' X
Stream size : 68.8 KiB (0%): l" r0 Q! n2 h( v7 C9 r1 x+ F8 a
Language : Danish
/ Q, Z! h3 B! Z' f& N) mDefault : No. Q/ x* F5 L" s  G: F2 W$ H
Forced : No0 {1 J4 Y1 y% w9 k+ g9 M
' }- C% i- `5 F  e' y! ~
Text #5
1 f9 Y8 f/ z) U7 _ID : 76 n1 H2 I% J1 O8 N' o; T, d
Format : UTF-8
! N4 n: W& o/ q2 k" rCodec ID : S_TEXT/UTF8
6 f, ]' c2 ~, ]2 {+ V) x$ W) X( aCodec ID/Info : UTF-8 Plain Text
7 D# K4 p7 m  M$ E5 c, zDuration : 1 h 39 min
+ T2 N5 L; p: x, @. TBit rate : 93 b/s  W) ?7 g! {4 T. ]& B8 d
Count of elements : 16380 b4 J/ Q* t0 _. c- ?* s
Stream size : 68.0 KiB (0%)
- I) A- H$ Q4 L5 {; X( x& y' kLanguage : German
$ U' T. H5 U1 wDefault : No* g: q/ Z0 J, v3 ]* e2 |
Forced : No
) a: a; O, ?8 m( ^7 B# @2 H
( p8 a2 R1 ^5 {4 ]; e! y; ]6 @Text #6
3 E; X# }$ b; R( X0 HID : 8
& f, n6 o2 ?. l( E* |8 CFormat : UTF-82 x+ `1 y  ^) j3 s# |% b" J
Codec ID : S_TEXT/UTF8! ^& C0 I* T. W- o9 G* x' m$ L
Codec ID/Info : UTF-8 Plain Text& h  h; ~! W) L, `: ?- O6 ^& @
Duration : 1 h 39 min
/ K3 F+ Y* Y  D6 o# SBit rate : 101 b/s% e* E/ v( [. x% K0 J) }
Count of elements : 1649
% R) z2 N- Y5 E1 BStream size : 73.8 KiB (0%)
4 ^# r" |% u: G8 s" A. Y4 fTitle : Espa?ol (Espa?a)
9 }- U* i- X2 z2 s' k  LLanguage : Spanish) Y* U, H  ]- {
Default : No+ r3 ~; e, M# O; x9 x( x) v/ i) L$ H
Forced : No4 g* Z6 {5 m1 M
" Y; \1 x1 A. N  u7 [. t, m
Text #7
" ?5 r- i3 G6 b' vID : 9
" q2 X/ n* _0 Z! r- Z+ K* h9 z$ Z' rFormat : UTF-8+ ~0 Q2 y, v. M- f( g, J
Codec ID : S_TEXT/UTF8' p8 e2 `& {8 e$ N+ o# f
Codec ID/Info : UTF-8 Plain Text
" U% |9 ?$ U7 |2 pDuration : 1 h 39 min. I# L# y) p; l, U% j! d2 b
Bit rate : 101 b/s* z* n$ q' F$ O. f
Count of elements : 1649
0 X! G# ]) Z2 }/ Q$ t; aStream size : 73.8 KiB (0%)
  b3 D9 ]/ Y  ?+ STitle : Espa?ol (Latinoamérica)) h: T2 V& B# C3 e* {9 z
Language : Spanish' D; ~: N3 w6 F5 P6 ~2 c
Default : No  B/ x) K3 b+ H* ?4 F0 a. J
Forced : No
- S1 F( f" n' p6 }6 y& p' b( K3 S8 v2 e6 `6 H% z7 L) l
Text #8
: X! e* N% I% j  }1 U! h3 @% m8 P* MID : 101 m1 a, I& A3 q6 k1 d' [  Z2 l
Format : UTF-83 [8 p1 M9 I% J) j5 N8 v  N+ R
Codec ID : S_TEXT/UTF8/ s4 e" ]1 ^4 g: T# S4 b# x2 g
Codec ID/Info : UTF-8 Plain Text1 z8 G  {+ k# f  R- q1 {' S
Duration : 1 h 39 min
0 A, v( Q% O  X9 E% t" ^7 PBit rate : 97 b/s, x) k; B' a' m& E
Count of elements : 1647
% D7 t: g! q/ ~+ e  U, A4 yStream size : 71.0 KiB (0%). j/ L2 _" K, `# g1 r
Language : French3 ?# l- h$ Z2 G" ?- h+ J1 A
Default : No4 N3 w  i, V; W7 j
Forced : No, W" E' H- d# \' b; y# H' [% ~& d
! \' o/ Y1 J- R- g6 m$ a
Text #9! Q  x4 Y1 N' b2 x; z
ID : 11
* O! @- J2 a5 m& ]1 M9 {8 UFormat : UTF-83 U; R; A9 o- z2 i  s/ J
Codec ID : S_TEXT/UTF8- z0 F/ z" F; J" R1 j
Codec ID/Info : UTF-8 Plain Text
: ^( b6 f2 _2 D) LDuration : 1 h 39 min* O# E3 O1 e. o/ K/ k$ y
Bit rate : 91 b/s
4 s5 E* M8 H- VCount of elements : 1641
+ ?, Z: x  m- T5 PStream size : 66.6 KiB (0%)
) K8 k" w. S  j1 c4 w# ^! MLanguage : Indonesian' G9 s+ \7 u9 N6 ^) P. c6 l
Default : No
7 u8 Q, `% J5 Z4 h  }( {% S+ D9 dForced : No
8 W% m( b% |) S% w6 G+ a0 w4 a0 w
Text #10  ^9 T4 N. C; W4 n
ID : 129 V5 [- q9 z! W! T' U1 L
Format : UTF-8$ Q3 v) r! v8 ]( a
Codec ID : S_TEXT/UTF8
: M# l4 s7 v% X2 R3 HCodec ID/Info : UTF-8 Plain Text
, @6 r7 T1 r- z( O8 EDuration : 1 h 39 min3 w& O+ a$ g* Z9 C+ f
Bit rate : 89 b/s  K' O7 |, ^- s, L1 B
Count of elements : 1618
+ d& w& I2 _) J9 _: MStream size : 65.3 KiB (0%)
( p7 T) }2 L! \/ i% VLanguage : Italian
- S1 }' `  w: W* U4 yDefault : No. O# |3 s  j) `& V7 T
Forced : No, t( _/ H6 ~) D# W

+ i6 l1 y( z9 n% y3 Q$ oText #11- }: h6 m' u: v) F* n2 D5 j
ID : 13
: w6 E- s+ z& }5 T  _4 ]Format : UTF-8, O2 O* N( ^/ T
Codec ID : S_TEXT/UTF8
, u3 J$ h' q2 e" s" g% k: BCodec ID/Info : UTF-8 Plain Text
3 U( N( u( Z8 F* K/ c$ U5 T0 [Duration : 1 h 39 min1 f/ ?2 }" F% h$ C
Bit rate : 92 b/s% j( c# T- l) T3 n& y: W
Count of elements : 1567
, D' B% R) M$ |) [5 b4 sStream size : 67.3 KiB (0%)4 J7 x5 \" v8 H' e% J: S
Language : Dutch8 G# l, U1 }% [- c. Z! d
Default : No4 {1 }- w/ {3 g6 @
Forced : No
+ H) x+ _+ l7 p- v% s' ]# F6 ~  G8 t) H6 F" Q$ w
Text #12
5 j0 h/ R3 r# rID : 14/ s+ ?! C' F; `. N! `
Format : UTF-8
0 ^0 r- `6 T, ?8 g8 a# SCodec ID : S_TEXT/UTF8
+ E! G  O; r9 _/ c) CCodec ID/Info : UTF-8 Plain Text
# @  I6 C7 O' W% z  Y5 RDuration : 1 h 39 min; f. v5 S/ c* p: Z
Bit rate : 88 b/s- r- n# l6 @  \, d. A) a3 L% l$ S
Count of elements : 1486/ E# O1 b8 @+ T0 r, a+ v" v
Stream size : 64.6 KiB (0%)
( h% d/ R; ~8 _% b+ }& xLanguage : Norwegian Bokmal
, F3 d. D' H4 L7 J2 T3 i" P' qDefault : No0 M* I& l" z, _4 n" f- f
Forced : No
- Q: S! Z( y5 v, K, Q
1 N' R5 P" Q0 ~! iText #137 X0 D8 \8 `& s0 O2 E" A
ID : 15
( M0 e2 Y/ l, q% Q1 s+ ^7 fFormat : UTF-8$ |) s1 q3 a- t6 O
Codec ID : S_TEXT/UTF8! l. W1 u, L; t  y4 T2 E
Codec ID/Info : UTF-8 Plain Text7 Y) B" @9 e3 h( I% `/ g
Duration : 1 h 39 min. B5 W& r2 |5 F* K6 E
Bit rate : 97 b/s8 A0 v! g! O$ ]
Count of elements : 1639
+ X3 p6 t, F) o+ E5 I& SStream size : 70.6 KiB (0%)
$ H! Y6 ?- s5 B) m3 b$ ETitle : Português (Brasil)
. f9 g! @: q/ R" K0 C6 rLanguage : Portuguese+ M& y$ L% K3 f2 N' X" K* U  m5 ~
Default : No' W+ w/ j: X0 R) j* d6 N5 n1 [6 v) [
Forced : No
  y8 [" G5 y7 w+ e1 {3 l( y
. a0 K2 L0 M; C2 R: N: ^0 pText #14
* d  x6 D" V' o4 o# D9 u, JID : 162 |; @% ?9 T% v0 h& s
Format : UTF-8+ c/ P' w7 T6 E- d% `( g( c
Codec ID : S_TEXT/UTF8
8 X, d% R7 ~- s/ eCodec ID/Info : UTF-8 Plain Text
1 T) A) B' y, {. Z$ `6 ?9 BDuration : 1 h 39 min0 j: F+ k& E+ w/ b# ]
Bit rate : 97 b/s$ C3 N# x% z7 e# t: g& J1 y
Count of elements : 1639
- F9 N) `% s0 X; I/ n9 z, v; jStream size : 70.6 KiB (0%)
& ^1 x+ v7 b0 z( u& t! j) LTitle : Português (Portugal)' Y3 h$ u3 c$ p! T. Q0 j+ S6 J7 b$ [
Language : Portuguese& ~2 R5 i+ X! H' _
Default : No2 |/ s! K% s( ?$ f. |; R
Forced : No' r+ }" u* q  u% @  }
3 Y( i$ K3 N8 }$ ^- X
Text #155 k& y: A( m3 ~
ID : 17! _7 g$ s' g- a1 m1 l9 \5 y
Format : UTF-8( O* k. T7 p2 {/ L7 e; i
Codec ID : S_TEXT/UTF8
0 c/ m) M4 x( l& C2 ]% LCodec ID/Info : UTF-8 Plain Text: k2 ~) M$ A+ L+ t
Duration : 1 h 39 min. u* F$ q1 N8 U/ S7 l1 M5 ?# e3 S0 b
Bit rate : 101 b/s! b( k" A+ v! c* P4 Q/ y
Count of elements : 1508+ S7 t* X; p  V
Stream size : 73.7 KiB (0%)
5 I9 u) t! p. ~  A1 \8 o8 \0 A3 gLanguage : Finnish
) A0 M% c9 ~1 TDefault : No
$ u  x) c1 _9 vForced : No2 Y, n) @! K+ L3 k9 ^9 y' X
( y/ ?- T# I& o6 c% [+ d3 W. \
Text #16& K3 Z; u$ y8 p5 ^
ID : 18
" P% n. l0 \" e" A% F  zFormat : UTF-8
7 B0 [" K% c) z4 `" gCodec ID : S_TEXT/UTF8* c" L! o! Q7 e' e9 J; P
Codec ID/Info : UTF-8 Plain Text
1 b: p$ j6 w+ g3 `% ODuration : 1 h 39 min
! c) p, c$ i, m' c& EBit rate : 93 b/s
* U7 ^: }* C$ A8 q4 C, dCount of elements : 1539% O, a% _2 k( A7 [4 N
Stream size : 68.1 KiB (0%)
( ]. {0 r! w3 _3 E. I+ a& GLanguage : Swedish. S9 f0 I9 d8 ~$ w* g7 L
Default : No% L( l9 i/ D; q1 h: _# a  e
Forced : No
' w* M# P6 T0 g3 c' ~2 r& l' y% D3 T7 ]9 x5 f( k5 H3 l. `8 m/ Q
Text #17& n7 L; w+ @6 D( D7 G
ID : 19/ v; a- T0 N/ e+ W: D
Format : UTF-8
1 A) N' b2 ?7 Z! pCodec ID : S_TEXT/UTF8
- t$ ]* L0 A  a7 b! y- I* D. J9 mCodec ID/Info : UTF-8 Plain Text
2 l7 q7 |& e1 C; L1 m" cDuration : 1 h 39 min+ U2 x3 s0 V! V# S
Bit rate : 95 b/s
; n& p. D5 h( J6 F, d+ TCount of elements : 16273 w5 q! X1 e8 p  V- l; ]5 T7 K% G( E  C
Stream size : 69.6 KiB (0%)* z( \. e/ Y, e6 b# ^) u* A$ l  X
Language : Turkish$ \$ }0 {$ l/ P4 l2 D& Q& D6 n
Default : No4 W+ v% ~" }0 d4 X
Forced : No8 d0 C( y5 {7 x

9 f: A+ m7 g+ QText #18
0 M/ l/ ^# _9 DID : 20
1 _* r  \0 N, P- zFormat : UTF-8# a2 ~% n1 A6 I3 ?  g- w
Codec ID : S_TEXT/UTF8( M; p9 y$ s! @" g+ t' y5 {
Codec ID/Info : UTF-8 Plain Text- U" |" U6 c. [5 D7 H% H/ P
Duration : 1 h 39 min+ u2 F  `, `) C. R3 C2 o
Bit rate : 159 b/s0 `2 n! h5 l9 V" d* h
Count of elements : 16754 Y2 C; e& c1 p2 U$ O$ E. T. q3 {
Stream size : 116 KiB (0%)
# Q& ~( T# l- T- s+ k8 _9 KLanguage : Russian( C& ?$ C) e# P+ U3 @3 d9 |
Default : No
6 h1 o. }8 L4 x3 |Forced : No
+ T: G3 ]2 G) F: s+ Z8 D6 F+ P; G" ?- l! X
Text #19& B) e+ B, N0 S+ Y
ID : 21) c7 c( |  A! j& U" Z
Format : UTF-8
/ |& E8 P- K; g% M  ]# ~Codec ID : S_TEXT/UTF8
# e( u9 W3 w: \, vCodec ID/Info : UTF-8 Plain Text
6 R! _" |$ M) hDuration : 1 h 39 min+ @5 ]- n/ z7 P5 A: Y
Bit rate : 141 b/s$ m0 c, j  m& N4 a" e7 o4 _
Count of elements : 1662
4 O7 j5 v* |; b. Y9 m9 _Stream size : 103 KiB (0%)6 V/ v  \: K. v" K$ F
Language : Hebrew
2 ~) R" h9 I2 r5 G( f* d- IDefault : No
$ M; u1 m2 H# D6 d1 g/ vForced : No
, x8 t+ A5 X6 t; k" d
+ n5 m% N% \5 g0 IText #203 @4 c7 N' l) m& E; o: y4 a9 U
ID : 222 r1 r. I$ d/ Y6 W, D- V
Format : UTF-8( s: h1 }2 r- s
Codec ID : S_TEXT/UTF8/ [5 i& R4 \, G. Q/ Q/ X# c/ u0 r
Codec ID/Info : UTF-8 Plain Text/ e2 S9 ~  e' m/ M8 Z$ c
Duration : 1 h 39 min
6 ^6 q! C4 E) WBit rate : 156 b/s
* L0 `% g% j9 d+ FCount of elements : 1675/ ^, B) Q3 y! p) F
Stream size : 113 KiB (0%)4 ~, }1 Z( g  u, o
Language : Arabic
* N' a8 c1 e  c9 r) ZDefault : No
' L+ x- q! M, r5 X0 ~- P% eForced : No
1 M( ?8 W7 o' j, c/ w6 o
6 G" l8 M2 }, U; V" _! JText #21+ e" Z! p4 G+ r
ID : 23
; P; L! X+ f& o% B9 wFormat : UTF-8
& D$ H' ]% p3 q, j+ o' e: U5 \) NCodec ID : S_TEXT/UTF8
3 z. ]0 E; v( K/ iCodec ID/Info : UTF-8 Plain Text; x& ]  V  F' R  k6 k' }6 J" z
Duration : 1 h 39 min1 w0 c4 Z4 B3 D0 C& U% t
Bit rate : 240 b/s
+ f, {4 J7 X) P. s8 x; ]0 E# ?Count of elements : 16735 d5 b# s* X. [+ [2 U& _0 ]( V! t
Stream size : 175 KiB (0%)
, X4 p5 d4 E- F/ {Language : Hindi
6 W# w: F3 S" |1 m4 e5 w3 SDefault : No
% ]4 h. K3 }1 U7 _! RForced : No
0 b7 Z5 K# P) I% [+ @# o# a6 @0 @7 W, t* X* }( n0 o9 Q
Text #22
3 v# q( b4 b% P# o4 u2 n; }+ tID : 24
! a( t; h% S8 C# BFormat : UTF-8
( ~: r% B/ s% I4 B& I) t. C& d3 sCodec ID : S_TEXT/UTF8% @. g% V! H& U0 }) [+ h% F! A) Y$ j
Codec ID/Info : UTF-8 Plain Text9 j, c1 _  Z2 `5 M0 I
Duration : 1 h 39 min6 [; M/ [- Z2 ?+ U
Bit rate : 112 b/s1 B! e' K4 [4 g4 M
Count of elements : 1678
% R9 J! b. N" S# F6 Z6 L$ PStream size : 81.9 KiB (0%)
( b. f& x# I& w: X# T2 ~8 V4 ?Language : Korean- k8 q/ H" R1 {! y" a
Default : No
! L- M" g4 u4 [9 |4 KForced : No2 D0 e# h5 v8 Z! f/ U" w; n; s# O$ A

, u+ R% T# M  h. v1 ~% LText #23
4 H& `+ z' d, f& o- }1 yID : 254 E1 ]8 m3 U! w  E# T1 g* o" I& U
Format : UTF-8
9 y& Q% D" z" [$ H; V) jCodec ID : S_TEXT/UTF8
2 Z' F, |1 D+ h7 aCodec ID/Info : UTF-8 Plain Text7 p! @0 U* w% i# [/ c5 {  A
Duration : 1 h 39 min
1 S( R- Q+ U( m" mBit rate : 308 b/s2 k& _4 y' L; R6 [3 ]/ d% R
Count of elements : 16751 p# E* r, f5 ^+ ]3 m
Stream size : 224 KiB (0%)2 Q3 e# S. M5 r7 G
Language : Tamil
8 j; [4 ?& y/ z1 t2 }Default : No
  i4 n. n0 s. @/ p' d4 R2 L( PForced : No
3 N( k/ B- k* k) Z8 t
5 w) y7 ?% C7 Q8 s# l- a1 Z/ DText #24' N6 r$ e& I# [4 r+ y6 L; e
ID : 26
* a& B2 O3 w0 E6 U$ e+ s& K& eFormat : UTF-8) n& n1 X. }$ C% b
Codec ID : S_TEXT/UTF8
3 Z& A: _! s# `Codec ID/Info : UTF-8 Plain Text
: V+ W" `, V% I- H! g2 C+ f8 \1 DDuration : 1 h 39 min
' C- m0 H& o; A  `, dBit rate : 84 b/s
7 o* K/ e' a* k6 [2 c! ]' z" s) V* Y% w. DCount of elements : 16751 {- `2 {' [/ Q  L& B5 W* c/ h9 T
Stream size : 61.4 KiB (0%)
, m: ^0 Z' s9 R  kTitle : 中文(繁體)9 f6 J, p( U4 `0 K
Language : Chinese
- s( c6 T3 G0 N- xDefault : No, @2 L$ P1 t! N
Forced : No
- |' r) ?5 I! z5 e2 A+ N8 l
' j6 {0 a, @3 x0 \4 {7 jText #25( k, q6 {; ]8 Z1 j
ID : 27
6 ]: D$ |8 r; R7 ]Format : UTF-87 S" k& D; _! r1 f& h; b
Codec ID : S_TEXT/UTF8  _. N9 {) _) J9 N% B
Codec ID/Info : UTF-8 Plain Text
6 ~+ }* ^. b+ @+ U# c# DDuration : 1 h 41 min2 m4 W/ W9 u8 c' y" \7 r2 H, ?
Bit rate : 107 b/s
8 F+ f) a, Y0 pCount of elements : 1598
! g( ~% a' q  CStream size : 79.9 KiB (0%): G1 `7 R$ j. {. O
Language : Japanese0 _( [9 ~$ w3 y$ y9 ~& |2 l' ]
Default : No# u; i3 D0 P. J: |& @- y
Forced : No$ n/ T- ~1 D( k* s7 x9 p
! m9 j3 K; X: c- `0 l
Menu
  n1 q, D6 U* L' k: a00:00:00.000 : en:Amazon Original
, q* R# ]& v/ M00:00:21.000 : en:Studio Logo
, `2 h% G: a6 t7 B8 m. ?7 ^. R00:00:32.000 : en:November 6, 2018$ `( P/ ^4 j7 g9 `* T+ O
00:02:42.000 : en:Vote matters
% Z1 K& n1 j6 r& i00:03:35.000 : en:Title Sequence% D8 M# j" e5 D9 D5 i0 G2 z$ _4 I+ u: f
00:03:43.000 : en:Stacey talks about democracy$ y4 b, N" @. x. f7 R
00:07:03.000 : en:Past is prologue7 a2 T& [7 e6 T4 q
00:08:50.000 : en:Stacey talks about her parents. J; O8 Y4 B* U2 F- L" p
00:12:43.000 : en:Reconstruction era
/ Y6 b6 B8 e' K& q0 m. W/ N00:16:44.000 : en:August 28, 1993
" {# V0 }, f0 \  X1 y! ~1 \( C) n& Y00:19:59.000 : en:19th Amendment" p8 b" }* r- H3 E) z
00:25:27.000 : en:Florida Constitution of 1868
" H5 E, m; a9 a3 L) c00:26:52.000 : en:Desmond Meade
) ?3 O- D: y3 v! H00:30:55.000 : en:1915
8 s* O2 H) u/ f3 R$ x& W00:34:44.000 : en:Selma, Alabama
2 i- z3 o; I' N" a) B00:39:17.000 : en:Selma, Alabama: March 7, 1965: x! Y: K8 j) H: O& b6 @  ?
00:43:09.000 : en:March 15, 19651 r) Q: s# t% b3 F
00:46:38.000 : en:September, 2018
6 u& l/ d* P+ X00:49:26.000 : en:Neshoba Country Fair: Mississippi, 1975
  w; I+ f& T+ A. y% f: F. ~00:50:50.000 : en:August 6, 19757 U, e; U8 A! I. r$ i5 w
00:52:57.000 : en:Tent City Jail, 2009
3 W5 q+ N1 T' ?9 z  J. N00:55:47.000 : en:November 4, 2008, n! I" [( M6 d; q% s1 ~
00:58:05.000 : en:Shelby Country, Alabama+ ~4 a. ]2 h. R, x
01:01:11.000 : en:February 27, 2013
, W  S8 k$ [7 A3 K9 C1 }: H5 X01:03:27.000 : en:June 25, 20131 G  U, v! }  e- w0 U5 Q4 F
01:07:14.000 : en:New voter suppression laws, F! n# u/ W+ |$ b& m$ X% p; Z2 Q
01:12:37.000 : en:Voter fraud
# h( U2 e4 Y8 e8 b) Y& ?01:19:34.000 : en:Stacey\'s challenge- t7 H- y7 O+ T+ g$ z6 Z7 H( ]
01:23:20.000 : en:Georgia Early Voting# B. S; g8 T) Y1 c
01:24:57.000 : en:Election Day
$ m5 l3 A% y" B7 b01:33:24.000 : en:One vote at a time/ e8 r' u/ O* q6 h
01:37:35.000 : en:End Credits
: L0 r0 m+ e2 K
游客,查看本帖隐藏内容请回复 | 加入VIP贵宾可免积分免回复 了解详情 | 还不是会员:点击获取邀请码 Invitation Code

0

主题

111

帖子

461

积分

Sponsor

金币
60 枚
体力
177 点
指环王170406 发表于 2021-4-9 22:13:40 | 显示全部楼层
楼主发贴辛苦了

本版积分规则

小黑屋|Archiver|蓝光电影资源网

GMT+8, 2021-4-20 19:08

快速回复 返回顶部 返回列表