BluRayCD Forum

 找回密码
 立即注册【分享大片】
查看: 80|回复: 6
收起左侧

[蓝光原盘] 女巫清算/罪孽 [REMUX无损版] The Reckoning 2020 1080p BluRaycd REMUX AVC DTS-HD MA 5.1-FGT 19.19GB

[复制链接]

8112

主题

8306

帖子

6万

积分

Forum Moderator

金币
11687 枚
体力
10442 点

卓越贡献勋章

24小时 发表于 2021-4-12 23:03:02 | 显示全部楼层 |阅读模式
Evelyn, a young widow haunted by the recent suicide of her husband Joseph, is falsely accused of being a witch by her Landlord after she rejects his advances.
; b4 J  {6 ?  I$ R: \* Z
" S0 m* Q, y  X! ^" L" d- k 01.jpg 5 z% [. R1 m. y9 I) I; Z7 g% A

% v6 q$ h7 v6 s# B: x3 ~  T% h◎译  名 女巫清算/罪孽
/ d: O  ^. [: T, }) i1 A◎片  名 The Reckoning* u3 }8 N+ W5 y8 V
◎年  代 2020
1 J1 `/ S; o* o( K( ?/ J5 z◎产  地 英国
6 G8 M; p" K7 p" v; Z2 I- j. D◎类  别 动作/恐怖/历史% o0 f7 f! l$ ~: N6 Q5 J5 v
◎语  言 英语
) J4 f7 P  B) v! O◎上映日期 2020-08-20(国际幻想影展)/2021-02-05(美国)3 L. {) w* _/ r4 E0 R% i% I  W( P
◎IMDb评分  4.6/10 from 1,227 users, {5 Z* k' W6 O8 l8 q
◎IMDb链接  https://www.imdb.com/title/tt9182964/
. V9 V- z5 s8 f. v6 G# D3 _◎豆瓣评分 5.4/10 from 335 users
$ h3 ?$ @: Q* S) [4 b$ T" j( @7 s◎豆瓣链接 https://movie.douban.com/subject/34931877/# ]! w& c- q6 L+ @; E
◎文件格式 x264 + DTS2 @. J! n9 \* i' N* r" v7 K
◎视频尺寸 1920 x 1080
" R2 e9 L. A8 }3 ?. O' c2 j" Y: I◎文件大小 1DVD 19.19 GiB
1 W+ \% [! S- L7 u. e1 A/ a: D◎片  长 1 h 50 min
* c( z- D  ?8 X/ ^7 z9 K# C3 o1 j◎导  演 尼尔·马歇尔 Neil Marshall! j% L1 e  b9 Y; @0 \
◎编  剧 Edward Evers-Swindell
' j% h4 n( u. z% n8 z       夏洛特·柯克 Charlotte Kirk
, A# X* s. F2 J0 Y9 l◎主  演 西恩·帕特维 Sean Pertwee, {0 u7 V2 ^( ?3 p/ q2 U& n0 n2 y+ a
       夏洛特·柯克 Charlotte Kirk3 M" `" X% c/ }
       史蒂芬·威丁顿 Steven Waddington1 {% K. D* {3 _. |  n& f
       乔·安德森 Joe Anderson0 k/ Q2 p" f: }) c. y" V
       Suzanne Magowan" q$ ~9 O( O2 N/ h
       Sarah Lambie
7 T4 e2 c$ Z: M+ ?2 S       里昂·奥肯登 Leon Ockenden% }. h! q. ~. W8 T/ l7 O  Y8 ]- C

! K7 s0 e$ M6 n& B◎标  签 恐怖 | 惊悚 | 英国 | 英国电影 | 2020 | 尼尔·马歇尔 | 西恩帕特维 | 2021
- P* t0 |6 \: y* _' r% @3 [0 w5 m: P, P* o) t# P
◎简  介     
* c3 p0 F7 z: Z8 D0 m5 x9 S
: l0 z; ^" F; L  x$ N2 Y$ Z) k  在大瘟疫中失去丈夫后,格蕾丝·哈弗斯托克被不公正地指控为女巫,并被英国最无情的猎巫人拘留。格蕾丝被迫忍受肉体和精神上的折磨,同时坚定不移地保持自己的清白,随着魔鬼开始进入她的头脑,格蕾丝面对着自己内心的恶魔。; O  T( l3 T" e

6 P$ `4 Z8 r! x( a7 I  Q  After losing her husband during the Great Plague, Grace Haverstock is unjustly accused of being a witch and placed in the custody of England's most ruthless witch-hunter. Forced to endure physical and emotional torture while steadfastly maintaining her innocence, Grace faces her own inner demons as the devil himself starts to work his way into her mind.
/ |1 M" ]$ V0 `; b  F+ F
Video2 z$ \) R' D, P. c6 F
ID : 1- y1 A  M2 i9 c
ID in the original source medium : 4113 (0x1011)  {$ K$ M8 J2 g* s3 f# W/ g* t
Format : AVC
% y0 f; S5 U, C3 c( E: |Format/Info : Advanced Video Codec! s+ c3 b5 A: z* R5 K5 |7 |
Format profile : High@L4.19 l7 T$ G; m0 [* E8 Z1 {
Format settings : CABAC / 4 Ref Frames
5 X2 C5 \2 P8 SFormat settings, CABAC : Yes9 k" Q  }- z" {0 o
Format settings, Reference frames : 4 frames
7 g& c8 ]" D0 B8 l* [6 nCodec ID : V_MPEG4/ISO/AVC
& W& w# b, |" a+ b; P0 ADuration : 1 h 50 min
# J$ k1 V6 v8 b2 C& I) ^# nBit rate mode : Variable
+ |# l+ o& \4 T" i' O" M6 P: OBit rate : 20.8 Mb/s
6 i, a; e3 I& P" l6 V( JMaximum bit rate : 36.0 Mb/s
$ G: V# O( l! [6 xWidth : 1 920 pixels
1 i3 i* H' x9 c( D6 q3 g+ h7 qHeight : 1 080 pixels" a& [: n. V1 H
Display aspect ratio : 16:9
( c$ f4 R* n1 x5 X8 \+ M% OFrame rate mode : Constant
! ]4 S! w  ~, w2 z# z" OFrame rate : 23.976 (24000/1001/189150) FPS3 |+ ^" N2 O: C% d6 [- H: ?) Z$ D: a* }. s
Color space : YUV; m% \+ k  P. g  o& w8 r; B
Chroma subsampling : 4:2:0
5 D9 a* v0 B* I1 y- j0 gBit depth : 8 bits
% n7 P- h& A4 a" rScan type : Progressive
4 F" I( P4 M1 }7 U" A: k8 B) `Bits/(Pixel*Frame) : 0.419; k* G1 P: S# n& l# p; i
Stream size : 16.1 GiB (84%)) y% s3 s* E# R1 f4 s; D5 K  F
Title : The.Reckoning.2020.1080p.BluRayCD.REMUX.AVC.DTS-HD.MA.5.1-FGT  j* W. W. B9 ~0 m4 T
Language : English
  d2 ~3 V) R: v9 w$ T. lDefault : No/ J1 r$ N& E9 \0 P7 X
Forced : No
& ^& p0 J# p9 J" KOriginal source medium : Blu-ray
9 @8 z3 i# y' {$ A* f" [! Y3 _/ K6 q  g8 U; @
Audio9 P# _2 }& L& Z
ID : 2' y, m  T8 P$ G  `
ID in the original source medium : 4352 (0x1100)
, R1 u* B1 b9 {5 ~( U  V' oFormat : DTS XLL2 b8 b9 U2 R9 r% e: E9 T) c
Format/Info : Digital Theater Systems
1 `4 D( p7 F# SCommercial name : DTS-HD Master Audio
3 J, `% i+ W& Y/ bCodec ID : A_DTS
6 V& j: _8 C& F5 ]$ K; rDuration : 1 h 50 min
* S* P1 g0 d& Z2 d7 s8 @Bit rate mode : Variable
9 O7 y- B! J& b# W* ]" {# c4 s6 ]3 WBit rate : 3 910 kb/s2 ?9 j$ y. T- m. v: q! r8 E4 A
Channel(s) : 6 channels! F: j- T' j1 B; y  L
Channel layout : C L R Ls Rs LFE, c, g7 O7 ]* y8 h/ Z* ^& s5 ~
Sampling rate : 48.0 kHz
/ x1 P. i' H4 H5 FFrame rate : 93.750 FPS (512 SPF)& O  ?- s) q5 Y5 f; M2 ^6 h, Q
Bit depth : 24 bits
+ D6 g- C1 n3 c: eCompression mode : Lossless
% y/ u' N! s6 h. lStream size : 3.03 GiB (16%)) L# b& ^5 l1 X  T& P) o4 J7 f
Title : The.Reckoning.2020.1080p.BluRaycd.REMUX.AVC.DTS-HD.MA.5.1-FGT
& k) U+ K5 A2 {2 ?" r( FLanguage : English
; n, P3 r. ?/ `) S2 wDefault : Yes
" L% b1 s& b8 O$ ZForced : No# v8 {0 t: W6 D% p) C
Original source medium : Blu-ray
& ]: J0 \& O2 E( M
& c! T! i  `. KText #1
& p$ C* W1 X/ `4 XID : 3: l# K: u2 m; Z  I. O
Format : UTF-8
3 }6 b7 S/ i8 l6 Y# G- v* G1 o9 ACodec ID : S_TEXT/UTF8
/ B3 I/ q% H; ?& w# o- {4 ^9 gCodec ID/Info : UTF-8 Plain Text
8 Y: H  D& q! B: EDuration : 1 h 40 min- U' P$ D5 U8 h8 v  j2 x
Bit rate : 40 b/s
1 H2 p% n9 S# L: {# ICount of elements : 1063
8 r  S" q) R+ ]( p) ]Stream size : 29.9 KiB (0%)5 A  l' l3 \6 |& |6 b
Title : English-SRT3 w- A, d8 @1 v* l, ~
Language : English- R0 p* @* e. X: p6 U# V& y# L
Default : Yes
" U9 t; m6 e) xForced : No
. T8 w- q( ?4 U; H# ^3 j1 \# X  h" Q, M. m0 g+ ^
Text #2
& G+ M1 p9 c5 z5 i! H& ~  |% ^ID : 41 i; ^1 O/ B" Q! t- z3 \
ID in the original source medium : 4608 (0x1200)9 o' |4 n- Q- |0 a  Y$ _% `
Format : PGS
$ ~" m  ]* d; J3 A8 u! M) J& WMuxing mode : zlib2 V8 s) P+ P1 X8 w
Codec ID : S_HDMV/PGS
. A7 E) P  a5 R/ ACodec ID/Info : Picture based subtitle format used on BDs/HD-DVDs; r# Z( F3 {' p0 w
Duration : 1 h 44 min
- l3 f3 W# u0 F9 `$ FBit rate : 18.6 kb/s! V" B. y: h& V' n
Count of elements : 2486
- L% F2 S5 {6 ~" eStream size : 13.9 MiB (0%)7 [0 k' [/ j* `8 |4 y
Title : English-PGS2 J, K0 K4 K+ @9 O7 R
Language : English
( o3 b+ Y7 Z1 z/ B- oDefault : No
1 e% O* u* d: n; `7 ^Forced : No$ o' _" j' U0 i' O! Y5 d
Original source medium : Blu-ray
! v' [1 Z: a+ x3 s$ t+ F8 X: [, c
7 w! [$ M6 \  Q1 D& I7 F1 u% ZText #3
) X8 G! A" c( k, A1 ]( G! }% YID : 5
9 f) @  n& z) p* s' iID in the original source medium : 4609 (0x1201)% D+ _+ F0 {2 Y$ A7 N7 x$ a: h
Format : PGS+ A0 B% t; \. o; Z! y0 i
Muxing mode : zlib
. y" u& _" q2 ?2 W2 r  tCodec ID : S_HDMV/PGS! m7 B) u5 B8 @/ Z- T  h3 N
Codec ID/Info : Picture based subtitle format used on BDs/HD-DVDs
" u3 A9 A, P- E8 {Duration : 1 h 45 min0 I5 K$ b* n. `
Bit rate : 18.0 kb/s
: T/ ]" g" C" C+ K% Q! KCount of elements : 2244
7 V: c& F" s, N7 HStream size : 13.5 MiB (0%)/ e8 p) Y7 N" @- ?! T% B' h6 l
Title : French-PGS
5 g4 [8 O2 `- tLanguage : French- w* l2 i2 u, Z! ?7 g  r! v% r
Default : No1 h( C( ~3 J5 x& [4 j/ \& A1 M
Forced : No; v, d5 G* u( k6 r
Original source medium : Blu-ray* V" n2 c2 T/ |* `  X! g% ^; W

# [3 m. n: k5 b' FText #4. |: T" e3 y) E, f% V2 U2 F
ID : 6
0 x: \" f: t, U. X2 q4 x1 j5 ^' \7 HID in the original source medium : 4610 (0x1202)8 ?7 m+ z4 w5 Q$ ^' R; W
Format : PGS! U. d2 _' b  R1 Z" j1 J
Muxing mode : zlib9 @* ~. w0 Z- a
Codec ID : S_HDMV/PGS1 G. F( d; X9 X5 }2 G/ n( l
Codec ID/Info : Picture based subtitle format used on BDs/HD-DVDs; }5 m4 k9 O' q# k1 m1 \& E# j
Duration : 1 h 45 min
+ P& i" V2 _: p& U. ^+ o4 O/ bBit rate : 17.4 kb/s0 a; `5 V4 t$ J0 K
Count of elements : 2240
8 E0 a% {8 a1 H3 q5 WStream size : 13.1 MiB (0%), \2 J! S  z4 T4 e' I: p1 t& T% J
Title : Spanish-PGS2 c$ ?4 N% r2 w6 v+ J9 P5 F" J
Language : Spanish
1 W0 H/ g0 q6 ^! X- V) M& DDefault : No
) K% e4 c5 y9 ?$ S" \- lForced : No! r% U* [6 [+ r$ h! _- D
Original source medium : Blu-ray; R& K# N3 B* S3 R: O; o

+ a5 \+ n* [( nMenu/ ^* _% I( H: G5 G" b7 {! [6 p8 ~& e
00:00:00.000 : en:Chapter 01! G. w6 G: `" T
00:09:22.395 : en:Chapter 02
, Q# d) [% c7 W% }00:21:25.409 : en:Chapter 03
+ ]/ M' _: A0 ~6 a5 }00:36:21.971 : en:Chapter 04, m2 p; p4 ^6 J( _$ u- ~
00:46:47.679 : en:Chapter 05
) E5 |* W! U  o- N: w00:57:44.836 : en:Chapter 06
2 z2 y" Y4 x) n- u, B01:14:35.512 : en:Chapter 07, L7 q& m$ W( v( Z
01:46:29.132 : en:Chapter 08
6 p/ R3 m$ M. ^9 q5 d6 c5 t# _
游客,查看本帖隐藏内容请回复 | 加入VIP贵宾可免积分免回复 了解详情 | 还不是会员:点击获取邀请码 Invitation Code

720

主题

2395

帖子

1万

积分

VIP advanced

金币
2396 枚
体力
5468 点

公主勋章卓越贡献勋章

21cn 发表于 2021-4-13 00:12:06 | 显示全部楼层
膜拜神人,后来者请保持队列……!
! o8 V" u. t; Q& ?; eIn fact, I have always felt that the landlord of good taste! Ha ha!9 L6 T# K5 ^" h  ?  C( k: F. b* D

106

主题

301

帖子

3153

积分

Sponsor

金币
1057 枚
体力
772 点
我4誰的誰誰誰 发表于 2021-4-13 07:38:52 | 显示全部楼层
沙发是抢的而不是占的!
) h- o& V% V8 E+ ~' R' k6 ~3 vbluraycd forum, a lot of Blu-ray movies!
! {* R* m5 Z% x! R5 {2 C

2

主题

164

帖子

863

积分

Sponsor

金币
230 枚
体力
343 点
QQ
ccfys888 发表于 2021-4-13 10:08:45 | 显示全部楼层
膜拜神人,后来者请保持队列……!
0 K, _& O8 W, ^: ?祝愿蓝光社区越办越好!I wish Blu-ray communities better and better!6 {1 G1 x% _( g" Z6 ~; F" x9 ?

75

主题

2497

帖子

9675

积分

Sponsor

金币
1110 枚
体力
3494 点
lanpanshuma 发表于 2021-4-14 04:10:07 | 显示全部楼层
Bluraycd又有新电影发布了,激动中……!
: x  ~5 d  M/ `After reading the posts have nothing to do I Amoy posts!
5 h. ^' I" \7 L' l
该会员没有 ...

0

主题

613

帖子

2924

积分

Sponsor

金币
17 枚
体力
1623 点
sclzywxl 发表于 2021-4-15 12:50:55 | 显示全部楼层
谢谢楼主分享

0

主题

8

帖子

214

积分

Sponsor

金币
134 枚
体力
63 点
intodeep 发表于 昨天 14:42 | 显示全部楼层
看图片似乎还可以,先下载下来瞅瞅

本版积分规则

小黑屋|Archiver|蓝光电影资源网

GMT+8, 2021-5-6 22:03

快速回复 返回顶部 返回列表