BluRayCD Forum

 找回密码
 立即注册【分享大片】
查看: 156|回复: 9
收起左侧

[2160P极清] 真人快打:毁灭/格斗之王 [4K高清版] Mortal Kombat 2021 2160p HMAX WEB-DL x265 10bit HDR DDP5.1 Atmos-SWTYBLZ 14.37GB & 5.57GB

[复制链接]

5096

主题

5472

帖子

5万

积分

Post Share

金币
11919 枚
体力
9411 点

卓越贡献勋章

mvods 发表于 2021-4-24 22:13:09 | 显示全部楼层 |阅读模式
01.jpg
  p" v' x" S) [0 U, ?6 i& \1 i- W" f/ F  V
◎译  名 真人快打/格斗之王/真人快打:毁灭7 G7 w$ o7 B' H( r# n. z
◎片  名 Mortal Kombat / MK3: Domination / Mortal Kombat 3 / Mortal Kombat: Devastation1 S( L: J/ L" W. u
◎年  代 2021$ e3 n; K* Z4 O4 I+ b3 v" d* f
◎产  地 澳大利亚/美国
( L& Q2 k; w3 {" C% L◎类  别 动作/奇幻/冒险
2 j5 u4 z: v/ ^◎语  言 英语- C9 K, q1 S! ?
◎上映日期 2021-04-08(中国香港)/2021-04-23(美国)
/ U) I' [! I0 g' v, F: {◎IMDb评分  6.6/10 from 25,543 users
  S4 y0 C9 d# x! P9 A◎IMDb链接  https://www.imdb.com/title/tt0293429/' [$ w( V& P7 L  u0 c' ]/ g# f
◎豆瓣评分 5.9/10 from 2,667 users3 B' a6 e, j; T% }3 Q( m
◎豆瓣链接 https://movie.douban.com/subject/2131664/
- Z3 H2 Y3 I- z: y' q1 m◎片  长 1 h 50 min
) d/ X& l  x. X◎导  演 西蒙·麦奎德 Simon McQuoid
  t; I0 z8 a9 o( g  a* P◎编  剧 格雷格·罗素 Greg Russo : A, f' X: Q. S( v( M- Z
       戴夫·卡拉汉姆 Dave Callaham
* T0 I# j. D& f0 f/ K5 u. g       奥伦·尤济尔 Oren Uziel
; y2 i+ R) ]; I8 V       埃德·布恩 Ed Boon 2 w( t& y0 L0 V. S# ], f& F2 L
       约翰·托拜亚斯 John Tobias& L+ e5 a: B; B$ c
◎主  演 刘易斯·陈 Lewis Tan& v0 f* f9 r$ F3 @# S2 K3 i
       乔·塔斯利姆 Joe Taslim5 v0 g& j/ f" H
       真田广之 Hiroyuki Sanada4 f  I/ J' P2 p1 H3 P
       杰西卡·麦克娜美 Jessica McNamee
4 r% P: ~' p5 g0 ~       约什·劳森 Josh Lawson
! s( ^5 R2 \1 l       麦卡德·布鲁克斯 Mehcad Brooks: e- ~- R; ?" a& W/ ?1 ?
       林路迪 Ludi Lin
' v1 z$ p0 ^3 r       浅野忠信 Tadanobu Asano3 R* F: i3 k3 a$ i; ^- I. p- _
       黄经汉 Chin Han
7 ~3 }1 E0 e9 `2 y# i! ]& C4 u       麦克斯·黄 Max Huang. g  J' m( Y+ _) T, ]: t
       Sisi Stringer
" S( S" x" c4 e7 L6 h       Mel Jarnson& @! a& n3 W- ]1 Z6 t3 C
       丹尼尔·尼尔森 Daniel Nelson
( w" c* Y5 ^8 f9 y9 E: D       劳拉·布伦特 Laura Brent
  X' R  O: ~% X* i5 r       马蒂尔达·金伯 Matilda Kimber. I( P9 g! D! [8 P* i
       Sisi Stringer* l7 d6 w6 h$ @3 W. i# R
       Mel Jarnson
7 @$ n7 |% t1 T- x" K       Elissa Cadwell
' P- F; Y6 t6 i2 P3 W! a+ ~+ u: w% L, s+ V" u
◎标  签 真人快打 | 游戏改编 | 动作 | 美国 | 游戏电影! | 2021 | 美国电影 | 华纳' J+ o- R6 p2 b0 ~
6 g% m; F% Z# M
◎简  介     , d3 z8 i8 m+ O2 T/ L
 5 P- s/ V" p- }2 y, @! j  G
  援引That Hashtag Show消息,乔尔·埃哲顿是新线游改电影[真人快打:毁灭]中Kano角色的首选。埃哲顿此番将使用他的澳洲本土口音。本片由温子仁担任制片人,西蒙·麦夸伊德执导,格雷格·罗素已完成了剧本。影片将围绕一个身心俱疲的拳击手科尔·特纳展开,他被招募来帮助保护地球和他的女儿。他必须加入一支战斗队伍,与来自另一个维度的杀手进行一场永恒的战斗。该片有望今夏在澳洲开机。. Q: y( C; g0 k* m+ p

) D( g) v4 T2 v2 v$ C1 [! t  MMA fighter Cole Young seeks out Earth's greatest champions in order to stand against the enemies of Outworld in a high stakes battle for the universe.; j/ S% l# |* e+ m4 r' v% o
Video
, r) b" d6 O9 n( m" K/ T, ZID : 1
: `4 Q4 X" c) qFormat : HEVC8 k6 b3 }  _3 O6 u$ \% [# G; a
Format/Info : High Efficiency Video Coding* L1 d- c- Y4 M) F8 H5 Y' v
Format profile : Main 10@L5@Main" X2 L. C0 K8 }. q
HDR format : Dolby Vision, Version 1.0, dvhe.05.06, BL+RPU3 b" m5 M, |8 ?; ?
Codec ID : dvhe- V/ V  q5 M0 h, g1 B! {2 D  M* y% Q, C
Codec ID/Info : High Efficiency Video Coding with Dolby Vision
1 b0 p) r, }$ T& s; Q" t/ C' vDuration : 1 h 50 min6 h0 \3 j  ^: L, Z0 I# z6 l6 ]: w
Bit rate : 17.9 Mb/s; n  v& e! q+ V- b
Width : 3 840 pixels
% _$ R# z( e, l) E% UHeight : 2 160 pixels* H  u% D2 H( \& K$ W8 E6 M1 V- s* O! j
Display aspect ratio : 16:90 T& h5 X- X, J( R/ R% W$ S  [' i
Frame rate mode : Constant: Y6 E8 Q- w1 c9 S$ U+ ]" N- S
Frame rate : 23.976 (24000/1001/189150) FPS
6 F5 U, o6 u. M% s! dColor space : YUV
+ ]! g2 t' r" v7 o8 M& I; {3 WChroma subsampling : 4:2:0) @0 C' f# \( o# [' e
Bit depth : 10 bits+ k5 l- f8 ^% o0 W
Bits/(Pixel*Frame) : 0.090
# A  ^0 R: C, Z8 K' N8 RStream size : 13.7 GiB (96%)7 Y2 @$ S# V8 m) R1 t6 G
Writing library : x265 3.4hy:[Linux][GCC 7.5.0][64 bit] 10bit
( p0 Z1 w+ P9 M1 S: GEncoding settings : cpuid=1111039 / frame-threads=1 / wpp / no-pmode / no-pme / no-psnr / no-ssim / log-level=2 / input-csp=1 / input-res=3840x2160 / interlace=0 / total-frames=0 / level-idc=0 / high-tier=1 / uhd-bd=0 / ref=4 / no-allow-non-conformance / repeat-headers / annexb / aud / hrd / info / hash=0 / no-temporal-layers / no-open-gop / min-keyint=96 / keyint=96 / gop-lookahead=0 / bframes=4 / b-adapt=2 / b-pyramid / bframe-bias=0 / rc-lookahead=25 / lookahead-slices=4 / scenecut=40 / hist-scenecut=0 / radl=0 / no-splice / no-intra-refresh / ctu=64 / min-cu-size=8 / rect / no-amp / max-tu-size=32 / tu-inter-depth=1 / tu-intra-depth=1 / limit-tu=0 / rdoq-level=2 / dynamic-rd=0.00 / no-ssim-rd / signhide / no-tskip / nr-intra=0 / nr-inter=0 / no-constrained-intra / strong-intra-smoothing / max-merge=3 / limit-refs=3 / limit-modes / me=3 / subme=3 / merange=57 / temporal-mvp / no-frame-dup / no-hme / weightp / no-weightb / no-analyze-src-pics / deblock=0:0 / sao / no-sao-non-deblock / rd=4 / selective-sao=4 / no-early-skip / rskip / no-fast-intra / no-tskip-fast / no-cu-lossless / no-b-intra / no-splitrd-skip / rdpenalty=0 / psy-rd=2.00 / psy-rdoq=1.00 / no-rd-refine / no-lossless / cbqpoffs=0 / crqpoffs=3 / rc=abr / bitrate=18000 / qcomp=0.60 / qpstep=4 / stats-write=0 / stats-read=2 / cplxblur=20.0 / qblur=0.5 / vbv-maxrate=24500 / vbv-bufsize=24500 / vbv-init=0.6 / vbv-end=0.6 / vbv-end-fr-adj=0.0 / ipratio=1.40 / pbratio=1.30 / aq-mode=2 / aq-strength=1.00 / cutree / zone-count=0 / no-strict-cbr / qg-size=32 / no-rc-grain / qpmax=69 / qpmin=0 / no-const-vbv / sar=1 / overscan=0 / videoformat=5 / range=1 / colorprim=2 / transfer=2 / colormatrix=2 / chromaloc=0 / display-window=0 / cll=0,0 / min-luma=0 / max-luma=1023 / log2-max-poc-lsb=8 / vui-timing-info / vui-hrd-info / no-concatenation / slices=1 / no-opt-qp-pps / no-opt-ref-list-length-pps / no-multi-pass-opt-rps / scenecut-bias=0.05 / hist-threshold=0.01 / no-opt-cu-delta-qp / no-aq-motion / no-hdr10 / no-hdr10-opt / no-dhdr10-opt / no-idr-recovery-sei / analysis-reuse-level=0 / analysis-save-reuse-level=0 / analysis-load-reuse-level=0 / scale-factor=0 / refine-intra=0 / refine-inter=0 / refine-mv=1 / refine-ctu-distortion=0 / no-limit-sao / ctu-info=0 / no-lowpass-dct / refine-analysis-type=0 / copy-pic=1 / max-ausize-factor=1.0 / no-dynamic-refine / no-single-sei / no-hevc-aq / no-svt / no-field / qp-adaptation-range=1.00 / no-scenecut-aware-qpconformance-window-offsets / right=0 / bottom=0 / decoder-max-rate=0
: Z5 B" X4 F) r% j7 vDefault : Yes3 \7 F/ g  w, s
Alternate group : 1
* s# l% @2 C. @; pEncoded date : UTC 2021-04-23 07:13:39
, i! W6 W: \/ A6 O( b  aTagged date : UTC 2021-04-23 07:30:46
  S# H' y1 Y7 g6 M4 g9 M& n3 GColor range : Full
; q9 B$ A& {# c6 g, D+ `7 dCodec configuration box : hvcC+dvcC2 D) T% H* b$ P% c3 C+ f
3 O+ Q3 c# Z: ?  Z. B
Audio
1 w" x0 ], t- S# R% E  `7 ]ID : 2, O7 s; o% c$ [+ f: ~% C  l) M
Format : E-AC-3 JOC
# L/ u" Q5 E) [- E3 y0 RFormat/Info : Enhanced AC-3 with Joint Object Coding
! O* {; l+ O  i; r1 L: b' ?Commercial name : Dolby Digital Plus with Dolby Atmos
2 ^( E! N  S7 P) `: mCodec ID : ec-3
" |9 P/ w5 s( n: Q, v! R- ?7 o3 \1 rDuration : 1 h 50 min
8 B6 V2 i- j2 i/ @& QBit rate mode : Constant3 ]1 Z* X/ ^: y' E/ x, z
Bit rate : 768 kb/s
8 {- s+ Y& |: yMaximum bit rate : 811 kb/s4 t+ T/ w' `4 V/ ?" N! j
Channel(s) : 6 channels( g8 f* y) B+ m% Y' {
Channel layout : L R C LFE Ls Rs
9 x' L% q/ a5 Z0 ]8 N  U- r- CSampling rate : 48.0 kHz7 _9 K! q  C5 M. ]3 p! j
Frame rate : 31.250 FPS (1536 SPF)/ j& u) M, B. S! s5 {
Compression mode : Lossy
1 m) H; R- H; BStream size : 604 MiB (4%)
$ |( @& i4 _& E, w0 v9 ?4 W- A/ FTitle : English
6 ?9 R" P, b. OLanguage : English
3 Q# Y( v" Y" [% ]& g1 F. M7 NService kind : Complete Main  S0 H" E; ?* ]  {! t3 Y
Encoded date : UTC 2021-04-23 07:30:387 p% Q( u; x2 D1 H7 X
Tagged date : UTC 2021-04-23 07:30:46$ h' ^% a" k% m' y" \
Complexity index : Not present / 161 r  Z4 J7 S* z0 M4 P! I/ [8 N
Number of dynamic objects : 15
! }" t9 r1 J4 ?  v8 N- hBed channel count : 1 channel/ ]% f/ s5 l! |4 p/ W2 Z
Bed channel configuration : LFE* U* T; v& o0 y4 A  {$ y( a' F* n
5 f' T$ p9 f- c. u. H% S: C
Text #1" b5 M! K* S* \$ A
ID : 3
# ?8 E8 U) k0 x, c+ _Format : Timed Text- \4 w' ?2 w3 b, ^* T( G
Codec ID : tx3g
9 ?  z; b7 H8 c/ N; vDuration : 1 h 41 min
  ]7 ?2 C* Y9 g: aBit rate mode : Variable$ c- ]8 F  X1 A9 G6 f' d
Bit rate : 50 b/s
8 z0 i( s* Z3 g0 S7 Y+ C: wStream size : 37.7 KiB (0%)
  k+ [0 u7 _# A' b2 K. |% cTitle : English
- Z; h  |6 }4 A* m. lLanguage : English
4 d5 R4 V- W$ MForced : No
9 G0 M" v( i1 {5 B+ L* fEncoded date : UTC 2021-04-23 07:30:45) o. L( m2 X" G4 I! k1 S8 G
Tagged date : UTC 2021-04-23 07:30:469 v9 {6 R$ v0 |2 y
# \6 K* l& I  O# w& @7 \  T3 {
Text #2
  `# ~: f0 H' C7 uID : 46 L) V* ~/ _) @4 C
Format : Timed Text3 J7 h% X. q- n) x& Y
Codec ID : tx3g
  n; w+ ?% ~# J0 xDuration : 1 h 41 min' d6 {3 x6 _+ e7 E0 H
Bit rate mode : Variable
2 ]9 x- g; H1 }9 ABit rate : 50 b/s
- A. t3 w. n' X! F: k- S: a1 UStream size : 37.7 KiB (0%)
, r3 z$ n, j. Z% I; z- v2 kTitle : Spanish
2 x: e! _; i7 F* N: ~Language : Spanish
9 L/ N, S. y  u6 @% KForced : No
. U, w6 ?$ E7 s' q" B2 gEncoded date : UTC 2021-04-23 07:30:46
! f' X; Q0 B3 P$ ]9 J# R# tTagged date : UTC 2021-04-23 07:30:46
" m( ?2 t; [# \  d
游客,查看本帖隐藏内容请回复 | 加入VIP贵宾可免积分免回复 了解详情 | 还不是会员:点击获取邀请码 Invitation Code

相关帖子

75

主题

2497

帖子

9675

积分

Sponsor

金币
1110 枚
体力
3494 点
lanpanshuma 发表于 2021-4-25 14:50:08 | 显示全部楼层
看了LZ的帖子,我只想说一句很好很强大!""
5 j8 h& M2 j2 v% k( ]Your resources, well, I am very satisfied!0 V& ^! Y' W7 W& k9 L9 @
该会员没有 ...

0

主题

41

帖子

313

积分

Sponsor

金币
87 枚
体力
138 点
138092291 发表于 2021-4-25 18:59:45 | 显示全部楼层
谢谢楼主分享

0

主题

5

帖子

181

积分

Sponsor

金币
137 枚
体力
31 点
笨啦蹲 发表于 2021-4-25 21:28:53 | 显示全部楼层
很好很强大

0

主题

32

帖子

312

积分

Sponsor

金币
150 枚
体力
92 点
yzxuefeng 发表于 2021-4-26 19:32:09 | 显示全部楼层
这么好的帖子不回对不起自己!
! s$ F  N0 g+ f$ E- Z' O. p& wThe decisive Replies sink is I get the sinking feeling great sense of accomplishment!5 Z  s: \! D  M2 _1 |% _1 r

0

主题

65

帖子

317

积分

Sponsor

金币
17 枚
体力
185 点
top3dmax 发表于 2021-4-27 12:33:37 | 显示全部楼层
谢谢楼主分享

0

主题

14

帖子

179

积分

Sponsor

金币
124 枚
体力
25 点
QQ
boyshinehd 发表于 2021-4-27 15:02:43 | 显示全部楼层
感谢分享,辛苦啦!

5

主题

163

帖子

774

积分

Sponsor

金币
210 枚
体力
247 点
QQ
jimnhuiqi 发表于 2021-4-27 17:54:41 | 显示全部楼层
Bluraycd又有新电影发布了,激动中……!' k3 X, D3 R" z' n5 I8 ?
* n* a) T! V  q- eThe decisive Replies sink is I get the sinking feeling great sense of accomplishment!' ]& o% e- X- P, }+ z8 B( `2 l# R+ w. |% G( N
愿瘟疫早点 ...

0

主题

33

帖子

1688

积分

知名人士

金币
143 枚
体力
1289 点
爱尚雪 发表于 6 天前 | 显示全部楼层
不知好不好看

0

主题

8

帖子

214

积分

Sponsor

金币
134 枚
体力
63 点
intodeep 发表于 昨天 14:53 | 显示全部楼层
这种,就是其实过过瘾没啥情节的,卖的就是情怀而已

本版积分规则

小黑屋|Archiver|蓝光电影资源网

GMT+8, 2021-5-6 21:14

快速回复 返回顶部 返回列表