BluRayCD Forum

 找回密码
 立即注册【分享大片】
查看: 5|回复: 0
收起左侧

[科幻恐怖] 恶烂狂人 Psycho Goreman 2020 720p BluRaycd x264 DTS-FGT 4.64GB & 2.04GB

[复制链接]

5096

主题

5472

帖子

5万

积分

Post Share

金币
11919 枚
体力
9411 点

卓越贡献勋章

mvods 发表于 前天 02:50 | 显示全部楼层 |阅读模式
  s7 [- {5 y8 V- m. \" o% r( L

" M+ g8 b' ~% p+ H◎译  名 恶烂狂人
! V, D1 c! A/ o◎片  名 Psycho Goreman / PG: Psycho Goreman) B% T3 A. |" ^+ g; M& _
◎年  代 2020
; ~: U8 M+ V% X- G; Q. F- k3 I◎产  地 加拿大1 K+ \" L3 A+ Y
◎类  别 动作/科幻/恐怖) s% Y1 p. S3 K- g8 b' t1 H0 F
◎语  言 英语- |9 t4 k  r0 k
◎上映日期 2021-01-22(加拿大)/2020-03(西南偏南电影节)
1 G9 A) ?$ e0 H; p  Z◎IMDb评分  6.2/10 from 5,974 users
; J) K/ ?" h: b9 S. I+ M4 n' Z8 w. b. I◎IMDb链接  https://www.imdb.com/title/tt11252440/5 Z$ ^0 t, f5 f) r2 I
◎豆瓣评分 5.2/10 from 628 users3 G# h; b! C9 `& w" O) a
◎豆瓣链接 https://movie.douban.com/subject/34909349/% C1 k. q0 o, ~, E3 F2 Q% j
◎片  长 1 h 34 min# e. x7 P! g- D! i4 [5 P# n
◎导  演 史蒂文·科斯坦斯基 Steven Kostanski  T) B2 Q5 |- Q
◎编  剧 史蒂文·科斯坦斯基 Steven Kostanski( w8 k7 D2 i; E# p# Y% B
◎主  演 Reece Presley' x1 K" Z7 ]& m8 o
       亚当·布鲁克斯 Adam Brooks0 @2 z$ _* Q  }  [/ I5 j, J
       斯科特·福林特 Scout Flint
3 V- ?2 `8 Z# c3 c. D5 X       欧文·迈尔 Owen Myre' a% S, H5 d7 ]& Q, {

7 R$ A: |3 x/ \, x◎标  签 科幻 | 搞笑 | 恐怖 | 加拿大 | 2020 | 惊悚 | 动作 | 美国
& N* X. n7 a: K  m  X5 c
2 J; W7 K% T+ d6 K2 k◎简  介     
5 s% \# V- Y1 `8 `& E6 i8 z; a3 i5 ]# e; ]: _. l$ D$ T' k, i
  兄弟姐妹咪咪和卢克不知不觉中复活了一个古老的外星霸主。他们使用魔法护身符,迫使怪物服从幼稚的异想天开,并意外地将流氓银河系刺客画廊吸引到小镇郊区.) ?; Y0 H" V. q4 ]* L+ k: ]
Video
2 j+ O3 ]9 F; u1 @9 B* X7 j1 qID                                       : 1
8 s( c  x9 E, E6 f" eFormat                                   : AVC- z# v* _) {# f8 n6 X
Format/Info                              : Advanced Video Codec
# p( ]8 |0 }, c/ L( S9 LFormat profile                           : [email protected]
( R8 S0 O6 V) T# w! O+ P6 }Format settings                          : CABAC / 4 Ref Frames
$ }7 Q3 n4 Y6 X% D4 Y* o6 y  m7 ?Format settings, CABAC                   : Yes6 P1 r2 b( g0 d; ~
Format settings, Reference frames        : 4 frames3 T9 e* ^# \1 J3 y
Codec ID                                 : V_MPEG4/ISO/AVC
" N/ T0 y- F) ^! `5 b+ f2 SDuration                                 : 1 h 34 min
7 E7 @2 b' g% q/ Z9 r" QBit rate                                 : 5 500 kb/s+ y! R- a. K$ ~" v4 q0 r0 C
Width                                    : 1 280 pixels
2 x& M! _. d6 r4 r9 KHeight                                   : 536 pixels. J7 b( w8 P6 y% z) T
Display aspect ratio                     : 2.40:1
6 ]+ a, ]* d3 y$ o% F& lFrame rate mode                          : Constant
$ K" E/ [( p9 p, E, X- i( r( n# RFrame rate                               : 23.976 (24000/1001/189150) FPS
: }9 ^0 x6 x9 i, U; C- w3 ?; Y7 x" hColor space                              : YUV" q* V. y* H) \, b5 n
Chroma subsampling                       : 4:2:0. m' {7 n+ j2 q5 L" \: R/ Q- @& Z! i
Bit depth                                : 8 bits% [: A) \& }' [; K( M' _% \; Z
Scan type                                : Progressive. f4 e3 E' w  h2 E$ B
Bits/(Pixel*Frame)                       : 0.334
+ M5 Q' S" P( Y' L' ~5 f' c  xStream size                              : 3.64 GiB (78%)9 f! y& F( V+ _0 R/ a8 f* G( ^$ a
Writing library                          : x264 core 148 r2795M aaa9aa8; T2 S( {: F2 e2 a. U5 w4 ]
Encoding settings                        : cabac=1 / ref=4 / deblock=1:-2:-2 / analyse=0x3:0x113 / me=umh / subme=9 / psy=1 / psy_rd=1.00:0.15 / mixed_ref=1 / me_range=16 / chroma_me=1 / trellis=2 / 8x8dct=1 / cqm=0 / deadzone=21,11 / fast_pskip=1 / chroma_qp_offset=-3 / threads=24 / lookahead_threads=3 / sliced_threads=0 / nr=0 / decimate=1 / interlaced=0 / bluray_compat=0 / constrained_intra=0 / bframes=3 / b_pyramid=2 / b_adapt=1 / b_bias=0 / direct=3 / weightb=1 / open_gop=0 / weightp=2 / keyint=250 / keyint_min=25 / scenecut=40 / intra_refresh=0 / rc_lookahead=50 / rc=2pass / mbtree=1 / bitrate=5500 / ratetol=1.0 / qcomp=0.60 / qpmin=0 / qpmax=69 / qpstep=4 / cplxblur=20.0 / qblur=0.5 / vbv_maxrate=31250 / vbv_bufsize=31250 / nal_hrd=none / filler=0 / ip_ratio=1.40 / aq=1:1.00) v$ P. P, H# m) Q
Language                                 : English1 |/ _6 ?" L. c, g
Default                                  : Yes
# J) U3 Z$ I- T' M" jForced                                   : No
3 U; D2 n: H+ d
& K8 B. [9 h' j( i, q5 |Audio+ ?# S( v; P; c" T9 [& p1 N
ID                                       : 2
% c4 N7 G; `/ c1 a, M$ SFormat                                   : DTS8 j$ M; b1 k: s: |0 ]* z
Format/Info                              : Digital Theater Systems
6 b% ?' P( K- w0 K, ZCodec ID                                 : A_DTS
0 y; |9 D* l* T, L: V- |4 y5 ^  oDuration                                 : 1 h 34 min
/ k: j) P2 X, p; i9 y# `; UBit rate mode                            : Constant, b0 e5 Q( c" N# q4 A) O
Bit rate                                 : 1 509 kb/s
9 j. A! Y$ R7 R0 d( U- e" d4 t6 iChannel(s)                               : 6 channels$ }6 A2 g5 k! a
Channel layout                           : C L R Ls Rs LFE
* F  d3 `) m* \' |8 j: {1 u% \* pSampling rate                            : 48.0 kHz
: o2 U3 c( t; U% @Frame rate                               : 93.750 FPS (512 SPF)
+ P! ]1 I( N) o  dBit depth                                : 24 bits5 h+ ?3 e$ I4 Y, e& w' R7 p
Compression mode                         : Lossy& o# J8 h' [# c6 V' c7 [
Stream size                              : 1 023 MiB (22%)$ V- Q3 r1 g% c8 w/ @0 z6 T
Title                                    : DTS 5.1
$ m# x& ?: E6 B! Q" ?3 ]Language                                 : English( u4 x, J$ ]# r. ?4 o
Default                                  : Yes2 C$ `" v8 P/ O" k3 o% C0 @
Forced                                   : No
1 X0 |. d9 \  c! V% @: r8 f: O' G3 w% q2 o
Text #1
* Q+ r. J: L" S' ZID                                       : 3
1 b" x6 p& F1 x$ J9 g5 sFormat                                   : UTF-8
- c8 _0 z8 T0 z6 ICodec ID                                 : S_TEXT/UTF8
$ M" R- i7 {& y+ s' ICodec ID/Info                            : UTF-8 Plain Text0 `) A7 w/ ~0 q% }
Duration                                 : 1 h 34 min
! e  R( r$ ~0 H; b4 @0 V+ K* LBit rate                                 : 58 b/s
5 D2 o5 K$ M: F- n  wCount of elements                        : 13770 [" V% Q' e. z1 o0 \' U
Stream size                              : 40.4 KiB (0%)) s/ R& ~+ e! T, z$ F. D$ O. b
Title                                    : English-SRT
- F5 g/ G6 @) p" ]/ g( `- X8 i5 w; ?Language                                 : English+ x( h2 ?1 k) j5 a8 J9 W; t' \
Default                                  : Yes
% Q: R" q) {9 LForced                                   : No8 h; ~/ k2 d6 C7 R4 \8 n! j
+ ^( p1 H* J$ u; o; q
Text #2
. N2 W" ?5 l' Q- tID                                       : 4' Q9 o" g$ b0 F1 t8 A& d
Format                                   : UTF-8
- m: C+ c+ S- x: @Codec ID                                 : S_TEXT/UTF8
( B; t& z: S5 k* C9 iCodec ID/Info                            : UTF-8 Plain Text* l2 s8 I$ {0 n, F
Duration                                 : 1 h 34 min
' Y; W) `" _: X$ c' z# BBit rate                                 : 61 b/s
) |. V9 i5 G& nCount of elements                        : 1481
# z! k/ T1 w1 e4 K( o: ?- mStream size                              : 42.1 KiB (0%)2 P8 N1 E# O4 K0 L$ x
Title                                    : English-SDH-SRT+ W. ]) e" ?2 e% R+ ]
Language                                 : English
( \/ k; n. K- V1 ^$ D4 a" zDefault                                  : No; A  q: j; p8 a! v& i' `- s1 T
Forced                                   : No
. D# q3 O# k4 ?' x* e0 q. q' v0 u/ |- q/ a/ g9 `) J
Text #3
: K( P! `6 V" S- IID                                       : 54 k- X+ b* @6 l3 F' f" V' K; ?7 n1 U
Format                                   : UTF-8
5 l, a! W" j9 ^$ @4 DCodec ID                                 : S_TEXT/UTF8
+ V& v4 h  w. q) c. TCodec ID/Info                            : UTF-8 Plain Text
0 i2 s7 V* Y7 E  _+ J2 ?$ kDuration                                 : 1 h 34 min; Q8 \4 m$ P2 v4 Y- i/ j$ w& M
Bit rate                                 : 63 b/s
$ H7 Y8 S/ r6 gCount of elements                        : 14277 a5 r6 x! \7 m+ U5 y
Stream size                              : 43.6 KiB (0%)0 G5 m# c: x5 c2 Q/ L
Title                                    : Spanish-SRT
  X" X$ S. N: C* u5 NLanguage                                 : Spanish
  E7 ]# d* |% g, ~+ B3 t& b( TDefault                                  : No
7 r. p: H% _: K0 l3 TForced                                   : No
, ]- ^" J* Z8 S% z. }5 S9 T7 g7 Y* _: f' g4 J0 C& ^9 ?
Menu$ m6 Q, Q8 @$ w, O4 s+ E. X
00:00:00.000                             : en:Prologue / Buried Alive# z5 M* w! v, i
00:09:13.970                             : en:A Really Big Hole
! @; _. q: {: \) J, O7 S00:18:01.038                             : en:PG for Short
5 I4 k2 v" E. a$ b00:27:05.832                             : en:Born on Gigax
+ o" L! ~) a" S! U. ]00:35:58.239                             : en:I\'m the Heckin\' Best
" h6 w3 x9 k! h00:44:06.810                             : en:Another Contestant0 r* q/ X/ Z6 C9 K" `: w5 @# R
00:52:04.579                             : en:Paladins Arrive  e9 G( J2 J0 i
01:01:03.326                             : en:Parental Help
9 \/ z) K5 m$ P2 @1 i  }01:10:02.156                             : en:Pandora\'s Aide
9 e# @( c+ e: M01:17:34.358                             : en:Contest
( ]* ^  Y8 F0 J; v( y3 s01:24:53.797                             : en:Age of Chaos
+ t7 a  T) m" D9 ^! r% P0 {9 A01:31:48.503                             : en:End Credits
Psycho.Goreman.2020.720p.BluRayCD.x264-FREEMAN
5 G2 e/ U' q& ~) ^% `4 b! k+ f$ ?: c5 B5 j: J; F1 q5 s
RELEASE DATE.....: 02-05-2021
+ D; L4 H0 N* X) o) G7 xSiZE.............: 2,04 GiB
" g1 i4 \! l) o. \0 ?* BViDEO............: 1280*536 @ 2.398 kbps (crf17)
. S5 A4 C+ y9 W: v0 |SOURCE...........: 14,7 Mbps2 ~$ }4 B& T! W! T* O
AUDiO1...........: English AC3 5.1 - 640 kbps$ M% q9 }. G. y6 Y' n& q
AUDiO2...........: -/ f2 I* H" s7 @/ o4 Q( q1 u6 Y
SUBS.............: German+ v. [3 a' q( i( ^8 r
8 d1 [1 p1 h; R) h6 ]1 H) K
https://www.imdb.com/title/tt11252440/

" n# q7 j% j, u7 b
游客,查看本帖隐藏内容请回复 | 加入VIP贵宾可免积分免回复 了解详情 | 还不是会员:点击获取邀请码 Invitation Code

本版积分规则

小黑屋|Archiver|蓝光电影资源网

GMT+8, 2021-5-6 21:50

快速回复 返回顶部 返回列表