BluRayCD Forum

 找回密码
 立即注册【分享大片】
查看: 9|回复: 0
收起左侧

[剧情悬疑] 760号犯人/诬罪审判/失控的审判 The Mauritanian 2021 1080p BluRaycd x264 DTS-HD MA 5.1-MT 15.28GB & 13.60GB

[复制链接]

5096

主题

5472

帖子

5万

积分

Post Share

金币
11919 枚
体力
9411 点

卓越贡献勋章

mvods 发表于 前天 03:02 | 显示全部楼层 |阅读模式
01.jpg 8 }2 C5 x+ i2 o& o) c

$ ]+ W0 b! G9 r7 h◎译  名 760号犯人/诬罪审判(港)/失控的审判(台)/毛里塔尼亚人/760号囚犯/第760号囚犯4 ]- L6 o% r# V
◎片  名 The Mauritanian / Guantanamo Diary / Prisoner 7600 h8 w- ?# d1 Q8 Y: b
◎年  代 2021' f+ ]* f4 q4 J0 T; P
◎产  地 英国/美国4 F9 D4 U, k* a& ~' k' d
◎类  别 剧情/惊悚
$ j1 |2 d* Z+ b5 i◎语  言 法语/阿拉伯语/英语7 {, {6 P& m9 H# N8 @; b
◎上映日期 2021-06(中国大陆)/2021-02-12(美国)# r; c5 {5 \9 I# a0 |
◎IMDb评分  7.4/10 from 20,956 users) K! p8 ]7 A( x8 _6 W$ P
◎IMDb链接  https://www.imdb.com/title/tt4761112/
7 q; i7 j$ U  B! L! c8 I◎豆瓣评分 7.3/10 from 2,919 users
$ I: k. b! S6 U. B/ Y2 q9 z. V' D◎豆瓣链接 https://movie.douban.com/subject/26996524/
% k- ?' Y, S7 Y5 ~" q0 e/ A◎片  长 2 h 9 min
3 M% K* h; m% \, C- w◎导  演 凯文·麦克唐纳 Kevin Macdonald
0 G2 C# Q. r7 ^+ I2 W◎编  剧 迈克尔·布朗纳 Michael Bronner
5 ]5 z0 @) P& N2 ^! Q2 o" T       罗里·海恩斯 Rory Haines
% C7 V& y9 C7 B2 w       苏哈·诺什瓦尼 Sohrab Noshirvani
: f* `. `; z& _0 f4 t  O9 C       穆罕默德·乌尔德·萨拉希 Mohamedou Ould Salahi% r5 d: o# v' D, Z
       拉里·西姆斯 Larry Siems
# w8 l! r) D% I4 J& d2 r◎主  演 塔哈·拉希姆 Tahar Rahim$ W* V; ~7 S  N6 K% L1 u- c
       朱迪·福斯特 Jodie Foster
( ?7 P8 T2 D5 W# }0 ]" T2 ~- l       本尼迪克特·康伯巴奇 Benedict Cumberbatch" l" m' M+ d6 w2 k. k8 {* K
       扎克瑞·莱维 Zachary Levi
9 `" Z9 r* W! I) |* w$ z/ m6 t       谢琳·伍德蕾 Shailene Woodley4 H0 {  A9 h1 o" w; u' {
       沙莫·阿斯玛尼 Saamer Usmani
1 n7 D* h! |3 z0 d- _       克里·约翰逊 Corey Johnson
2 n; o/ F& g" a$ ?       马修·马什 Matthew Marsh( F2 d' d+ s9 u8 p# G- w2 n" k
       大卫·芬恩 David Fynn
& a/ e0 u+ r7 w6 A" a) n4 R% Q       安德烈·雅各布斯 Andre Jacobs" `" R7 C4 a( }$ H
       兰利·柯克伍德 Langley Kirkwood
9 K. H: z1 ]4 ~       史蒂夫·马克 Stevel Marc6 s/ ?1 k' l: A8 k& A* b; U
       罗伯特·霍布斯 Robert Hobbs# P8 V8 n0 |; h: D. a. L
       梅丽莎·海登 Melissa Haiden8 |; W+ p0 O- b( u0 i) s
       阿拉·萨菲 Alaa Safi  @( p' q4 R6 Q
       埃文·亨斯特 Evan Hengst+ \5 \+ |: i" L
       达伦-迈耶 Darron Meyer! R8 A8 z  C; G, e2 j# k
       弗朗西斯·乔勒 Francis Chouler
8 c" N9 J4 p. C5 \       克莱顿·博伊德 Clayton Boyd2 ]6 V4 |7 Q/ e' r& ]* m" x
       南希·霍兰德 Nancy Hollander" z' W3 |7 t! H- H; i: S  G4 b/ L
       Meena Rayann
5 j/ `( B, a2 v7 w$ E       Arthur Falko$ k$ `/ d" y( K  y4 q3 C( h. J

' P6 h* @* d0 ?/ I0 b' T0 D3 ?◎标  签 美国 | 剧情 | 朱迪·福斯特 | 历史 | 本尼迪克特·康伯巴奇 | 2021 | 美国电影 | 谢琳·伍德蕾6 n" y6 c; O" W1 C
: c8 {8 P5 j, L, i3 r# K$ B
◎简  介    ' R: b9 L7 m4 i5 i

: W- f/ D. G% o: s  c) a  影片改编自Mohamedou Ould Slahi的回忆录《关塔那摩日记》,讲述Slahi(塔哈饰)被美国政府俘虏,在毫无指控与判决的情况下被关进了监狱,他失去了希望。Slahi寻得辩护律师南希·霍兰德(福斯特饰)与助手特里·邓肯(伍德蕾饰)的帮助,他们在面对无数障碍的情况下,一同追求正义。在富有争议的主张及斯图尔特·库什中尉(康伯巴奇饰)揭露的证据下,一个令人震惊的阴谋露出水面。
/ O  m6 @' [) h8 U: t. C# W6 K! G* R
4 ^5 ~4 ^3 q$ l* x  Mohamedou Ould Slahi fights for freedom after being detained and imprisoned without charge by the U.S. Government for years.( u, `3 f0 j# c3 x& a. s' ~5 P2 d
6 a- v4 m/ C/ d$ q1 O; X$ @
◎获奖情况$ K2 V% z/ k2 U/ D9 O$ V5 V
) F7 l. E, g& h8 S8 V- [
  第78届金球奖 (2021): `5 p0 [9 J6 K' J" m8 A
  电影类剧情片最佳男主角(提名) 塔哈·拉希姆
) @, f& C; M2 g' a  电影类最佳女配角 朱迪·福斯特& ]6 t! z5 _" B, W9 g3 ?! P
  
, {# Y; v  O: }- O" q- ^$ ]  H  第74届英国电影学院奖 (2021)
: z% h/ T- J1 g0 ^6 }( k" k, ]  电影奖最佳影片(提名)0 ~4 w2 J8 p3 ]
  电影奖最佳英国影片(提名) 凯文·麦克唐纳+ h$ ]) K8 m- I1 _
  电影奖最佳男主角(提名) 塔哈·拉希姆
  ^" R5 y3 P# p4 P' w  电影奖最佳改编剧本(提名), r$ u- |/ c: E0 D5 j* o
  电影奖最佳摄影(提名)
, S: q; R* h: j3 H( V# A& i; q7 l4 j' J  
+ R4 w0 v0 [7 {7 s8 U$ |$ \. a  第41届伦敦影评人协会奖 (2021)- D- {, v* k( e0 e! E
  年度电影(提名)
. x: c% e. s, c, G  年度导演(提名) 凯文·麦克唐纳. i, \" e4 y* _
  年度男主角(提名) 塔哈·拉希姆, B! ~9 h' w# f
4 B1 [1 b! K% t6 O& Z$ v4 Q2 H
Video
0 M0 n# a% l  c: k- MID : 1
( e8 ^0 b2 |0 \# A% r4 rFormat : AVC/ c& K9 E7 F, C) L
Format/Info : Advanced Video Codec
% ]# H; `3 S& b- H7 DFormat profile : High@L4( m3 }6 z4 P: L4 T4 S, r
Format settings : CABAC / 4 Ref Frames, h! k  e2 ~7 O3 F3 ]
Format settings, CABAC : Yes
6 [, X- ]9 l! i: V4 ]Format settings, Reference frames : 4 frames
' D# `3 r$ j+ B: L1 |Codec ID : V_MPEG4/ISO/AVC5 n2 K; c+ Q3 s* i; n/ ]
Duration : 2 h 9 min0 z! H0 H6 W" d  y( ]7 C, ]
Bit rate mode : Constant, o. B6 r/ `: ~" |% s+ X
Bit rate : 6 933 kb/s2 U( I4 m4 L& r
Nominal bit rate : 10 000 kb/s3 B0 f7 m6 u: n8 i
Width : 1 920 pixels& [' t# T3 w* u0 r+ ^
Height : 1 040 pixels
( K4 a( F8 _2 P8 \9 Q2 aDisplay aspect ratio : 1.85:1
7 U6 L+ a' o6 q" D2 VFrame rate mode : Constant
# J& m! M# m$ ^6 k& cFrame rate : 23.976 (24000/1001/189150) FPS
& i6 J( i, K( H. I' _Color space : YUV
& R2 D' q. L& T- a! G' xChroma subsampling : 4:2:0+ y( j% a$ v6 H  `  m
Bit depth : 8 bits
+ R# {1 X$ a; i) A: {0 S; ZScan type : Progressive
) I8 I" X. e/ z# _, d# C) b- R+ UBits/(Pixel*Frame) : 0.145: m% C6 H6 V) u. |
Stream size : 6.26 GiB (92%)
- k9 _" b6 J8 k* [0 w# }Default : Yes1 x# N8 g9 D( f* J! W
Forced : No- M) f( v) a0 z% s( I
Color range : Limited
+ q  ]! W% X) y# hColor primaries : BT.709& U! k" y+ j+ a: D2 J* ]
Transfer characteristics : BT.709& _. T& ?. ^6 _
Matrix coefficients : BT.709
. z) p4 k# u# k6 |5 _2 t; c8 ]; Z6 L- t6 a; j
Audio
7 O  |# ^, \) A. T. Z6 ~' O3 YID : 2* Z9 _7 `- H( r$ f6 d
Format : E-AC-3' M. ?6 i" F8 p, F/ ~
Format/Info : Enhanced AC-3
# P/ x; C$ v8 T8 z- f/ uCommercial name : Dolby Digital Plus
" M, t3 l8 o# MCodec ID : A_EAC3
& B& q8 u: _6 y0 lDuration : 2 h 9 min
2 N, Y9 a9 s2 a2 b7 qBit rate mode : Constant, Q% h1 ?: [9 W( J, ?* o! O  X! J
Bit rate : 640 kb/s* C6 r& z% V- ?4 n9 i
Channel(s) : 6 channels
: K2 s! o. \, T0 B1 {Channel layout : L R C LFE Ls Rs
- `  Z* o6 I# I* w. HSampling rate : 48.0 kHz
" G5 {  H' P& K- G2 g/ SFrame rate : 31.250 FPS (1536 SPF)
3 C( [! _* j: U; k. G( k4 aCompression mode : Lossy
6 o0 }, Y9 R1 w0 v1 CStream size : 592 MiB (8%)
3 P% X, {1 ^6 ~* eTitle : English( L8 r; Y9 A/ s# c
Language : English7 W% Y  w: J7 w9 i7 K, o
Service kind : Complete Main9 q# J( i" u: W3 x3 r$ @
Default : Yes7 \  Q( D2 r! v: y: Y: q) I
Forced : No9 J, d' w1 Q& G

4 g3 h  M! v2 q( T, O% QText
$ t8 x! w+ [4 |; iID : 3' l6 r! P) y4 e; c8 N9 z; j1 y
Format : UTF-8
" B8 g5 _  j8 iCodec ID : S_TEXT/UTF8, ]3 m# ]( f; U$ @) N1 v
Codec ID/Info : UTF-8 Plain Text% x, J/ s" H5 v% w% U. P
Duration : 2 h 7 min
. O" R% [7 f+ B5 `5 Z3 WBit rate : 65 b/s
; ?6 ^/ X7 E7 ACount of elements : 19446 i* P/ G$ \1 ^6 E0 f; u
Stream size : 61.3 KiB (0%)$ l3 `6 T5 R2 N. x+ k3 k6 ]
Title : English (SDH): Q% K8 k; d6 j
Language : English( G& A5 w0 c+ q6 |/ d5 I
Default : No
6 m% H0 {( @  E1 H# x4 ~: O9 tForced : No3 a9 e; W* L8 W
( E' C- b, _2 \( \: ?* s8 G
Menu
! @1 V+ U/ f4 E4 G" |! ^! j0 ~9 h8 X00:00:00.000 : en:Studio Logo / en:Studio Logo / en:Studio Logo; w, U0 G  s! v4 u  j5 w; R' L5 F
00:00:54.000 : en:Scene 2 / en:Scene 2 / en:Scene 2
( b. x, s( U: K, z. U" j5 o00:05:53.000 : en:Title Sequence / en:Title Sequence / en:Title Sequence; K. e, U* O, _
00:05:59.000 : en:Scene 4 / en:Scene 4 / en:Scene 4
* l4 _7 R, a: E" u6 X00:28:58.000 : en:Scene 5 / en:Scene 5 / en:Scene 5
- G+ X- s& Y5 Y9 D2 N) |+ W, T00:29:01.000 : en:Scene 6 / en:Scene 6 / en:Scene 6
) S) c. d0 d/ l; H* C00:32:41.000 : en:Scene 7 / en:Scene 7 / en:Scene 76 B3 t9 k# G) T: k
00:54:54.000 : en:Scene 8 / en:Scene 8 / en:Scene 82 k1 j: q, ?5 r2 U% o- j
01:12:23.000 : en:Scene 9 / en:Scene 9 / en:Scene 9$ R" E8 d5 M  X- [% F0 d
01:18:53.000 : en:Scene 10 / en:Scene 10 / en:Scene 10
# W1 v9 p1 A5 k5 u$ K# K: r$ W01:21:28.000 : en:Scene 11 / en:Scene 11 / en:Scene 114 {1 I. w# ?( V8 H
01:26:11.000 : en:Scene 12 / en:Scene 12 / en:Scene 12
% R9 q* @3 y9 x$ f) v: T4 {01:26:18.000 : en:Scene 13 / en:Scene 13 / en:Scene 13* k- Z6 f( W9 K( E  V
01:35:02.000 : en:Scene 14 / en:Scene 14 / en:Scene 142 a) l: {  u, d% N7 r7 W
01:39:22.000 : en:Scene 15 / en:Scene 15 / en:Scene 15
+ C) o2 r) ~8 c* c) C% V: t1 c( ^2 T& A02:01:03.000 : en:Scene 16 / en:Scene 16 / en:Scene 163 Y6 b; w8 {8 {: y$ p/ g' R
02:02:28.000 : en:Closing Credits / en:Closing Credits / en:Closing Credits
! [4 D- _: `( f' f/ @02:06:41.000 : en:End Credits / en:End Credits / en:End Credits

! G0 L: [9 F& n0 i% [+ s' ?5 B
游客,查看本帖隐藏内容请回复 | 加入VIP贵宾可免积分免回复 了解详情 | 还不是会员:点击获取邀请码 Invitation Code

本版积分规则

小黑屋|Archiver|蓝光电影资源网

GMT+8, 2021-5-6 20:22

快速回复 返回顶部 返回列表