BluRayCD Forum

 找回密码
 立即注册【分享大片】
查看: 14|回复: 2
收起左侧

[蓝光原盘] 尤巴县突发新闻 [REMUX无损版] Breaking News in Yuba County 2021 1080p BluRaycd REMUX AVC DTS-HD MA 5.1-FGT 18.60GB

[复制链接]

9516

主题

9924

帖子

9万

积分

Super moderators

金币
646 枚
体力
45745 点

最高荣誉勋章

24xs 发表于 2021-5-7 22:04:22 | 显示全部楼层 |阅读模式
A woman takes advantage of her growing celebrity status when the police and the public think her dead husband is just missing.7 `- U, p) ~2 I" ]

6 Q1 z" m3 V1 Q 01.jpg
6 M2 l+ R* p5 U% Q4 W9 \9 b
2 r* J+ n' E1 p. [) f6 I) F( v◎译  名 尤巴县突发新闻/尤巴猛料+ e& |* B  Q4 _8 z7 A& s: [
◎片  名 Breaking News In Yuba County4 E, e7 L" E/ m1 |* j) M- r/ f& p/ U
◎年  代 2021
( r% L: ^% Y$ _2 C( a◎产  地 英国/美国
" T& B$ V9 Q3 Q% w# L7 F  N7 p◎类  别 剧情/喜剧/惊悚/犯罪
2 t, h. S% T/ d7 L( J: [$ W- X◎语  言 英语% a. M: q8 n" [
◎上映日期 2021-02-12(美国网络)
- E! K7 _, J8 I% P. G! c8 K◎IMDb评分  5.7/10 from 2,184 users% F# A% N: b7 f* g5 U, I+ x5 H3 `
◎IMDb链接  https://www.imdb.com/title/tt7737640/# M5 R% b+ u# i6 E
◎豆瓣评分 6.6/10 from 527 users  m6 h% ^; H& P+ x/ [
◎豆瓣链接 https://movie.douban.com/subject/30362825/. ~, U# [1 C' P
◎文件格式 x264 + DTS
9 `% G/ n5 {) O4 I: `) S◎视频尺寸 1920 x 1080
. i* P3 U9 M+ h1 G◎文件大小 1DVD 18.60 GiB
% F  i/ y+ ^6 `5 y" f& ?◎片  长 1 h 36 min
+ N; o! a- p/ Z6 p1 Z◎导  演 泰特·泰勒 Tate Taylor3 Q3 \( b4 |7 Q: p9 R; V# l$ A
◎编  剧 阿曼达·伊多科 Amanda Idoko
! a* I% l' z7 a2 D  D# t◎主  演 艾莉森·珍妮 Allison Janney
: l# H) ]. q/ V5 l       米拉·库尼斯 Mila Kunis7 i7 S, ]8 q8 W2 z* o1 N8 ]
       奥卡菲娜 Awkwafina
4 j1 r+ r- q& B( s. ]3 }- k       旺达·塞克丝 Wanda Sykes
% d+ A: {  {6 w3 S6 G+ f       马修·莫迪恩 Matthew Modine& {6 N) ~. J# ]9 y
       萨米拉·威利 Samira Wiley
5 U: `6 s" b8 A       艾伦·巴金 Ellen Barkin
3 @  `5 T- V4 \+ Z& E& [       朱丽叶特·刘易斯 Juliette Lewis/ ^. {% i- r  e4 B
       雷吉娜·赫尔 Regina Hall
  r5 H1 X) n+ Q7 C2 T- n       吉米·辛普森 Jimmi Simpson0 q) n- S2 q9 B3 u$ r/ q4 I5 s& T
       克里斯·劳威尔 Chris Lowell
- k4 F+ C+ e& j. s+ @       小克利夫顿·克林斯 Clifton Collins Jr.
5 W& t% j. U4 t! Q* E) V7 v+ Q       布里奇特·埃弗里特 Bridget Everett5 S- s1 O2 @! y. i4 m  x. `
       马塞拉·伦茨·波普 Marcella Lentz-Pope
! ]$ i9 L( F% r6 x$ [       多米尼克·伯吉斯 Dominic Burgess
. H# a$ v6 O7 h8 G       露西·浮士德 Lucy Faust7 D2 w" `6 l  t" s. g  {
       申庚 Keong Sim/ p* ?- ]5 ?3 V2 t3 `; ?6 i
       西尔维娅·格雷丝·克里姆 Sylvia Grace Crim) ]4 r% B* {5 F; W
       迪内·泰勒 Deneen Tyler, g7 z) T3 }7 Z
       T·C·马特恩 T.C. Matherne
4 x8 z* _/ Z0 m" G( D       彼得·詹梅斯 Peter Jaymes Jr.
4 E) {' n% N  i7 I% u$ ]5 w* A       劳拉·邓恩 Laura Dern
, D& h; y3 {6 E: z8 M7 W/ R
0 R; o& Q; M5 e$ a. s◎标  签 2021 | 美国 | 黑色幽默 | 电影 | 犯罪 | 剧情 | 美国电影 | 惊悚+ Y' j5 M9 z( Z: m( m6 t3 D
. s* x% W& F7 E9 ^
◎简  介$ k) u3 Z, ]" Z. b! k' l

' `: u; B6 z. A6 R# D! t3 r  苏·宝特姆斯(珍妮饰)将丈夫与一个女子捉奸在床,却没成想,她的丈夫被吓到心脏病发离世。苏随即把丈夫尸身埋掉。老公的消失,倒是让苏的名望、地位日益增长。但是苏很快发现,她自己不仅要躲避警察和罪犯,更要对她那迫切想要获得猛料的新闻主播妹妹南希三缄其口。! E! o- n! k, b  U9 k# q$ |
8 C" P9 f1 _9 h0 Z0 q6 M+ L, S
  A woman catches her husband in bed with another woman, causing him to die of a heart attack. She buries his body and takes advantage of the growing celebrity status that comes from having a missing husband. However, she soon finds herself in over her head, dodging cops and criminals, all while trying to hide the truth.
0 K, N2 x. d+ m2 K( t5 J) p
Video
4 l$ v/ B4 y- R1 `ID                                       : 1
" L* w4 H* x7 U/ a2 MID in the original source medium         : 4113 (0x1011)" a; t* h4 c+ a) E4 u* k) B! E: M
Format                                   : AVC
5 P" o/ W# {* D9 cFormat/Info                              : Advanced Video Codec
; Z! T8 e! N1 X8 F* r& _2 Z& |, L. mFormat profile                           : [email protected]% ^( [  a. s0 M2 [6 x/ f
Format settings                          : CABAC / 2 Ref Frames/ v' y; K5 s: t" k
Format settings, CABAC                   : Yes
( A# A9 q2 G  b, j' s, V0 H% x# R3 }Format settings, Reference frames        : 2 frames
9 T# K4 [. R( P  I4 g# x; yCodec ID                                 : V_MPEG4/ISO/AVC* H; h4 D5 h1 s5 A" [% t1 Y* w. i
Duration                                 : 1 h 36 min
+ X6 A8 r$ q" G* ?+ OBit rate mode                            : Variable
$ y  B- Q: A3 M& Z" fBit rate                                 : 23.7 Mb/s' `7 b- |1 b2 q  N/ w/ F
Width                                    : 1 920 pixels$ s/ d# O. r+ y6 h1 G4 X
Height                                   : 1 080 pixels7 E# z1 J( H/ ~6 W7 K; a8 S
Display aspect ratio                     : 16:91 t, b0 l  d0 z. Y: G
Frame rate mode                          : Constant# D7 V4 x2 g$ Z, b
Frame rate                               : 23.976 (24000/1001/189150) FPS
! |  u) e/ z* y3 l% U2 rColor space                              : YUV
- s8 y8 m5 ~* p4 ^/ }( EChroma subsampling                       : 4:2:0
3 [# K2 S& }" b1 q+ H/ LBit depth                                : 8 bits* D. @- I% v4 Y& ]/ J( Q9 A
Scan type                                : Progressive
4 N7 z* Q' A( Q$ PBits/(Pixel*Frame)                       : 0.476+ q9 D# M: {' E4 f: c" O5 ?( i
Stream size                              : 15.9 GiB (86%)4 x) {- e4 j. A3 e
Title                                    : Breaking.News.in.Yuba.County.2021.1080p.BluRayCD.REMUX.AVC.DTS-HD.MA.5.1-FGT4 @! r9 \( ^/ {% D4 ^) U) y
Language                                 : English. _! C* e6 U; P7 m' Z& k
Default                                  : No
; U# |3 ?. v1 sForced                                   : No
, n  @; l- \" H, IOriginal source medium                   : Blu-ray6 l9 d: ^  A) B9 W% \) P
/ P" `- [8 w( J) a4 i
Audio #1
3 J5 h5 a$ e9 j: M) n9 `ID                                       : 2
6 Y0 J5 `. E8 M4 Q& iID in the original source medium         : 4352 (0x1100)) P. m( P  h# e, |& v
Format                                   : DTS XLL, `0 u, }" L, ]! ~; X6 J! z, c) {
Format/Info                              : Digital Theater Systems5 d: |; I) ~  i5 G  q+ @9 X) T
Commercial name                          : DTS-HD Master Audio
( L; t$ A1 T0 ?1 R4 n6 N  tCodec ID                                 : A_DTS
1 {8 i( c5 m% G: t+ yDuration                                 : 1 h 36 min
/ E: h: U2 @( x3 N7 e/ oBit rate mode                            : Variable
, q2 J& d* z* f, T( N9 A3 T, sBit rate                                 : 3 310 kb/s6 B3 {# R* F8 g2 ~
Channel(s)                               : 6 channels
) z9 }( {) X8 y4 ^2 p# XChannel layout                           : C L R Ls Rs LFE
3 l1 t# X5 ?0 w, {( a$ x; Y- [Sampling rate                            : 48.0 kHz
% }8 d! E5 d/ m, dFrame rate                               : 93.750 FPS (512 SPF): n/ |6 c. q: u5 O# _3 k8 h+ |
Bit depth                                : 24 bits
# y# g1 ?2 Q, Z* K% Z' o& o8 q9 KCompression mode                         : Lossless# E: E  ^6 M) k
Stream size                              : 2.23 GiB (12%)( O) z( s3 ~9 ]" v
Title                                    : Breaking.News.in.Yuba.County.2021.1080p.BluRaycd.REMUX.AVC.DTS-HD.MA.5.1-FGT
! f/ P- `. `6 Y7 O+ C8 NLanguage                                 : English
4 N& g1 w  L. n. x5 f" wDefault                                  : Yes
; Y0 V7 _9 D* |7 `Forced                                   : No6 U7 j0 D3 @$ Y! O9 ]: S" f$ G
Original source medium                   : Blu-ray
& B3 }; H: b$ i. _; \" t+ J
# [# r" _1 ~" e* {$ X* L* C# y0 IAudio #2
4 x! N( w5 V6 S; ~) r( mID                                       : 3
  g/ a+ T# N* R  I- c$ h& \ID in the original source medium         : 4353 (0x1101)3 J3 c& A' R) ^% P5 R9 W2 v
Format                                   : AC-3. \5 a- @( z' ^, n" m
Format/Info                              : Audio Coding 3$ U0 q0 A! l( t. Q. y: S
Commercial name                          : Dolby Digital, H; g6 J2 o' [( T( W6 a
Codec ID                                 : A_AC33 `6 i8 u7 ?# P/ O
Duration                                 : 1 h 36 min; ?8 c' e8 _* d! s
Bit rate mode                            : Constant8 v4 K3 L1 r* g
Bit rate                                 : 640 kb/s1 F& ^5 g  r- _) z; b
Channel(s)                               : 6 channels1 q! N5 w; F& t) i/ z: O
Channel layout                           : L R C LFE Ls Rs; _* r8 a! M- p5 T6 S& Q: i
Sampling rate                            : 48.0 kHz# `* B/ q1 |8 S1 X! c2 C5 x
Frame rate                               : 31.250 FPS (1536 SPF)
* u6 H. H$ S" f) PCompression mode                         : Lossy
3 `$ o9 _1 a( K- G- I$ tStream size                              : 441 MiB (2%)
/ e6 z) N9 H7 Q3 U4 G6 g) p" WTitle                                    : Breaking.News.in.Yuba.County.2021.1080p.BluRaycd.REMUX.AVC.DTS-HD.MA.5.1-FGT
9 W1 X% n& e+ c, X, k  R3 _Language                                 : English# R1 n& \8 Z* I2 j. r! h" [" M1 z
Service kind                             : Complete Main! `2 S. p% Z/ y' E7 I; o
Default                                  : No( z5 X, `; F" |8 `
Forced                                   : No; K% n: x# E, V0 ~6 Z+ Z
Original source medium                   : Blu-ray
- N# T6 k$ J2 C6 Y
& E9 ~+ b7 d  n. m  b+ dText #1. X% _6 W% `8 E7 o  d
ID                                       : 4* v# ?; x! H+ |9 N8 w2 o
Format                                   : UTF-8! l4 D8 N' z4 X% |. ?  j2 _% Q
Codec ID                                 : S_TEXT/UTF8
1 K9 y9 X, h9 i; M! BCodec ID/Info                            : UTF-8 Plain Text
/ U$ s) M% B4 N- i# v6 ODuration                                 : 1 h 29 min! }" L8 s# ~/ z1 S
Bit rate                                 : 76 b/s; A, G% ~% `3 t* X! H
Count of elements                        : 1783( b/ c; V1 {! U
Stream size                              : 49.8 KiB (0%)
9 |. X5 r$ x- R1 yTitle                                    : English-SRT
' \) v& C7 o* u4 n3 rLanguage                                 : English
. B8 y" o; v8 F+ tDefault                                  : Yes7 e: H; e& [! k9 P1 Z5 j
Forced                                   : No, L; y: x+ Q: {6 i& U/ E' S

- t# A. b$ y$ G  o. N/ HText #2; z! r; P, S9 L/ d
ID                                       : 5
% k' Y3 z8 o# I! O& ~; wID in the original source medium         : 4608 (0x1200)
9 T2 N- D9 l7 i; _1 J8 n+ sFormat                                   : PGS2 V7 o( [; }" k% I/ B3 K# a
Muxing mode                              : zlib( R/ F/ A1 H( _" a- U6 t
Codec ID                                 : S_HDMV/PGS( b! T  i/ }+ o6 Q0 M  h3 P
Codec ID/Info                            : Picture based subtitle format used on BDs/HD-DVDs
2 J1 X/ Q6 ?7 n' J: u& R) fDuration                                 : 1 h 29 min
' w$ m' C. J9 n) C$ |; iBit rate                                 : 53.4 kb/s
+ C$ E1 g9 S3 r. L  c  b; qCount of elements                        : 3844) x( p& b2 _# D& z( e8 e
Stream size                              : 34.1 MiB (0%)" S) _, }$ i$ O% b
Title                                    : English-PGS) T! o) T( ~5 E9 x4 {& |
Language                                 : English0 g" R/ D* v1 }$ B, D/ v: O
Default                                  : No: ^' M! g2 b5 }. A1 T+ G6 ?
Forced                                   : No
3 e! {0 ^  T! y: F+ a/ A' I$ JOriginal source medium                   : Blu-ray2 ^& ~& J$ N7 o$ N# w! `& d: s
6 J$ ?% ]- k' }. T" }! L% a: m
Menu$ K9 z6 u8 o) H% z
00:00:00.000                             : en:Chapter 01
9 Z- S: R9 w' F& Z00:10:21.370                             : en:Chapter 02. h: @/ n) p3 ^! l2 K
00:19:52.691                             : en:Chapter 03; j' h7 I* m/ R* [8 Y+ J
00:30:20.944                             : en:Chapter 04) P$ {" j3 m, ?- t. e- s9 B
00:41:30.863                             : en:Chapter 05
% n+ X9 h# r* ~2 Q  L/ Y( F00:49:45.941                             : en:Chapter 06
3 j3 w9 m3 g; ^5 H  C00:59:59.304                             : en:Chapter 07& `7 d2 `+ B$ w
01:09:49.602                             : en:Chapter 08
$ _( b! R4 ]+ _3 f% J8 T; m9 J01:20:31.993                             : en:Chapter 09& q) V9 l0 a  H0 Y2 m0 K
01:27:45.885                             : en:Chapter 10

+ U3 p& b5 `; ?$ w2 h* W) v+ I  V
游客,查看本帖隐藏内容请回复 | 加入VIP贵宾可免积分免回复 了解详情 | 还不是会员:点击获取邀请码 Invitation Code

76

主题

2758

帖子

1万

积分

Sponsor

金币
1312 枚
体力
3839 点
lanpanshuma 发表于 2021-5-8 08:22:58 | 显示全部楼层
Bluraycd又有新电影发布了,激动中……!
# |& a( ]* [" A* X1 h  |After reading the posts have nothing to do I Amoy posts!( _% y- f+ |. t0 l" \( I8 K( z: g' G
该会员没有 ...

76

主题

2758

帖子

1万

积分

Sponsor

金币
1312 枚
体力
3839 点
lanpanshuma 发表于 2021-5-8 08:26:44 | 显示全部楼层
楼主发贴辛苦了,I*老*虎*U!
2 M) S: q  K1 L. s$ `' UI love your Blu-ray movies Forum!" T, I, s; X8 J+ k% g  a
该会员没有 ...

本版积分规则

小黑屋|Archiver|蓝光电影资源网

GMT+8, 2021-6-12 19:41

快速回复 返回顶部 返回列表