BluRayCD Forum

 找回密码
 立即注册【分享大片】
查看: 196|回复: 3
收起左侧

[蓝光原盘] 蒂娜 [REMUX无损版] Tina 2021 1080p BluRaycd REMUX AVC DTS-HD MA 5.1-FGT 27.35GB

[复制链接]

9516

主题

9924

帖子

9万

积分

Super moderators

金币
646 枚
体力
45745 点

最高荣誉勋章

24xs 发表于 2021-5-8 00:50:57 | 显示全部楼层 |阅读模式
Exclusive access to the Grammy Award-winning artist to celebrate her career.0 d# k# Q% N' ~$ }% D0 a' Z- f
. V6 ~3 Q; \/ H! [8 c1 O0 e! B
  h+ B8 S$ h5 v; J

2 C, J! y5 \6 w+ M# o# a◎译  名 蒂娜
8 ]2 d) w" x, l' \. H◎片  名 Tina / Tina Turner
) z: Z, s" @: e! C◎年  代 2021
5 f- a9 I' H( ~◎产  地 美国
1 Z$ q2 E* }( ]+ h/ [◎类  别 纪录片/音乐/传记9 P$ }2 m2 R+ c# H" b/ `5 m1 P/ W, E
◎语  言 英语
' N1 I4 n# O# [' ?* J, t) f◎上映日期 2021-03-27(美国)
& R$ ?- @- [# e8 E◎IMDb评分  8.1/10 from 2,450 users0 p, p( `1 B$ y  |
◎IMDb链接  https://www.imdb.com/title/tt8399720/
+ ~: j" G0 D& w+ z2 j◎豆瓣评分 0/10 from 0 users
# o& Z6 p' s- l# }◎豆瓣链接 https://movie.douban.com/subject/35371735/
% O9 v4 b. B1 V7 {4 Y◎文件格式 x264 + DTS- z: h+ m& a" D3 t" L- L9 X
◎视频尺寸 1920 x 1080. c5 v5 @8 {$ \' c- w
◎文件大小 1DVD 27.35 GiB
# S7 K. ?4 B" z" L  Q7 z7 h6 q◎片  长 1 h 58 min# R" {+ d; Z% X6 q2 n+ V5 y9 V
◎导  演 丹·林赛 Daniel Lindsay, d6 f( @# {# c2 o; \" q+ A. z
       T·J·马丁 T.J. Martin' }0 o3 J# ^: E
◎编  剧 丹·林赛 Daniel Lindsay
8 G8 L0 W( H) V3 }       T·J·马丁 T.J. Martin
, [! u3 T% O# f◎主  演 安吉拉·贝塞特 Angela Bassett9 s9 t: V5 \' M; Z( z9 y
       蒂娜·特纳 Tina Turner
) R* W; y" s: F7 u       奥普拉·温弗瑞 Oprah Winfrey
& ]6 g; q4 ^7 p- v9 k. h1 H2 j: `1 O       卡托里·霍尔 Katori Hall" t  |  d' H, \7 L  M3 b, }
       库尔特·洛德 Kurt Loder4 I# }% l& o, i
       Roger Davies
" g, A+ ?) u3 g       特里·布里顿 Terry Britten5 U8 W0 @$ j3 \3 D9 |9 E3 R- k
       Jimmy Thomas
" f4 u8 M- J! A7 ~7 s( {: r- |       Erwin Bach
4 w. M; s# k' ?0 e, d' q/ R9 _       LeJeune Fletcher; a. u4 Y/ {6 Q7 T8 O/ t) N8 Z
       Carl Arrington
1 ~4 `* c* g1 A% N6 I; ]- \       Ann Behringer
+ ]* v# d3 h: m; A       Rhonda Graam+ L9 \1 ?3 J' S' X' H4 `7 G

' v) e8 @# z4 ?' K2 G1 r◎标  签 纪录片 | TinaTurner | P-BerlinD特别展映 | Documentary | Berlinale71 | music | T.J.Martin | DanielLindsay/ _$ U- A* M5 W
8 {# ~( H- Z; L7 @
◎简  介
* S  B/ ]0 b# |: X2 j! b  b
# q' R! ^* c! E/ r  HBO纪录片[蒂娜](Tina,暂译)释出先导预告。该片由[不可击败]导演丹尼尔·林赛、T·J·马丁执导。该片将讲述国际巨星蒂娜·特纳的传奇人生,影片将着重记录蒂娜80年代个人事业复苏时期,影片除了包括先前未曝光的档案资料外,还将有与蒂娜的采访资料。该片将于3月27日登陆HBO与HBO Max。  J2 |  R7 U3 z3 u
1 t, y4 f2 ^8 ^- m, T
  TINA is the ultimate celebration of a global superstar and an intimate portrait of a woman who overcame extreme adversity to define her career, her identity and her legacy on her own terms. From her early career as the queen of R&B to her record-breaking sell-out arena tours of the ’80s, Tina Turner draws back the curtain to invite us into her private world in a way she has never done before. Revealing her inner-most struggles, and sharing some of her most personal moments, TINA is the defining and inspirational record of one of the greatest survivors in modern music.
5 O4 Y6 s1 r+ K2 g9 ^3 m. D2 q
Video
7 j6 G; V7 C$ H1 l! wID                                       : 1
' h. [) g( n/ e# M6 OID in the original source medium         : 4113 (0x1011)
, ~! j; e$ B0 X* J: W+ E5 bFormat                                   : AVC( X9 v* [7 ^0 [; B
Format/Info                              : Advanced Video Codec
, F$ x" |* a, g. Y" Q  v9 h% J/ v$ ^* PFormat profile                           : [email protected]% h9 i) c" i9 }8 E7 t; N) f+ v
Format settings                          : CABAC / 4 Ref Frames
1 r* T3 h( r" W, T1 Q. l) vFormat settings, CABAC                   : Yes% i5 H+ I) ?* x, X  ?4 O1 @: V
Format settings, Reference frames        : 4 frames) ]4 t; v. D5 i. {( E
Codec ID                                 : V_MPEG4/ISO/AVC
* ]3 R( _3 c! DDuration                                 : 1 h 58 min. \* z. m% C% U5 y) [* w/ |
Bit rate mode                            : Variable2 A$ [8 I1 H# S, ^2 J
Bit rate                                 : 27.5 Mb/s
  l3 A' F- u' v$ k2 nMaximum bit rate                         : 38.0 Mb/s: y! U: N/ U6 A  D# ~
Width                                    : 1 920 pixels
$ J+ G* U7 R6 J) H1 g' MHeight                                   : 1 080 pixels
2 m; ~- y, d3 z; `& ?# @Display aspect ratio                     : 16:9
2 S/ ~: |# L* p9 X1 H  t  C' k/ MFrame rate mode                          : Constant
1 V$ U2 e7 Y& ?5 SFrame rate                               : 23.976 (24000/1001/189150) FPS* q- N+ ?! {+ g3 b! ?- E" o0 `0 k. X0 @
Color space                              : YUV: g" A7 `! s# S6 g0 {: D0 d+ y% e( D
Chroma subsampling                       : 4:2:0
5 R, ], H* m, `% z; A3 f9 KBit depth                                : 8 bits# E0 a7 K  b7 @* y
Scan type                                : Progressive
% \5 n% m' ?) ^* a# |* F" Y. x4 @Bits/(Pixel*Frame)                       : 0.553
5 W, M$ r0 `5 R- ?$ {Stream size                              : 22.7 GiB (83%)3 ^' Z$ @+ p" c& D0 R3 @0 E
Title                                    : Tina.2021.1080p.BluRayCD.REMUX.AVC.DTS-HD.MA.5.1-FGT
" N( J3 r: H* w$ o7 P/ lLanguage                                 : English
& d4 c: N9 p# X' G" ^6 @Default                                  : No/ W3 u% O. |: k' |
Forced                                   : No( g* z/ x* W% P% {
Original source medium                   : Blu-ray4 i( j; s' A+ |+ H
- b# h+ r: x3 L% I
Audio #1
* E: ~4 [/ `8 k5 HID                                       : 2. _+ [6 Y: y$ D( o. f/ S2 t
ID in the original source medium         : 4353 (0x1101)+ x8 D  s; ^2 _4 O: ]
Format                                   : DTS XLL
7 \2 s. D4 l  x* _6 B- o+ SFormat/Info                              : Digital Theater Systems5 H9 f- [! [- g, }% ^" X. Z
Commercial name                          : DTS-HD Master Audio9 x6 d* F! j' y4 U* G
Codec ID                                 : A_DTS$ B2 i9 W  U8 W& o: m5 e5 E
Duration                                 : 1 h 58 min
: n9 D+ n  i8 i1 }  rBit rate mode                            : Variable1 k4 o# ~. J& N0 B5 ^4 x) \+ c
Bit rate                                 : 3 320 kb/s
- H7 s$ ]4 a( Q4 n$ Y% VChannel(s)                               : 6 channels
0 G/ ]' b  b2 |Channel layout                           : C L R Ls Rs LFE% n8 R  n% g+ k! B) v. C: ~& _" a
Sampling rate                            : 48.0 kHz' m3 Y( |, _+ R4 m
Frame rate                               : 93.750 FPS (512 SPF)
) Q% M+ q8 V6 d+ M  {& G: K3 XBit depth                                : 24 bits8 a+ r! M3 a0 z$ M6 K* _- l& z# ]
Compression mode                         : Lossless
3 g0 M$ b, D) N$ ^Stream size                              : 2.74 GiB (10%)& E: r4 x8 t0 {8 ]% k1 C
Title                                    : Tina.2021.1080p.BluRaycd.REMUX.AVC.DTS-HD.MA.5.1-FGT
: E, U1 n, Y+ LLanguage                                 : English
) _( {$ {* ], p9 jDefault                                  : Yes
8 C9 p2 H( n4 m) h! [& h% Z; gForced                                   : No# f1 e2 n- f) n7 u6 d
Original source medium                   : Blu-ray
- ~- G' ?) ^: F: ?5 s
- X4 F5 s% D* t! vAudio #2
3 Q' x! ]; B* J* ]0 m! YID                                       : 3
# v/ d3 q" ?$ i: e' F+ e0 F1 r6 cID in the original source medium         : 4352 (0x1100)2 J: Y6 V1 t9 c: }; l* u1 _
Format                                   : PCM
! d6 n* X0 W# V: a5 q# Q9 TFormat settings                          : Little / Signed7 G3 s3 y3 y! f( l
Codec ID                                 : A_PCM/INT/LIT: p7 R: j3 g3 Y2 }& W
Duration                                 : 1 h 58 min$ W( y0 Y, T" L
Bit rate mode                            : Constant
( `7 P& ^3 P- W; x. E3 LBit rate                                 : 2 304 kb/s
4 H' X! w  ?* H/ o5 U) X- ^+ CChannel(s)                               : 2 channels9 `. k1 t% b7 c
Sampling rate                            : 48.0 kHz
2 t, ]3 W/ ]$ I  U2 b! aFrame rate                               : 30.000 FPS (1600 SPF)
$ n2 L! S1 f2 K& T! w, m+ fBit depth                                : 24 bits
, ]6 k* Z+ b, l2 ?. G$ fStream size                              : 1.90 GiB (7%)  t/ v9 ?& N; F0 B
Title                                    : Tina.2021.1080p.BluRaycd.REMUX.AVC.DTS-HD.MA.5.1-FGT; t( [9 A. m- R) f
Language                                 : English
- c; N5 |& o4 @% ~Default                                  : No! R* c" X; H8 f9 n( j* o
Forced                                   : No8 b* Y, g2 t! W8 p8 O  Y. E. ?
Original source medium                   : Blu-ray5 y6 f3 }) Z# U; E+ }- ~" p4 k

  o3 A5 ?7 N6 a3 `+ h% `( D# oText #1
. i! K" w" a$ F* \  m# `ID                                       : 4
7 ^+ Z$ ~" p  KFormat                                   : UTF-8% T$ l' K, v  Y0 u
Codec ID                                 : S_TEXT/UTF8+ [5 C$ L8 ~$ j- x* h
Codec ID/Info                            : UTF-8 Plain Text5 s  P+ L1 n* C% b0 C) v7 i9 \6 {
Duration                                 : 1 h 57 min( ]: B" l1 _" O. E( r
Bit rate                                 : 84 b/s
" ^: f; R1 @4 {7 A5 R# m; ^: b  x0 j  x: ]Count of elements                        : 20752 m- N& s# t' F) }' y
Stream size                              : 72.4 KiB (0%)# I- R4 t, H' z
Title                                    : English-SRT
+ X7 b9 \" R. O. b; ULanguage                                 : English
* y% o5 Z2 g# V) a' s6 FDefault                                  : Yes
/ J4 V# U; E* \$ Z7 H" NForced                                   : No
7 z  P: Y! E* w# r$ f) i: U
) U- b* F5 \! VText #2% U9 v$ D% g+ b& A, V& J
ID                                       : 5, F5 G: ^% y2 ^
ID in the original source medium         : 4608 (0x1200)& }3 A3 U3 v( Y1 Y/ k/ n, D
Format                                   : PGS) m; I  L+ ]- l4 F1 c  |) U: P
Muxing mode                              : zlib
  |; e% e" k. OCodec ID                                 : S_HDMV/PGS
3 S! b. W) s1 m" l: N$ GCodec ID/Info                            : Picture based subtitle format used on BDs/HD-DVDs# {/ o- M1 ^( y
Duration                                 : 1 h 57 min/ h# {9 \" K! D
Bit rate                                 : 47.3 kb/s
. n* n% O5 Q/ n, rCount of elements                        : 4438
  t& S0 e0 o/ v! h* R& ?Stream size                              : 39.7 MiB (0%)
$ Q/ X; I: Y- E  b& \% DTitle                                    : English-PGS( K- ]- `7 ~  N# ], h! d: D
Language                                 : English
" ]7 _) P# f# J9 ]* j; Q( u- @Default                                  : No
: J" b  ^" A4 n. C' cForced                                   : No2 J) Q" h- R& \7 ^" I& \! e
Original source medium                   : Blu-ray/ z" W4 y: z$ V- j9 ]. q
9 e3 }% ~- o! Z6 t
Menu9 @  q# ]/ n1 `" ?8 K# B; q
00:00:00.000                             : en:Chapter 01
7 o. y! c" z, z8 ^* I00:07:09.971                             : en:Chapter 02' b1 Q" Z# f/ a2 T! `
00:14:27.825                             : en:Chapter 03
" i9 V: E+ u8 L00:24:02.023                             : en:Chapter 040 F1 Y% W( |  a8 }4 A" g( t! w
00:31:04.612                             : en:Chapter 05
/ u# r$ j" S! W& i% r( E8 l00:46:34.917                             : en:Chapter 068 {. v1 G, M! b4 O$ j( U6 D1 G9 C% P/ n
00:57:55.597                             : en:Chapter 07
8 G6 F* u! ^/ {8 N* W: f% |01:13:22.773                             : en:Chapter 08
9 u( K4 M0 E, A9 X. A$ ?; k/ Z01:25:11.815                             : en:Chapter 09
0 @' m& f% ~% e4 l01:34:13.147                             : en:Chapter 108 J9 K- r9 ^. Z1 k( B
01:42:01.782                             : en:Chapter 11
/ j- B1 y! m$ s01:48:29.544                             : en:Chapter 12
: U! g1 Y5 t7 y7 G1 e' S
游客,查看本帖隐藏内容请回复 | 加入VIP贵宾可免积分免回复 了解详情 | 还不是会员:点击获取邀请码 Invitation Code

76

主题

2758

帖子

1万

积分

Sponsor

金币
1312 枚
体力
3839 点
lanpanshuma 发表于 2021-5-8 08:41:13 | 显示全部楼层
这么好的帖子不回对不起自己!
' q8 g5 v1 ^2 a+ B* }0 o  Ybluraycd forum, a lot of Blu-ray movies!5 G( q5 H' q+ ?8 k
该会员没有 ...

0

主题

394

帖子

1604

积分

Sponsor

金币
3 枚
体力
855 点
luyife 发表于 2021-5-23 11:50:54 | 显示全部楼层
谢谢楼主的分享

0

主题

53

帖子

422

积分

Sponsor

金币
183 枚
体力
129 点
aacq 发表于 2021-5-25 21:49:55 | 显示全部楼层
一部纪录片吗,这讲的是谁啊

本版积分规则

小黑屋|Archiver|蓝光电影资源网

GMT+8, 2021-6-12 18:52

快速回复 返回顶部 返回列表