BluRayCD Forum

 找回密码
 立即注册【分享大片】
查看: 140|回复: 7
收起左侧

[蓝光原盘] 困在时间里的父亲 [REMUX无损版] The Father 2020 1080p BluRaycd REMUX AVC DTS-HD MA 5.1-FGT 20.98GB

[复制链接]

9516

主题

9924

帖子

9万

积分

Super moderators

金币
646 枚
体力
45745 点

最高荣誉勋章

24xs 发表于 2021-5-18 05:38:48 | 显示全部楼层 |阅读模式
01.jpg
$ r& t, R3 U. Z1 _
( b, S1 t  F, {: c) K◎译  名 困在时间里的父亲/爸爸可否不要老(港)/父亲(台)/老父  f3 n6 K; j$ O  ?$ j  H
◎片  名 The Father5 j. T# P) F8 U% E( i0 O. J
◎年  代 2020
/ t7 K6 \" v/ N  Y3 u  l; I◎产  地 英国/法国# R+ q. e  I2 F' w3 k& U
◎类  别 剧情8 @; k& f8 Y2 t# E( c
◎语  言 英语
/ H8 G: n0 u$ x◎上映日期 2021-06-18(中国大陆)/2020-01-27(圣丹斯电影节)/2021-02-26(美国)/2021-03-26(美国网络)
- G. q% [6 m5 `$ v. s# n◎IMDb评分  8.3/10 from 56,934 users
) Q7 M- f9 h8 t" F% r6 k8 \, y◎IMDb链接  https://www.imdb.com/title/tt10272386/
% F) p" C) l" {" k4 d; b* ~3 A, h◎豆瓣评分 8.8/10 from 45,146 users. U/ G, u  L# d% S. X$ s/ E# A
◎豆瓣链接 https://movie.douban.com/subject/33432655/! I5 @, g' ?+ }; W' K% D
◎文件格式 x264 + DTS0 a* }, x* g+ M4 H/ C  @
◎视频尺寸 1920 x 1080
$ P/ e- [. a$ s◎文件大小 1DVD 20.98 GiB
$ X4 C& p4 H9 F/ y" o" n6 N◎片  长 1 h 36 min- }, p' ?3 V! g: d6 ?
◎导  演 佛罗莱恩·泽勒 Florian Zeller5 h" r+ z* |; L2 O- T
◎编  剧 克里斯托弗·汉普顿 Christopher Hampton
, ~: \2 ~3 }2 r0 S) ~0 _       佛罗莱恩·泽勒 Florian Zeller
" Z- g2 y; G$ M" n◎主  演 奥利维娅·科尔曼 Olivia Colman
7 d4 Y: `9 I$ n9 x! l5 e       安东尼·霍普金斯 Anthony Hopkins3 N; r" z. c3 E$ Z- S* C
       马克·加蒂斯 Mark Gatiss* q+ B6 Y& h, a2 t/ h0 |* s
       奥莉维亚·威廉姆斯 Olivia Williams
& m3 s9 C$ F" ^1 @       伊莫琴·普茨 Imogen Poots
( l  }. H! O1 T, U$ f5 Q0 v       卢夫斯·塞维尔 Rufus Sewell+ ?+ M) [$ I- M( j4 z
       阿耶莎·达尔克 Ayesha Dharker/ e/ q: L1 J5 K4 m  n- O
       艾薇·维 Evie Wray
3 |9 O( q5 o- d, Q* b       Roman Zeller
. }$ |5 n5 _3 w/ J/ F& R; b       Scott Mullins) h( Y- ], R& r+ S
       Ray Burnet
5 a+ A( O. A5 |) R$ v       Adnan Kundi+ {8 a" g4 o" t1 Y8 L

+ K0 T2 j5 W( E6 w  |/ d8 _◎标  签 安东尼·霍普金斯 | 剧情 | 英国 | 英国电影 | 2020 | 奥利维娅·科尔曼 | 改编 | 马克·加蒂斯
; r6 k( {9 }- f: }' ~( q" e5 A; v
◎简  介     
' I3 y7 ]4 D4 Y5 j5 u4 l+ E- A0 M$ s, |- s- {- K9 w
  影片以重复加碎片式的感官叙事手法,讲述了年迈且身患疾病的安东尼正在面临一项艰难的人生选择——是搬到养老院还是接受女儿寻找的新护工。在这个过程中,安东尼发现自己仿佛进入了一场奇怪的时空之旅,错乱的记忆和时间线交织出一段段匪夷所思的故事,而一个个陌生又熟悉的人也让他陷入迷茫。
) G& n5 m. J; G7 p2 E4 w2 p: j2 i8 D( p
  影片根据法国小说家兼剧作家佛罗莱恩·泽勒的舞台剧《父亲》改编。
7 o7 h/ @# Z  k% f+ ?) e! i# ^
! ]5 n9 T2 i! x" j' y  A man refuses all assistance from his daughter as he ages. As he tries to make sense of his changing circumstances, he begins to doubt his loved ones, his own mind and even the fabric of his reality.3 T+ z2 W! C( @

5 M$ _1 @6 H3 u# |1 j◎获奖情况    % u' M: F: }7 d8 G' W+ V

0 Z: T! B; j% X2 E' \: ~# N  第93届奥斯卡金像奖 (2021). L2 `/ l' V' |
  最佳影片(提名) 大卫·帕尔菲特/菲利普·卡尔卡松/让-路易·利威
! |- @/ s" P: N% W: C& {  最佳男主角(提名) 安东尼·霍普金斯
/ ?" b/ {: Y0 T$ `( b  最佳女配角(提名) 奥利维娅·科尔曼
+ k* a, r0 d/ y- H7 y2 m- C: W  最佳改编剧本(提名) 克里斯托弗·汉普顿/佛罗莱恩·泽勒5 R3 \  A+ a% @% C3 A
  最佳剪辑(提名) 欧格斯·兰姆普里诺斯
$ c8 i. ^: @: s* l9 @' e. N+ Q* B  最佳艺术指导(提名) 凯西·费瑟斯通/彼得·弗兰西斯
; m1 [  s: o5 @: M  : @, W/ E" V, y9 o8 n
  第78届金球奖 (2021)
$ {: O0 T! j/ d6 D( Y$ o( s7 g  电影类最佳剧情片(提名)$ Z5 W) T( O4 [6 Y, }5 {4 U
  电影类剧情片最佳男主角(提名) 安东尼·霍普金斯
. N0 ^' D" c+ M5 n! {7 \* I  电影类最佳女配角(提名) 奥利维娅·科尔曼
( s6 j" F6 Y3 `6 V5 L  电影类最佳编剧(提名) 克里斯托弗·汉普顿/佛罗莱恩·泽勒
# E3 Y; m5 B% B& R% ?  
! T5 y/ ~1 ?7 M  第74届英国电影学院奖 (2021)3 s5 v: T1 }6 s5 N! K5 W( k
  电影奖最佳影片(提名)
) P; a# ~! ^6 y7 s  电影奖最佳英国影片(提名) 佛罗莱恩·泽勒
  b  N4 v: Y4 v" m  电影奖最佳男主角(提名) 安东尼·霍普金斯! u* L4 r2 K) z/ A+ _. t
  电影奖最佳改编剧本(提名)4 O: ?. h' X. E5 Y+ u; [
  电影奖最佳剪辑(提名)
' m3 I- y! D% t& }5 |3 }- ^  电影奖最佳艺术指导(提名)
4 m- ~. D% X  G; ]  
# j. P% g# b1 ^# a  第35届西班牙戈雅奖 (2021)
2 n: C3 C$ W  J7 g7 v& Q- R6 v  最佳欧洲电影
2 W0 `2 ^2 r7 u$ _4 U  
: C) @0 f+ i+ |8 Y  第68届圣塞巴斯蒂安国际电影节 (2020)
4 K6 j4 l/ U) B8 A* A8 C; H& y' X  观众选择奖 佛罗莱恩·泽勒1 G: O; h# d0 L3 Z- R" M: ]
  $ e* q4 o6 a8 e; d- v
  第27届美国演员工会奖 (2021)
5 S, ?1 y6 K. j; s" w# H6 t  电影奖最佳男主角(提名) 安东尼·霍普金斯
8 x; R! w6 f  ]' J7 H- I5 l" z  电影奖最佳女配角(提名) 奥利维娅·科尔曼
6 R! N2 h9 @: [  
2 ?' |. H- n  Y3 H+ m/ L7 G. p  第26届美国评论家选择电影奖 (2021)6 S, E1 g) M6 O) D5 n' o
  最佳男主角(提名) 安东尼·霍普金斯
" C, h6 ?7 ]8 w! X( N  最佳女配角(提名) 奥利维娅·科尔曼
0 m" h/ T' l) n3 Z5 x6 g3 y  最佳改编剧本(提名) 克里斯托弗·汉普顿/佛罗莱恩·泽勒  r. u, a  m$ c; c. l2 T- H
  最佳剪辑(提名) 欧格斯·兰姆普里诺斯
0 T9 Y" ^1 W; |- b( [  4 F4 V- a8 C2 `( D6 `8 u
  第23届英国独立电影奖 (2020): K  C9 x0 G5 I6 _
  最佳英国独立电影(提名)' V: y1 a4 r' a' O$ Y& \
  最佳导演(提名) 佛罗莱恩·泽勒
1 \7 d5 D+ H( V6 u# a, c4 f  c  最佳编剧 克里斯托弗·汉普顿/佛罗莱恩·泽勒
; N) o* Z! b1 E5 O  最佳男主角 安东尼·霍普金斯
# L, N3 D0 e9 o% ~* x3 h% X  最佳剪辑
/ z  V! H  D& J4 Q: W  最佳艺术指导(提名)8 P4 r2 V: g; `1 `. i0 w
  
( g* w/ r2 b1 Y! n/ O1 h  第25届金卫星奖 (2021)" T- O$ X: Z: `1 B: Z& t" I
  电影部门最佳剧情片(提名)
! e! e) s5 M& g0 p. i$ J  电影部门最佳导演(提名) 佛罗莱恩·泽勒
/ b2 D" t8 t0 O* U  电影部门剧情片最佳男主角(提名) 安东尼·霍普金斯- x& T1 n1 `, p( x
  电影部门最佳女配角(提名) 奥利维娅·科尔曼+ r) w/ q% {! k. P% O) m: ^% O
  电影部门最佳改编剧本(提名) 克里斯托弗·汉普顿/佛罗莱恩·泽勒  j5 ]  R/ \! F; ?+ ]
  电影部门最佳剪辑(提名) 欧格斯·兰姆普里诺斯
0 \4 [, n/ L3 N$ A7 h  F; ?  & {, `1 h: b  P4 K
  第41届伦敦影评人协会奖 (2021)
; L+ ?5 o/ x* W7 F. i: G9 r  年度英国/爱尔兰电影(提名)5 g# j- ^+ H8 {
  年度男主角(提名) 安东尼·霍普金斯
, _  F" \; F2 U7 G# ~  年度英国/爱尔兰男演员(提名) 安东尼·霍普金斯
, J3 d, }# I, `* Y# ]6 d5 [& V    Z, C5 i, h- N6 I. |* T
  第41届波士顿影评人协会奖 (2020)& e# ]% _7 o) O, j4 E9 V
  最佳男主角 安东尼·霍普金斯
% d' q! O2 ], ]$ L$ x  最佳处女作 佛罗莱恩·泽勒
, J  g, ^; k$ Q( ?3 M  l# n  $ E+ `: \% B6 V, O
  第46届洛杉矶影评人协会奖 (2020)
& M( Z# v1 o: Z% u3 M7 {  最佳剪辑 欧格斯·兰姆普里诺斯  e, \( u  I/ C3 |. x: r) c8 K
  
. i2 H6 q" T1 F; e  第33届芝加哥影评人协会奖 (2020)1 X7 B1 [) e" u3 F* c8 Y/ D5 f. G
  最佳男主角(提名) 安东尼·霍普金斯
+ N: A. M# k0 R% M  最佳改编剧本(提名) 克里斯托弗·汉普顿/佛罗莱恩·泽勒
+ }& w- n6 n% `0 N. f4 V! |' S! F  
- d- z# J5 v' }0 t$ _* U  第5届亚特兰大影评人协会奖 (2020)
' K. x* A8 e8 c% J  十佳影片
5 D2 D! W+ k+ v. i6 K  
9 O) o! z/ E0 P  P( V  第24届美国在线影评人协会奖 (2021)$ g: W! A6 p/ @- }
  最佳男主角(提名) 安东尼·霍普金斯
) p2 v6 S2 D/ O) ?6 [3 v* ~# C& k4 G  最佳女配角(提名) 奥利维娅·科尔曼
' j6 }9 ^3 M1 P' ?8 Z4 [1 B. ]
Video3 s5 H8 h) f- n
ID : 14 G6 ]3 Y$ ~7 n+ b
ID in the original source medium : 4113 (0x1011)5 c+ R; v- {. A% q) o+ L
Format : AVC4 ~/ @+ `7 X! z* \
Format/Info : Advanced Video Codec1 n; V/ G+ y, A* v0 Y) }& h
Format profile : High@L4.1
% f6 y6 e/ `9 l8 oFormat settings : CABAC / 2 Ref Frames0 k! {( {0 D4 ~% R, d3 S
Format settings, CABAC : Yes
3 q$ E. y+ b: S# f3 sFormat settings, Reference frames : 2 frames
4 m" `+ H/ c/ Z8 b  RFormat settings, GOP : M=1, N=10, u! z( `+ l, ~$ U8 N/ K$ p1 z# W" e0 l
Codec ID : V_MPEG4/ISO/AVC
9 {& |) m7 |4 D# |Duration : 1 h 36 min
4 d4 r6 P# H3 W4 @Bit rate mode : Variable/ u- m& |# n) ?9 I+ b, |5 h
Bit rate : 27.9 Mb/s
; V6 d9 i. v8 F7 `Width : 1 920 pixels
+ f3 j7 s7 d7 M( D" JHeight : 1 080 pixels) w" _! s' a! t6 e3 T8 B9 ^
Display aspect ratio : 16:9
" d( F. x& v$ C- oFrame rate mode : Constant
" e( ^0 b- k  r) S9 Z: g: S+ CFrame rate : 23.976 (24000/1001/189150) FPS
3 f8 E1 w: E$ v4 tColor space : YUV( `8 R3 U# ?0 O
Chroma subsampling : 4:2:0
6 e* B2 A2 y3 }7 r7 KBit depth : 8 bits
4 f3 W2 `$ t9 w1 LScan type : Progressive
* c3 P; {" A3 \4 L$ O' {Bits/(Pixel*Frame) : 0.560/ n& r" m1 T5 m- R3 h
Stream size : 18.9 GiB (90%)
! i4 ?( |0 |4 z; q  z3 E. c( Z9 [9 uTitle : The.Father.2020.1080p.BluRayCD.REMUX.AVC.DTS-HD.MA.5.1-FGT+ ?9 z0 k0 h# I7 D
Language : English
6 J/ N! x5 s* `, {/ i! j( {Default : No
+ T! C% S& b& U8 M. QForced : No
' t( D5 c" ^# ~3 P6 s* gOriginal source medium : Blu-ray
" x5 @2 w& z% J- k" k, L+ W0 U3 }: d. O
Audio
8 n0 d# G+ c4 ~4 n1 CID : 2
8 y$ C4 ~+ O% c, f: R6 VID in the original source medium : 4352 (0x1100)6 H! H/ o% T/ C, A) x* Z" J
Format : DTS XLL
. _3 B% n+ }! R+ t1 u, GFormat/Info : Digital Theater Systems
1 u$ {4 a' I6 ]" pCommercial name : DTS-HD Master Audio
; l/ Z% v& ^, c1 f) j# MCodec ID : A_DTS
* C. `0 l2 X* {3 Z( @Duration : 1 h 36 min
& {  T% k: {2 D; w$ V9 BBit rate mode : Variable
) E5 v! p3 n4 H( TBit rate : 3 071 kb/s* S; m3 x7 e3 s7 y. w1 q
Channel(s) : 6 channels+ Z/ M4 k$ H  f+ z; l3 N& N
Channel layout : C L R Ls Rs LFE
( g  D( a% V8 s! K  b+ }Sampling rate : 48.0 kHz& \+ L# i& @9 V6 r9 s9 n
Frame rate : 93.750 FPS (512 SPF)8 d3 x" z" v/ f+ W
Bit depth : 24 bits
1 f7 E4 f7 s2 P6 L* U: b( E5 B' q' HCompression mode : Lossless  H! d! |8 d; V3 Q! }6 V4 Y
Stream size : 2.08 GiB (10%)
+ F/ n; r, r. S9 ?+ \* a& gTitle : The.Father.2020.1080p.BluRaycd.REMUX.AVC.DTS-HD.MA.5.1-FGT6 t5 g. C) t* ^0 s1 v
Language : English8 H" ?  Z; j' o! N( ?. e
Default : Yes0 A$ |4 E+ q; E# l( n+ Z
Forced : No; J3 K  {+ A/ h8 x$ F5 J; p8 M
Original source medium : Blu-ray/ }4 {& V6 r/ ?  U
. d- j1 k( W3 U% u
Text #1
& S$ u/ X: O. s; DID : 3/ t# \2 |. e$ m+ u. Y8 j7 A/ x: g
Format : UTF-8
: i4 M8 ~0 }3 ^Codec ID : S_TEXT/UTF8
3 z4 A4 d  P! V# F9 L: iCodec ID/Info : UTF-8 Plain Text7 p* u! p3 x& s; K3 m7 a
Duration : 1 h 30 min- M, j7 z+ u, r) V8 i7 M
Bit rate : 55 b/s
5 v0 x) ]% {6 I/ U# u( O# R  KCount of elements : 1266$ h2 `$ ?* [1 V; N2 B& }
Stream size : 36.9 KiB (0%)0 a! i3 }7 a! ?+ v5 L
Title : English-SRT/ ~4 F  c% a3 R$ q+ ]0 t+ H
Language : English% c" D: F  S3 K# [
Default : Yes
! c  `0 `) H' H5 ]; _& {Forced : No
# H$ @' _. W  f$ J2 y4 _
& u% i; f( y4 Y8 i2 ~, }Text #20 n6 B' Z  C; v
ID : 4, H% Y. G+ A! i
ID in the original source medium : 4608 (0x1200)
1 z) b1 M' j  x6 t, e" _  NFormat : PGS
4 S# D8 `4 W* D4 E) S$ tMuxing mode : zlib4 n* ]( _( g7 E/ c* q/ R/ i
Codec ID : S_HDMV/PGS0 V) g' I# R( n1 r9 e
Codec ID/Info : Picture based subtitle format used on BDs/HD-DVDs" K; H( g, k. e4 v
Duration : 1 h 32 min
& C* {9 e5 @5 e. g  T+ r8 u* uBit rate : 36.5 kb/s
" @: F& y2 j% W; q7 R$ ?' _3 u  SCount of elements : 2704. v( `4 S, u+ A* S$ D  ?9 M9 M- W
Stream size : 24.1 MiB (0%)
' D6 s. H3 y+ t7 ]3 L9 fTitle : English-PGS) c1 \! n: b2 e/ x& H; I
Language : English( h: Q5 Y. x8 f$ r# r/ @8 A
Default : No
  v/ U, ?8 \6 o3 ~Forced : No! a9 D& d& q" D" B$ O) r# U( a
Original source medium : Blu-ray6 j6 |- K4 m/ o# S6 U) V4 `
- ^; n+ h' }( l3 d, R- M' l
Text #3
+ |/ g7 J5 x% Y. j- i2 e( i% sID : 5
: R9 A5 n4 [6 L9 I7 eID in the original source medium : 4609 (0x1201)
9 s4 b3 V1 Y  q) z  g) ^Format : PGS
5 Q; n. A% i9 @; o" AMuxing mode : zlib
7 T& ?" X! ^( J- p. `+ OCodec ID : S_HDMV/PGS) r# U8 l. L% s" F
Codec ID/Info : Picture based subtitle format used on BDs/HD-DVDs7 A* V; T8 B  a6 A% D0 y
Duration : 1 h 29 min: _8 F  M% P& B4 B2 L
Bit rate : 33.9 kb/s
' `+ F  d( {1 I0 Y) _. RCount of elements : 24583 k" m9 ^: S" n
Stream size : 21.7 MiB (0%)% C1 ~- E1 e. |8 }7 G' ^$ {
Title : English-SDH-PGS* r0 d" N: ?1 w) H0 _! _
Language : English
% `" i/ d% e4 @3 rDefault : No
, m' d9 H3 a. C$ X8 ^# x4 \1 Y1 BForced : No
: W" ]( n# W2 k8 ~, wOriginal source medium : Blu-ray6 E4 I0 q& Y7 u5 [: m# ~' x

8 @; F! K0 h" v( oMenu9 W! V& t/ L0 t& a5 N: |
00:00:00.000 : Chapter 01
1 b% b- G+ r5 _* F, ?00:06:30.473 : Chapter 02( b; |' M& f: q2 n7 F* W5 ~  E
00:14:07.137 : Chapter 03
, z+ r. @3 F6 R6 Z8 ?00:25:32.280 : Chapter 041 O9 \3 L4 [; @8 n
00:35:09.982 : Chapter 053 i: e" K& q* Y8 }+ M
00:39:52.765 : Chapter 06: u! y0 {. `2 D! {5 R2 p9 U
00:45:57.546 : Chapter 07
4 b9 t, A& ]* t# z5 y7 b00:50:33.697 : Chapter 08
% B  D# S- W' O$ Z' Z5 U00:54:12.082 : Chapter 09: D; ^+ {5 z" ]' N& U
00:58:36.888 : Chapter 10# J: [" j. `2 |0 J* _/ l. u& G9 ]
01:02:19.652 : Chapter 116 q1 M  r/ X1 O: S9 _
01:07:21.203 : Chapter 12* z8 l- I$ {) Q% p, S
01:11:03.884 : Chapter 13: I* e9 W# J' W, v
01:13:52.136 : Chapter 14
4 c$ ~: D, N0 d0 a- B) L01:20:54.558 : Chapter 15
9 h$ o! Z  {7 I! |9 @4 ]$ P( ]" t01:22:24.022 : Chapter 16
/ q9 W# v* H% e7 |
游客,查看本帖隐藏内容请回复 | 加入VIP贵宾可免积分免回复 了解详情 | 还不是会员:点击获取邀请码 Invitation Code

0

主题

14

帖子

180

积分

Sponsor

金币
116 枚
体力
34 点
qiuleng 发表于 2021-5-18 16:20:25 | 显示全部楼层
kankankankankankankankan

0

主题

437

帖子

1869

积分

Sponsor

金币
20 枚
体力
673 点
bais69 发表于 2021-5-19 13:51:25 | 显示全部楼层
谢谢楼主分享!

0

主题

34

帖子

1万

积分

蓝光评委

金币
4614 枚
体力
6368 点
icatang 发表于 2021-5-22 16:35:11 | 显示全部楼层
谢谢楼主分享!
哈哈哈哈哈 ...

0

主题

36

帖子

281

积分

Sponsor

金币
137 枚
体力
56 点
lfvvzc 发表于 2021-5-22 17:25:26 | 显示全部楼层
啥也不说了,楼主就是给力!* q& o) h! y, F
After reading the posts have nothing to do I Amoy posts!
, c; X. g9 _* B* F

0

主题

13

帖子

280

积分

Sponsor

金币
158 枚
体力
86 点
ljy-123 发表于 2021-5-23 11:59:52 | 显示全部楼层
楼主发贴辛苦了,I*老*虎*U!$ B' D; F. O$ s8 \' C' \9 q
Your resources, well, I am very satisfied!
# G8 ^; t0 y9 @9 p9 i4 L

0

主题

27

帖子

175

积分

Sponsor

金币
78 枚
体力
39 点
sawas 发表于 2021-6-2 07:40:57 | 显示全部楼层
That's awesome

0

主题

39

帖子

202

积分

Sponsor

金币
50 枚
体力
64 点
zqy1718 发表于 3 天前 | 显示全部楼层
困在时间里的父亲 [REMUX无损版]

本版积分规则

小黑屋|Archiver|蓝光电影资源网

GMT+8, 2021-6-12 19:10

快速回复 返回顶部 返回列表