BluRayCD Forum

 找回密码
 立即注册【分享大片】
查看: 264|回复: 11
收起左侧

[蓝光原盘] 扎克·施奈德版正义联盟 [REMUX无损版 内嵌中字] Justice League Snyders Cut 2021 1080p BluRaycd REMUX AVC DTS-HD MA TrueHD Atmos 7.1-FGT 60.35GB

[复制链接]

8149

主题

8343

帖子

6万

积分

Forum Moderator

金币
11816 枚
体力
10534 点

卓越贡献勋章

24小时 发表于 2021-5-20 08:51:52 | 显示全部楼层 |阅读模式
Determined to ensure Superman's ultimate sacrifice was not in vain, Bruce Wayne aligns forces with Diana Prince with plans to recruit a team of metahumans to protect the world from an approaching threat of catastrophic proportions.
6 }' w1 f. D" W# m8 K& b) j/ j5 a+ O+ `. p. n6 }/ `
02.jpg   z8 B# ?! X8 s( k2 |! t3 ^6 N
" Z8 p2 _2 J6 I- m  b' N  u! ]
◎译  名 扎克·施奈德版正义联盟/查克·史奈德之正义联盟(台)/正义联盟 扎克·施奈德导演剪辑版/正义联盟:扎克·施耐德版/正义联盟导演剪辑版- x/ `5 D: D. C, v
◎片  名 Zack Snyder's Justice League / Justice League Snyder Cut) G  B* U5 {7 D1 u+ D
◎年  代 2021! {% L0 n! ]- o. t, Z) i: s6 `
◎产  地 美国
( F  Y% v) |! \+ N% b! }+ B◎类  别 动作/科幻/奇幻/冒险0 W* ?, F' B% D0 O6 ?; }" `3 f
◎语  言 英语9 u6 }9 @  Z' e0 N( W' X0 o
◎上映日期 2021-05-03(中国大陆网络)/2021-03-18(美国)2 F" n/ X! x2 D& Y- \0 _
◎IMDb评分  8.2/10 from 286,357 users! P; T; I: F& G1 @; C4 S
◎IMDb链接  https://www.imdb.com/title/tt12361974/
5 u+ R* C8 v0 t9 u1 o5 E◎豆瓣评分 8.3/10 from 188,258 users
9 S8 G; Y5 H6 i2 Q; A8 l4 t( t◎豆瓣链接 https://movie.douban.com/subject/35076714/5 `" Q# j0 v$ F" z6 _# j, d
◎文件格式 x264 + DTS + TrueHD
" V+ I! m0 v2 \8 u◎视频尺寸 1920 x 1080
- W: ]5 u% ~8 Z* z$ d◎文件大小 1DVD 60.35 GiB3 z" |9 R% b8 O0 }. T/ K
◎片  长 4 h 2 min7 R8 B* N, |. N6 h" L; Q: Q
◎导  演 扎克·施奈德 Zack Snyder
- y7 n& g+ z* H◎编  剧 扎克·施奈德 Zack Snyder 6 ], c* P; u0 [- C5 J) l
       克里斯·特里奥 Chris Terrio * }% Z( Q: w0 ^9 z# B" W' a6 M
       威尔·比尔 Will Beall 5 e* U; ~- _- {4 F8 q1 _
       杰里·西格尔 Jerry Siegel
" V% R4 p  o% t; ?4 }       乔·舒斯特 Joe Shuster
5 [/ f; B5 x! \; M9 r◎主  演 本·阿弗莱克 Ben Affleck
9 |9 O2 Y5 l8 i! f* w: T       亨利·卡维尔 Henry Cavill7 S$ I& i" [1 \7 m8 W
       盖尔·加朵 Gal Gadot3 G. O4 Y: @* }$ ^
       杰森·莫玛 Jason Momoa% D( M4 b: Q7 u
       埃兹拉·米勒 Ezra Miller3 _5 C6 u! A5 q% K" A! K
       雷·费舍尔 Ray Fisher
9 i% i# H, {& H+ b       艾米·亚当斯 Amy Adams1 r( P3 t- C- ?$ W) P! }
       威廉·达福 Willem Dafoe& i! {9 R3 Q; U. O
       杰西·艾森伯格 Jesse Eisenberg, `; u! c' W2 x: ~
       杰瑞米·艾恩斯 Jeremy Irons  j4 `% ]: _7 H* V' F
       戴安·琳恩 Diane Lane
: {: `+ y8 E4 ^( {! W: M       康妮·尼尔森 Connie Nielsen
) z4 [" z( Q4 v$ A. H       J·K·西蒙斯 J.K. Simmons
( x% X- Z4 X# ~7 D" o% Q       塞伦·希德 Ciarán Hinds
2 a) F: h( b' x) a& @0 w       郑恺 Kai Zheng
8 L4 K& h" A/ w       艾梅柏·希尔德 Amber Heard
. z" K# p0 q) I$ P' `& p% z       乔·莫顿 Joe Morton
; W0 \  u2 X& f) H       丽莎·洛文·孔斯利 Lisa Loven Kongsli) O: s0 @* I* T/ Q/ w
       大卫·休里斯 David Thewlis
! Y0 _: |# r) Y4 {) f* a! p& q( X       安·奥戈博莫 Ann Ogbomo: Y1 f  j6 \6 j& c' |# L
       奥古斯塔·艾娃·艾伦德斯杜提尔 ágústa Eva Erlendsdóttir
* s. Y0 V3 Y* ~" Z, l       克里斯特比约格·凯尔德 Kristbj?rg Kjeld+ z# ^" L! h1 d4 e# l- h) E& Y, W+ k# o
       英格瓦·埃盖特·西古德松 Ingvar Eggert Siguresson% \4 U2 J1 d/ R7 f' |2 D7 U! K) i
       马克·麦克卢尔 Marc McClure
! c0 L' D# ?7 |$ r       迈克尔·麦克埃尔哈顿 Michael McElhatton3 P7 V6 b" t8 P. W. w
       约翰·达格尔什 John Dagleish
, O, l" y! _$ p. e! L2 \       拉腊·德坎罗 Lara Decaro* |3 k$ s& B$ t9 ?
       罗比·基 Robbie Gee
+ i4 ]7 e) B$ S/ R2 @       吉姆·斯图格恩 Jim Sturgeon
0 k: E8 x/ E! {5 B       杜晨·科洛斯 Doutzen Kroes
* A& g* G! e. }- b$ @! }       埃莉诺·松浦 Eleanor Matsuura* }5 B0 X, \9 h/ n$ n  }
       萨曼塔·若 Samantha Jo
6 f/ X6 h$ V7 E- ?) _" [* S       布鲁克恩斯 Brooke Ence; K$ E8 o% j3 S6 q' k5 u" k( l
       杰罗姆·普拉顿 Jér?me Pradon, H1 c8 U- P# L+ ]4 ~, t* b
       理查德·克里弗特 Richard Clifford
9 z" D! l9 I7 f: C* X/ L2 b       文森特·里奥特 Vincent Riotta
. |2 ?& {& `, h; \/ K: A; `       马克·阿诺德 Mark Arnold
) r2 O9 |9 e# ~0 v  A6 n7 _: m       彼得·吉尼斯 Peter Guinness
2 n1 C% J8 p: N       赛吉·康斯坦斯 Sergi Constance1 g: }! a6 g" L7 I1 J3 K
       奥萝尔·劳泽瑞尔 Aurore Lauzeral
* p5 }$ g8 Z4 L' T2 q       朱利安·刘易斯·琼斯 Julian Lewis Jones- r0 F( |: O2 E- O
       雷·波特 Ray Porter
' d# r# N1 X' j# p       弗朗西斯·麦基 Francis Magee
4 m0 w/ Q' V( v7 ^; |       科雷西·克莱门斯 Kiersey Clemons
8 |6 K" }% C7 I5 C2 f/ c: P       露西·布莱尔斯 Lucy Briers9 A7 V6 k& O4 G' y* g, g0 ?
       威尔·柯班 Wil Coban
& ?, _* D7 z- ~9 I, ]       凯伦·布莱森 Karen Bryson
* d8 `$ N9 k4 i$ y       克里斯蒂·梅尔 Christy Meyer
% o7 Y: Y$ e+ k3 K       吉安皮罗·科格诺利 Gianpiero Cognoli, A0 ~7 W: F  j& I
       寇布勒·霍尔德布鲁克-史密斯 Kobna Holdbrook-Smith& s' e. C* x8 S5 z- B3 T" ?) p
       凯文·马图林 Kevin Mathurin
! Y( x8 V7 L$ E2 f5 [       泰勒·詹姆斯 Taylor James
/ u7 v2 q! s2 @0 P* I       布鲁斯·钟 Bruce Chong
; @1 J5 b6 {8 Y0 V8 M0 y       奥赖恩·李 Orion Lee  {7 ?1 Q# e) p7 p, o2 w
       奥利弗·加茨 Oliver Gatz
6 R2 e( G: J: J7 ~8 n& L3 N( O: Z       凯莉·波尔克 Kelly Burke
* ]. x# J+ |- F) N       奥利弗·鲍威尔 Oliver Powell) I% T( t0 r' B
       哈里·伦尼克斯 Harry Lennix2 Z: E$ E0 C3 C+ A- V6 }. T
       欧米·罗斯 Omri Rose# v$ p3 F, h3 X
       萨姆·本杰明 Sam Benjamin
- ]8 o5 a' [' a( V: Q/ |, T       卡拉·古奇诺 Carla Gugino) w  y; v1 @( [/ N" N" c
       罗素·克劳 Russell Crowe
& s% h+ J# c' [. M       扎克·施奈德 Zack Snyder
) l1 S8 Z5 L# X       杰瑞德·莱托 Jared Leto; t' {' W2 {! @' ^
       罗宾·怀特 Robin Wright3 ]- }: W' x/ A7 I) ?$ _
       比利·克鲁德普 Billy Crudup' f0 C& H6 |6 q, y6 u, n: }9 i& k
       乔·曼根尼罗 Joe Manganiello
0 ?5 X( D2 V/ @       斯沃里·拉格纳内 Swaylee Loughnane
; z  ^6 F0 C8 p% l, L       安德鲁·G·奥格尔比 Andrew G. Ogleby" B* l0 S: C4 A) P
       山姆·威克斯 Sam Weeks
6 Z% u6 L5 s) l3 Q* q% j8 X  U+ B5 Q1 g2 p2 K0 h
◎标  签 DC | 正义联盟 | 扎克施奈德 | 导演剪辑版 | 科幻 | 2021 | 漫画改编 | 美国
) ^2 K2 e. V* @1 U, j( ~! T+ r# L5 J. d2 q* F
◎简  介    8 }6 P3 N) I5 ]

2 p! j3 n% c7 V; d& r; A) @  布鲁斯·韦恩(本·阿弗莱克饰)为了确保不让超人(亨利·卡维尔饰)白白牺牲,他决定与戴安娜·普林斯(盖尔·加朵饰)联手并计划招募一支超能力者团队来保护世界免遭即将到来的灾难性威胁。但这项任务比布鲁斯想象中要困难,因为每位成员都必须面对并跨越自己过去的心魔,团结起来,最终形成一个前所未有的英雄联盟。 蝙蝠侠、神奇女侠、海王(杰森·莫玛饰)、钢骨(雷·费舍饰)、闪电侠(埃兹拉·米勒饰)现在必须联合起来,否则就无法阻止荒原狼(塞伦·希德饰)、狄萨德(彼得·吉尼斯饰)以及达克赛德(雷·波特饰)毁灭地球的可怕计划。4 f3 w  M7 o9 S/ }; t6 B& Y7 e
( w3 H* r! G/ w4 f+ ]2 ^; F
  Determined to ensure Superman's ultimate sacrifice was not in vain, Bruce Wayne aligns forces with Diana Prince with plans to recruit a team of metahumans to protect the world from an approaching threat of catastrophic proportions. The task proves more difficult than Bruce imagined, as each of the recruits must face the demons of their own pasts to transcend that which has held them back, allowing them to come together, finally forming an unprecedented league of heroes. Now united, Batman, Wonder Woman, Aquaman, Cyborg and The Flash may be too late to save the planet from Steppenwolf, DeSaad and Darkseid and their dreadful intentions.: H4 X0 S6 Q4 T* E
Video* n6 L, `8 s, y
ID : 1
9 _% Y  u/ y8 t* h7 J+ W0 q9 hFormat : AVC
, S$ y# A" m- ?5 _5 \9 j! NFormat/Info : Advanced Video Codec
2 ^; Q( s$ j: J: Y+ k0 g: SFormat profile : High@L4.1
4 ^; Y4 C1 u' g  k7 _5 z- HFormat settings : CABAC / 2 Ref Frames$ b$ Z( L) X3 P' i& y/ S. ^
Format settings, CABAC : Yes
) S9 B2 I" U; B/ Y/ SFormat settings, Reference frames : 2 frames( k$ H+ p6 V  A2 B" ^
Codec ID : V_MPEG4/ISO/AVC- x4 X# b: d! p, V" g+ V# Y7 B
Duration : 4 h 2 min
/ S7 I2 \1 ^% L7 k4 p) ]8 LBit rate mode : Variable) g% P& o1 l5 K
Bit rate : 22.6 Mb/s
3 X6 |. ^) M# ?3 s2 NWidth : 1 920 pixels
2 p7 m. i: O3 |& S: l. H# m' qHeight : 1 080 pixels
8 |6 |8 O, W4 a+ K# G$ ~! E. dDisplay aspect ratio : 16:9
/ y! X* J) J( CFrame rate mode : Constant
' F4 p7 h. {2 k  z. Z  WFrame rate : 23.976 (24000/1001/189150) FPS8 Z! g! B$ M* Y
Color space : YUV. b: `1 Q# q& R* k; l
Chroma subsampling : 4:2:0
) |& @& N* s+ k$ U' ZBit depth : 8 bits
. q# z$ P, D7 s4 J* aScan type : Progressive( G- m' n" e- o4 R; r  @/ i" n
Bits/(Pixel*Frame) : 0.455
) f& |" i/ l; ^) U+ |2 c. y1 k9 Y$ KStream size : 38.3 GiB (63%)' Y7 z8 W! Z5 [2 t/ K
Title : Justice.League.Snyders.Cut.2021.1080p.BluRayCD.REMUX.AVC.DTS-HD.MA.TrueHD.Atmos.7.1-FGT% G0 w1 b. v  [8 ]9 S% p; i
Language : English
* ~5 U0 \' C; ^5 K. \$ ?8 s9 MDefault : No
  C- X) v6 c* p% C/ [! |Forced : No" O- e' q; A, g' Z6 |. O
9 f/ b" o: j' e2 n! Z
Audio #1: g* @( ?2 d; G
ID : 2
' X. T3 m1 }# p2 E  J1 g, ?, hFormat : MLP FBA 16-ch
% |+ d# }! j- r" xFormat/Info : Meridian Lossless Packing FBA with 16-channel presentation
* `, d" t/ D0 ACommercial name : Dolby TrueHD with Dolby Atmos
1 S" v3 @0 [# zCodec ID : A_TRUEHD5 f4 |* |1 o* h) g* _& h# E
Duration : 4 h 2 min
" P! h: V7 h9 M" TBit rate mode : Variable' w% c3 \7 f2 {% W8 g5 {. s
Bit rate : 3 157 kb/s
1 |% _3 x" O4 Y( T+ R; y6 _5 {) ~Maximum bit rate : 4 773 kb/s5 N) N' m8 r8 Y4 o
Channel(s) : 8 channels
+ e2 h. o; V$ OChannel layout : L R C LFE Ls Rs Lb Rb
& X+ Q' x- N' H5 u9 pSampling rate : 48.0 kHz
" G2 {6 Q6 _" Z7 f7 y* b8 xFrame rate : 1 200.000 FPS (40 SPF)0 x4 U3 n" e5 @- I* O, t
Bit depth : 24 bits. `  ?& \- B" t4 e5 n( m! @: A9 V
Compression mode : Lossless* r0 l  z, r$ M0 E
Stream size : 5.34 GiB (9%)
  k6 S. `! H& F; _/ jTitle : Justice.League.Snyders.Cut.2021.1080p.BluRaycd.REMUX.AVC.DTS-HD.MA.TrueHD.Atmos.7.1-FGT- n  ~# B- ~" h$ r) I/ |
Language : English
' C3 F2 M2 o6 A& Y& c) {) I" F' X2 HDefault : Yes
& r5 F3 e8 `1 |& mForced : No) M- G/ |$ n* q" ?* m( O! k# O! Z3 b9 F
Number of dynamic objects : 11. W& [% T2 i, ]* `
Bed channel count : 1 channel
, M$ ~1 P  P' D0 IBed channel configuration : LFE3 M- s6 O: j0 _

- f& F  R5 ~3 F$ @$ IAudio #2
3 Y+ ~$ W2 s# tID : 3. K, ^. d+ ?, p, u: |
Format : DTS XLL- n2 ?# g4 o& g: ~9 U/ E
Format/Info : Digital Theater Systems- C7 A3 `8 u( G5 P
Commercial name : DTS-HD Master Audio
8 E  u, ]8 ?  a( PCodec ID : A_DTS/ A  x+ b' n: {7 b9 D* K
Duration : 4 h 2 min- T, d! G2 H% ~- ]
Bit rate mode : Variable" d8 F2 A4 Y" F1 D# g8 Y- V
Bit rate : 3 887 kb/s
" _5 M3 i' K9 [0 xChannel(s) : 8 channels$ X( [# O+ L0 G& N. P+ Z
Channel layout : C L R LFE Lb Rb Lss Rss. F5 `# f. t9 |4 [4 a
Sampling rate : 48.0 kHz) a/ l$ t/ E1 h; z" B$ h4 T0 ]
Frame rate : 93.750 FPS (512 SPF)
0 P4 s" ^, b2 O2 u0 KBit depth : 24 bits% V5 C  e1 `* q5 W" [- E; C8 @9 ~
Compression mode : Lossless- R( ]9 w* S1 w* u. a
Stream size : 6.58 GiB (11%)
: I- D+ t' m1 ^( RTitle : Justice.League.Snyders.Cut.2021.1080p.BluRaycd.REMUX.AVC.DTS-HD.MA.TrueHD.Atmos.7.1-FGT
1 p( J1 T" Y% v/ RLanguage : English2 x8 v; s0 U+ S  T- `% s% g$ e0 t
Default : No
7 }4 C8 A+ ?$ [6 ~9 B3 [. v9 gForced : No
- y& _( D& h2 f. f; y; X# ~& `% P" S6 c5 _" l. x! d
Audio #32 s( l; Y+ w/ c4 A; ^' x" {
ID : 41 E6 `! x9 _  Z  J
Format : AC-3
; U. `' ?% ~7 J& Q/ AFormat/Info : Audio Coding 32 e/ Q6 |7 y5 T0 |) T
Commercial name : Dolby Digital
4 G7 M4 e( c4 c$ w. @' YFormat settings : Dolby Surround EX4 y& @8 N. Y, A
Codec ID : A_AC3
/ U7 ?, w" u' p$ t/ NDuration : 4 h 2 min# J8 g) N& u, M
Bit rate mode : Constant1 Y8 D9 p& G+ {5 h1 _) A$ i! E% o  a9 ~
Bit rate : 448 kb/s
' c; H* o$ w) _1 sChannel(s) : 6 channels! ^  P0 Y7 ~/ o, T  U+ _
Channel layout : L R C LFE Ls Rs
/ w/ W0 r3 p& R. J. }Sampling rate : 48.0 kHz* I9 d0 b# a3 ]% `/ T
Frame rate : 31.250 FPS (1536 SPF)2 e8 K, w6 M/ |1 d* P7 M( J
Compression mode : Lossy. n0 k% {& D, P) C
Stream size : 776 MiB (1%)" j( M. ?8 h. f4 X0 H3 \' B# f8 w! }
Title : Justice.League.Snyders.Cut.2021.1080p.BluRaycd.REMUX.AVC.DTS-HD.MA.TrueHD.Atmos.7.1-FGT
( f. X' O9 E5 q* I: h+ D9 JLanguage : English& ^  D) K+ }. t# O8 v7 f0 M
Service kind : Complete Main$ Q! h0 p" \, v; e% c, h  x% p
Default : No
0 q0 d. }( E! X1 q' CForced : No6 z9 \4 Z6 l1 K% }3 R

- J. H4 C2 j3 }- Z) Y2 X6 hAudio #4
" J; g- G2 _  V! GID : 5
; e, l! C) F+ @Format : AC-3
+ N+ |* K& D6 {' k; rFormat/Info : Audio Coding 3
( A& ]# a! U2 [Commercial name : Dolby Digital
: Y5 T7 n3 E' k1 M; fCodec ID : A_AC3
+ w% f! z: e8 ]( d3 `2 fDuration : 4 h 2 min0 B7 A7 m: i3 }& p# q$ W: k/ p5 I7 t
Bit rate mode : Constant
& ^5 ]) V* Z0 u8 k, @, ~! x9 V6 Q  lBit rate : 448 kb/s9 ?4 [, W, H' x1 l; }/ k, r& l4 y( A: j
Channel(s) : 6 channels
4 R% w8 s  W) E, }Channel layout : L R C LFE Ls Rs- o1 n+ l! ]" [. I1 V
Sampling rate : 48.0 kHz
6 t" N) F5 I/ u) {& FFrame rate : 31.250 FPS (1536 SPF)
/ G7 g, x4 V  D) {: jCompression mode : Lossy6 K4 y. E! x& T. Z# C( Y9 t
Stream size : 776 MiB (1%)" K+ w1 ?1 e1 I1 e
Title : Justice.League.Snyders.Cut.2021.1080p.BluRaycd.REMUX.AVC.DTS-HD.MA.TrueHD.Atmos.7.1-FGT5 \" H7 h$ E' x1 s
Language : English# o$ T8 Y0 B0 l& K  L7 Y
Service kind : Complete Main0 M: _% `% |4 b: L$ x- ^6 y
Default : No
. c' T$ {- ?  h& nForced : No( @( b5 a4 o  m2 S6 f4 }9 Q0 F

* i) v9 q4 _" {Audio #5
+ \" k8 z2 ]. UID : 6
. a: w: ?5 w+ B3 T  w3 P& J. hFormat : AC-3- I+ M2 |0 e& B$ l% Q, u& p
Format/Info : Audio Coding 3
4 j6 U3 O) B9 q3 Y8 j+ E5 VCommercial name : Dolby Digital
, P; o% P5 P5 O. v0 w  b8 R. uCodec ID : A_AC3
2 L% B& q$ `5 t8 O- I$ z! HDuration : 4 h 2 min
4 g9 b3 @. q6 ~" W- C/ c9 y5 EBit rate mode : Constant
$ `( W- M& w0 ^. v2 `Bit rate : 448 kb/s- K# J1 g* f% }8 Y7 Z1 q: p
Channel(s) : 6 channels" H5 c8 k: {: A: e1 ^& g4 O8 ?
Channel layout : L R C LFE Ls Rs* B8 T; N# m7 T$ y  d
Sampling rate : 48.0 kHz
! t4 f9 _  C5 N6 {0 |. w* PFrame rate : 31.250 FPS (1536 SPF)
/ p% M2 H& F! HCompression mode : Lossy
* N( i+ n& y% D8 `) R8 tStream size : 776 MiB (1%)
$ G4 l! K7 r" D% e+ @1 ^* v8 jTitle : Justice.League.Snyders.Cut.2021.1080p.BluRaycd.REMUX.AVC.DTS-HD.MA.TrueHD.Atmos.7.1-FGT
3 M7 O6 @9 h' [- r4 ?) {Language : English
% R  N' I! }1 z: l; lService kind : Complete Main/ g5 {. b4 i! _
Default : No
/ R8 g- O% Q- I4 n2 rForced : No8 f) l; }' @" R3 I! ~: a
3 A9 p: M$ c# a/ ?7 V7 c
Audio #6
6 v( g: r) l/ r! k6 j/ F! V7 iID : 7
5 V, @/ S% a; Y5 E1 k; O5 B1 \+ uFormat : AC-3/ X6 |% c% `* k# a4 C, N+ S+ y
Format/Info : Audio Coding 3$ y( [. D5 S+ o; u
Commercial name : Dolby Digital  B; Q6 S" Q: E0 ]% v
Codec ID : A_AC3
( B! z8 |* O. `* D1 K5 i. yDuration : 4 h 2 min& n1 L/ s' l1 W- |3 _7 Z! h
Bit rate mode : Constant% i3 _1 J0 ], U( h* z
Bit rate : 448 kb/s
) L" F: s4 j6 p/ s# \Channel(s) : 6 channels3 }. F: k# t# ]4 Z+ o' ~* ?8 a
Channel layout : L R C LFE Ls Rs
/ H' h+ a6 q) Q  g  }4 W; ^Sampling rate : 48.0 kHz: Z; q/ J6 \9 b7 c, X4 X
Frame rate : 31.250 FPS (1536 SPF)
% Y* [' m' b+ Z" m8 ICompression mode : Lossy6 a6 s7 L4 Z* z; A( D- f
Stream size : 776 MiB (1%)
: ]1 b9 D3 T% [( J0 bTitle : Justice.League.Snyders.Cut.2021.1080p.BluRaycd.REMUX.AVC.DTS-HD.MA.TrueHD.Atmos.7.1-FGT& t8 f7 u; a& M; m
Language : French) |" \. t( g- H; x9 }
Service kind : Complete Main
$ A/ ?  q6 M' xDefault : No' z) h. H) l- l9 h
Forced : No
  S. O4 @( V3 \1 T6 e, ~# |( J! G" k* i; t2 T' c5 y( g
Audio #7: `6 J0 M7 p* U! V
ID : 8
* g. o, e. @) h4 G1 k' g9 KFormat : AC-3
6 S( c9 |# _+ [: N1 m! Y. b" mFormat/Info : Audio Coding 3$ n1 M/ K0 h( s
Commercial name : Dolby Digital
! u" T5 {' s5 }& p6 TCodec ID : A_AC3& g) ~6 x5 N) L% I: |% L
Duration : 4 h 2 min% l9 |* l* @6 O& n- V
Bit rate mode : Constant- o4 w; u2 A9 R
Bit rate : 448 kb/s. x# ~( {* B# d% G9 h$ ]$ n
Channel(s) : 6 channels$ f  n7 b  s2 Q
Channel layout : L R C LFE Ls Rs
) H! n  |1 i5 A7 r9 Y2 ISampling rate : 48.0 kHz- u  O5 D& \( f  k
Frame rate : 31.250 FPS (1536 SPF)
, Z% i5 c8 e8 sCompression mode : Lossy4 ~0 a% q4 D7 p
Stream size : 776 MiB (1%): R4 g. T* \7 L' |5 J
Title : Justice.League.Snyders.Cut.2021.1080p.BluRaycd.REMUX.AVC.DTS-HD.MA.TrueHD.Atmos.7.1-FGT4 D9 }+ X# O7 d- B8 ?6 c
Language : Italian
; \- Q" ~6 y5 r9 [" VService kind : Complete Main
0 P# d7 G2 ~/ U, b' {Default : No8 b0 E4 h) t: Q9 e# Y% @
Forced : No
4 J' _5 U( y% s; v. o" z
7 O8 j8 _" I) Z7 q9 `2 ]Audio #8
# b8 a. j  x+ m/ G/ |% UID : 9# N) ~: J" m/ M  n& ?3 Y0 V+ a5 _
Format : AC-3; x, g' k- Y1 l' {" Z
Format/Info : Audio Coding 3* ?1 X% k  s3 B+ O7 i- F  X# ?
Commercial name : Dolby Digital( o4 ^1 d0 }* h) I" r$ J9 O, W
Codec ID : A_AC3
  _' d" T. n, D0 [. H) }Duration : 4 h 2 min
% d! e' ?  y6 T3 E2 k1 H1 PBit rate mode : Constant4 ?. N" P! @& y" j
Bit rate : 448 kb/s' S  D; J7 h" @3 [% q
Channel(s) : 6 channels
, M, \5 x+ P# |3 }: CChannel layout : L R C LFE Ls Rs9 Y3 M* }: s% f
Sampling rate : 48.0 kHz: z& y: N* o  J# _1 Z7 x
Frame rate : 31.250 FPS (1536 SPF)
* p' e# p1 b" h3 J& tCompression mode : Lossy& C  f, d5 R- z; C! b0 s
Stream size : 776 MiB (1%)3 y, A6 O& b8 X- _# @7 [
Title : Justice.League.Snyders.Cut.2021.1080p.BluRaycd.REMUX.AVC.DTS-HD.MA.TrueHD.Atmos.7.1-FGT
; m. c+ D+ M" j/ BLanguage : Spanish
* d! i; ?$ I! T) ~* `8 vService kind : Complete Main, b0 P+ }5 d: o* _5 _8 ]
Default : No$ m* w; o9 X5 \  Q9 k
Forced : No
$ o6 j8 K+ B5 g+ H  V# x
4 [& [9 W7 C% t8 c& PAudio #9
& O/ p" J7 B5 F4 hID : 10
3 S& G! f" o2 q* m, O: @$ dFormat : AC-3
' l/ n. T; s: `' Z  G1 H+ d$ @- r3 HFormat/Info : Audio Coding 30 g* A3 R' [& b  q6 X. O7 c9 C; l6 S
Commercial name : Dolby Digital
9 M! k8 z9 q+ x" r7 H- mCodec ID : A_AC3
2 o" \" n4 Q. b, f& ]5 M5 iDuration : 4 h 2 min
8 {# v$ K3 ]( V. hBit rate mode : Constant# v7 V. r5 A& Q" B0 x. y& r" Z
Bit rate : 448 kb/s8 n! }) [# J; W) l+ M" _
Channel(s) : 6 channels/ z; a+ z6 T5 l5 }. x
Channel layout : L R C LFE Ls Rs2 w/ l' u- U2 k3 d4 f6 j
Sampling rate : 48.0 kHz
% y, A8 Q) a+ j& O$ C0 `8 b1 BFrame rate : 31.250 FPS (1536 SPF)
4 ~' g% G' n# }* u" P5 DCompression mode : Lossy
" I6 l7 N8 D1 f) {% ~Stream size : 776 MiB (1%)1 ?& Y) v$ U& e, \& r
Title : Justice.League.Snyders.Cut.2021.1080p.BluRaycd.REMUX.AVC.DTS-HD.MA.TrueHD.Atmos.7.1-FGT$ N- F: D- V2 d/ [
Language : Spanish2 `) ^+ c2 V( G! R4 |
Service kind : Complete Main
% y( y: w. j3 S, ?. F3 H7 bDefault : No
) l' A7 |$ N4 @  n0 TForced : No
) a. v% T# v  L6 J. o1 g. c" X$ h' ^: \$ G
Audio #10" z9 b- }& c7 U2 U/ h. e. {6 G) f5 f
ID : 11
! `1 ^* z4 ?( `Format : AC-31 Z5 ~' ~0 r% @: z7 j
Format/Info : Audio Coding 3* `7 y* T, u  c3 K
Commercial name : Dolby Digital
) S( O& o6 [6 v0 ]( R' v  a* X; g9 h" rCodec ID : A_AC3' C9 ^  p5 Y% r+ R, ?
Duration : 4 h 2 min; r  I% E* A1 v9 J5 J
Bit rate mode : Constant8 @. z+ x0 P2 i& ?9 U
Bit rate : 448 kb/s
& T  ], z% _" Q" T# _4 S. T8 rChannel(s) : 6 channels
$ I* M) o6 q; ZChannel layout : L R C LFE Ls Rs7 l3 w3 F& P0 c  L" j( S
Sampling rate : 48.0 kHz
. C! f2 X4 p/ R) DFrame rate : 31.250 FPS (1536 SPF)# F  F  O; |2 c2 `' [
Compression mode : Lossy
% Q; A1 h* @1 B' ], KStream size : 776 MiB (1%)
  d* \, S4 }! H6 {  m5 m% CTitle : Justice.League.Snyders.Cut.2021.1080p.BluRaycd.REMUX.AVC.DTS-HD.MA.TrueHD.Atmos.7.1-FGT1 ?$ U0 c7 m* L$ w5 ^" \
Language : Portuguese
3 R6 p& _  q. a. x" WService kind : Complete Main; s/ s$ `$ z0 |! t$ r& X6 h
Default : No
2 V' ^. w. X) F2 H) b& BForced : No) \1 l9 K4 S) l/ v5 V  n
  S! I7 l) E: y! I. z3 T# b0 B4 O/ o
Audio #11- F: m' K" h& v6 W/ n- J7 p$ H$ _/ r
ID : 12% L+ y+ S$ |) ]+ x
Format : AC-3& L- B1 }/ b4 i: F1 H# i
Format/Info : Audio Coding 3
8 j4 i' b9 |. H5 X5 ], GCommercial name : Dolby Digital
0 v' D' T) X$ GCodec ID : A_AC3' S. U" t& Y3 s4 c
Duration : 4 h 2 min
8 L8 X& w5 {; X* v3 A1 |* xBit rate mode : Constant: |) I: Z- ^. H3 g4 _- R) N
Bit rate : 448 kb/s$ j' h  }8 M3 ~1 S  Q
Channel(s) : 6 channels) ~2 v- X" u: a+ s6 @, G
Channel layout : L R C LFE Ls Rs* N4 k0 Q; ~7 B
Sampling rate : 48.0 kHz8 F1 v1 d8 Y: _  Y. X
Frame rate : 31.250 FPS (1536 SPF)
3 Q% l9 c8 E# ^& i9 i0 t/ yCompression mode : Lossy1 @2 i+ j' p( n/ `9 a1 G9 p
Stream size : 776 MiB (1%)
6 U! x1 f& X. TTitle : Justice.League.Snyders.Cut.2021.1080p.BluRaycd.REMUX.AVC.DTS-HD.MA.TrueHD.Atmos.7.1-FGT7 ^6 Z7 O4 D  K
Language : Czech
8 w' ~, @! T/ @5 VService kind : Complete Main# k- i* T& Y2 b, J& Q% M; H
Default : No2 q: {& m3 v; e4 s- _9 ?
Forced : No
5 j& v) c& R& x" T5 g2 |; _2 x$ _- T; y" k7 k) b! C* _" J: k
Audio #12
( c! [. s( J9 i8 p& ]: T1 YID : 136 R! l& {" h; O6 l6 a
Format : AC-3) f5 N$ \0 [, S+ I- s/ V& V0 [
Format/Info : Audio Coding 3  X4 a) l& g; s9 A& }. i
Commercial name : Dolby Digital
6 w5 x( A' Q: X$ r' {# SCodec ID : A_AC3
- [+ c( O* [4 {! Z/ ?) U7 xDuration : 4 h 2 min
/ s& g4 O" j7 t7 CBit rate mode : Constant6 |7 i/ C4 T# P  K8 a# u( Q$ G
Bit rate : 448 kb/s
  ~; V7 |6 R2 K; rChannel(s) : 6 channels  S7 ?0 q1 e; K
Channel layout : L R C LFE Ls Rs
3 ~# q- R% Y' z: j/ C$ nSampling rate : 48.0 kHz
: ~! L' {) F" W3 AFrame rate : 31.250 FPS (1536 SPF)
* v( V) f& F( a- }& S" x2 gCompression mode : Lossy/ E' ~, P" d6 l- i2 E( q! V9 ]
Stream size : 776 MiB (1%)
; b8 X1 Z6 i/ dTitle : Justice.League.Snyders.Cut.2021.1080p.BluRaycd.REMUX.AVC.DTS-HD.MA.TrueHD.Atmos.7.1-FGT3 ~3 e- p7 p3 ?3 U
Language : Polish( n  H1 j3 m; p5 ]- j' G
Service kind : Complete Main
" G$ o9 K9 _, z; l- f+ kDefault : No( m6 F# ~6 K9 X8 i/ v
Forced : No& M0 ~/ L6 |" {4 w4 K6 ?
" u) |( S% d3 f8 u& V
Audio #13- Q+ V3 _* J  `1 r; _6 O' e
ID : 14
& Q4 I8 }8 n# QFormat : AC-3
. O' D8 e  v0 D5 A6 Z. o) d+ YFormat/Info : Audio Coding 3
! M$ u: A, {- ICommercial name : Dolby Digital. S0 e: P2 C; P4 t
Codec ID : A_AC3* t% K& K! ^5 J9 e5 Q" L# E
Duration : 4 h 2 min
+ x/ V$ Q: s1 b( HBit rate mode : Constant3 P6 X; \) O: i7 r
Bit rate : 448 kb/s! `' j2 |7 t! k9 u  R9 _# I4 e
Channel(s) : 6 channels, ^4 ^9 N. \* H2 H9 j& @" A1 H" S
Channel layout : L R C LFE Ls Rs
- _1 {3 l: I7 N) p4 y+ |Sampling rate : 48.0 kHz* T/ u5 L  U  G5 z1 Y
Frame rate : 31.250 FPS (1536 SPF)9 b4 }, f  C, q1 s
Compression mode : Lossy
6 t. K. p7 v& F: i! e2 UStream size : 776 MiB (1%)
3 ]' y# v8 L1 Y! Y9 TTitle : Justice.League.Snyders.Cut.2021.1080p.BluRaycd.REMUX.AVC.DTS-HD.MA.TrueHD.Atmos.7.1-FGT! R. N  Z/ |; S1 ^1 I
Language : Polish# D8 u  `6 [8 F
Service kind : Complete Main- Y; M$ R6 F1 @! S; e; ]. R' {
Default : No
1 t2 g% g, i  b8 v) J6 C. T/ yForced : No9 U* F) I$ p3 C6 M! V* c

1 L/ }1 f8 D/ \2 l" zAudio #14! ]6 {6 [& Z! E( c
ID : 15
! K3 K/ R/ R1 W. V6 K) m* ~Format : AC-31 m% R. B) L) `* h& t3 L
Format/Info : Audio Coding 3$ k- l; c5 e2 O' M
Commercial name : Dolby Digital
/ j  t1 N- S" g" ~; \. ZCodec ID : A_AC3- U4 A( K! u" |' |$ U) y+ a
Duration : 4 h 2 min0 ]/ H0 i5 m8 k- W
Bit rate mode : Constant9 E9 F+ X" o6 G) H! g5 V6 T
Bit rate : 448 kb/s
( s1 B0 b$ O2 y" [; y% W8 m3 EChannel(s) : 6 channels
: @" s- k; ]; AChannel layout : L R C LFE Ls Rs$ {+ u' Z4 H7 G7 s4 a( q
Sampling rate : 48.0 kHz7 M9 z0 u- Y) A: v
Frame rate : 31.250 FPS (1536 SPF)  b3 H2 e! a: l' n
Compression mode : Lossy8 B" M$ _! z6 {, w4 F& ]
Stream size : 776 MiB (1%)( A6 Q5 y0 D2 W
Title : Justice.League.Snyders.Cut.2021.1080p.BluRaycd.REMUX.AVC.DTS-HD.MA.TrueHD.Atmos.7.1-FGT; Q* D7 T7 {3 r- T
Language : Slovak
6 w3 C' a& X6 J3 IService kind : Complete Main
) v. T* w: L5 U, E/ u) J8 M1 `Default : No
: @. a% \! s( u, LForced : No0 d" ?8 z, X' D+ C: c
- T) I6 b& V; j  d; Q; x
Audio #15
5 ~, K6 `% q. EID : 16# r: Z) P3 Y& P; z% U3 h6 n# ~
Format : AC-3
7 T0 b& h; `5 IFormat/Info : Audio Coding 3
$ |& G( Y( \3 m! O1 HCommercial name : Dolby Digital# m' u) N* E( x% s7 f  u
Codec ID : A_AC3( T0 E7 ]9 `- c( v* y) p# i! A
Duration : 4 h 2 min" X" O; D9 M! j4 I
Bit rate mode : Constant. H- g1 A+ B: F2 X$ n- }3 O
Bit rate : 448 kb/s7 U+ X" J. z. S( |& S
Channel(s) : 6 channels$ m0 z9 f1 `; D
Channel layout : L R C LFE Ls Rs
$ d; N2 w6 d6 e' OSampling rate : 48.0 kHz5 R1 H5 m2 b; }5 C& y" w: A; f
Frame rate : 31.250 FPS (1536 SPF)% c; T) W8 n! g6 I
Compression mode : Lossy
4 k* P8 a$ t2 V1 a% d/ pStream size : 776 MiB (1%)- \  r  J8 ^" x- ~" h' Q
Title : Justice.League.Snyders.Cut.2021.1080p.BluRaycd.REMUX.AVC.DTS-HD.MA.TrueHD.Atmos.7.1-FGT
7 A! n$ ~4 w# J" J# `! u( g0 VLanguage : Japanese
+ t. r% L6 W6 W2 S. K1 _: ?0 F; uService kind : Complete Main$ H7 W, C! K+ Q# y& `  K9 e
Default : No
' C# L. Q# t0 c! n+ L* l3 n4 x/ MForced : No% D+ c& _/ c5 \+ {' |4 m2 J
7 W) M/ s5 P/ S4 z- _% \# y0 L
Text #1
- O. h  F5 d1 w$ F4 Q$ C+ rID : 17
! f  z3 g, e7 C& y$ tFormat : UTF-8
! n4 d" T- W, W' B  eCodec ID : S_TEXT/UTF8
' R' ^( e# o# c' f" I1 @" T4 mCodec ID/Info : UTF-8 Plain Text! v2 f+ Y* F3 z/ Z* ]" F8 S
Duration : 3 h 55 min
/ J" l3 T1 a% O5 M( IBit rate : 31 b/s
- J3 Q. Z& `  v' c: eCount of elements : 2047" t* I- p) g' [. l8 O! _) t1 F
Stream size : 54.3 KiB (0%)# j0 H8 D; R( P% t) U
Title : English-SRT* R- ]! J: ^+ \' L
Language : English
# P& u: x3 D( O- J1 H9 u" ^Default : Yes* D% k: n  I4 T
Forced : No1 L- Z! l, D* m& N) U
+ s* y% W/ g! X8 `* b! z4 O
Text #2
" ?- L' |( c. {+ B8 \# nID : 184 d, T( s' k! A+ d( A" G
Format : PGS
8 Y: R& p5 O! rMuxing mode : zlib/ z. Z1 r- V# L0 t
Codec ID : S_HDMV/PGS& p! U7 w! ^% m, Y
Codec ID/Info : Picture based subtitle format used on BDs/HD-DVDs
8 s5 O0 d% n' \7 @Duration : 4 h 0 min* }4 G* y+ x" b- a7 V$ b: t
Bit rate : 25.8 kb/s
5 m- d  {- x! t8 u6 z9 ~Count of elements : 5558/ v/ h4 r4 P; j9 l0 v  m
Stream size : 44.3 MiB (0%)
$ f0 x6 N9 e& ?% D4 G% j& HLanguage : English6 X$ x4 e2 x7 @* {5 ?
Default : No; ^& u4 r3 U. r& {2 \
Forced : No
# G# R, K7 T. [; }8 K
: }/ L$ v$ X3 q& EText #39 o9 a: p1 N4 g/ f+ m. X. y8 P
ID : 19
3 S6 F! A/ y) |% c$ j- H( }Format : PGS: q, u4 p) E/ L2 q+ B/ K6 G  G& S
Muxing mode : zlib  W/ f, a; f( @0 B! j$ Q3 v8 v
Codec ID : S_HDMV/PGS3 C+ n- F' P: z) C+ b
Codec ID/Info : Picture based subtitle format used on BDs/HD-DVDs
7 |9 {1 z" @- ODuration : 3 h 55 min
; K# k4 N# z+ G4 b5 X5 K  j) ZBit rate : 16.3 kb/s! ?. m  q+ @# R
Count of elements : 3540/ K7 u4 m# X* x5 q0 |
Stream size : 27.5 MiB (0%)
" [' I+ {5 e6 D0 C- x* cLanguage : French
1 p- y- p, J; ]: Z  B2 p8 ^$ RDefault : No& F& c% K7 S: H- K! P0 L! I
Forced : No
9 z, R" S' H3 d  C- X- o- L; s4 j4 \6 m* H) w  b# _
Text #4
8 S; `" ^" P1 K% KID : 20% V7 i! t5 i9 ~
Format : PGS  X/ |9 c8 h# j( ?/ \- M
Muxing mode : zlib
# A9 Q7 B& g! O/ B4 G  `$ N( lCodec ID : S_HDMV/PGS
0 O, v. J$ {0 K7 h* y! f. [Codec ID/Info : Picture based subtitle format used on BDs/HD-DVDs
& }! @! ]! p+ H8 U: `- ~Duration : 3 h 52 min
5 _; f4 t7 L; U; ?8 }+ BBit rate : 24.9 kb/s
8 D# A( z0 R# F% s6 E1 BCount of elements : 5282
  Q5 F6 i* L8 ^Stream size : 41.5 MiB (0%)
! g; x. t; k' z( p1 D, i" ^( HLanguage : Italian
" x8 s; j0 z# I  {- D5 c% vDefault : No$ p7 W+ u7 C3 t0 S# O6 F, W
Forced : No+ G: v: m( ?. c" Y

+ w( D; j7 D; x9 I  hText #58 _; k( R" A5 T& X7 c
ID : 21
9 ~. F6 W( i# i$ B" lFormat : PGS6 x- x/ B$ L9 F& \
Muxing mode : zlib1 `5 s7 N& F2 R! n/ ]$ L
Codec ID : S_HDMV/PGS
/ K9 a8 w9 D+ h7 E0 TCodec ID/Info : Picture based subtitle format used on BDs/HD-DVDs1 I* e; }0 C8 s# R
Duration : 3 h 59 min
% t. U! x$ w  ?+ v7 u9 ?Bit rate : 18.8 kb/s
5 V3 x6 b+ _' O$ @2 DCount of elements : 3784* |+ A5 l9 P! i2 A
Stream size : 32.2 MiB (0%)# Q' X2 Y6 j+ s: K* O, F' I9 W
Language : Spanish
* z# i/ B7 f- i4 Y3 ODefault : No$ [% w& }# G" t4 `7 Y
Forced : No
4 l' E9 U( y2 c% M5 d5 P& G! T( b2 d0 F% m: D7 Q6 z
Text #68 `* J' x! w6 X- }) `! m- O
ID : 22
* M  |7 a6 i, s9 MFormat : PGS% e0 M0 X; N; o/ e8 l  D; v6 v, g
Muxing mode : zlib
4 R) r9 u0 M0 DCodec ID : S_HDMV/PGS% P! T8 q4 D! h* q9 H
Codec ID/Info : Picture based subtitle format used on BDs/HD-DVDs6 _. u6 S+ f! m7 G$ M. o# ^" }; i% Z( I
Duration : 3 h 51 min
6 [7 s1 J: W: WBit rate : 19.2 kb/s
, z2 a( N* h% V. _; k9 DCount of elements : 3804' l; x2 C& R# X8 p
Stream size : 31.7 MiB (0%)6 P0 x( S# L+ R' u0 c
Language : Chinese
) @# r; O0 l, ~* z# fDefault : No6 G$ w5 ?: Y5 `* a( q) V4 p  M1 p; B. n
Forced : No
: m! Y/ J; \( y& \) |& z: `* S: N( [) K; f
Text #7/ o! V- L/ V; O, H
ID : 23' g# D: n/ d% l- N( L: K
Format : PGS
/ |" O6 Z! J2 i' |. m8 W( SMuxing mode : zlib5 K3 j1 [! l2 w3 t) P8 w" u# r
Codec ID : S_HDMV/PGS
! `) o( J" Y9 J; e' Q. fCodec ID/Info : Picture based subtitle format used on BDs/HD-DVDs$ P3 S: U9 z! F5 u- u/ r8 \+ r
Duration : 3 h 59 min
3 |9 J' \$ x$ h( OBit rate : 20.1 kb/s8 k& y- S. |. {9 o5 r& n' T  o
Count of elements : 3822
; V1 |/ l4 s6 [5 _5 ]/ yStream size : 34.4 MiB (0%)2 @& I8 h* P0 g8 _
Language : Chinese
: O. Y& }; m! xDefault : No
% o+ u; o) _, n% f! t6 HForced : No
7 {* `2 i1 v. ]6 |* N  I, F
4 X; |. b* O; B. ]Text #8% c. [3 M/ U& ^8 H6 b4 K
ID : 24) Z3 Z- @0 k5 l% S* i0 ]
Format : PGS
- i* t: J% T9 _+ c8 iMuxing mode : zlib1 [0 U7 ~( u) |% L! }7 Q
Codec ID : S_HDMV/PGS
- k0 C/ R: f0 n5 l; CCodec ID/Info : Picture based subtitle format used on BDs/HD-DVDs
1 \" u  E; m1 {Duration : 3 h 51 min
8 g) [, x( A$ e8 K# ?Bit rate : 12.9 kb/s& Q. u: a7 ^  u9 Y
Count of elements : 3790
+ U3 }. V6 h( t* T) ~8 wStream size : 21.2 MiB (0%)
6 Z" E. z9 T1 I; \4 f& m! nLanguage : Korean
, `5 L7 I' [( j  u5 z1 ]3 B. IDefault : No# h! t7 |2 x. C. e, v, d/ u( x1 {
Forced : No0 p# V& F  |+ o  e% g4 d& I

9 A0 C, U' d7 Z4 |; O4 f+ e. xText #9, t4 @$ G4 O' s0 Z/ F) n) t! G
ID : 25  G  e5 m/ R6 R6 E) z# X* Q4 k
Format : PGS( g2 L4 |- }8 t& g9 }6 P) s
Muxing mode : zlib# i3 _7 T, I  r5 J7 _5 @3 ?
Codec ID : S_HDMV/PGS8 V& A, r; |! }) h% h- }: H5 ~
Codec ID/Info : Picture based subtitle format used on BDs/HD-DVDs! f1 Q6 g1 a" I
Duration : 3 h 59 min" C* l; c# Y$ B& k  _8 S. u9 F8 I
Bit rate : 17.8 kb/s
+ Z0 M: Y7 @# p4 n. |/ K' D: ]Count of elements : 2980' t, ?% p2 T2 K# I' \8 }9 g7 E+ T
Stream size : 30.4 MiB (0%)' k: L$ _* j$ f$ D: N* @
Language : Spanish
' h- w  a3 \  |. n- q# I3 RDefault : No" @0 b3 X7 V9 `- K# P8 z
Forced : No
5 J$ m2 F. L' ?. P0 I% n5 h- p' i+ E" q, A! F+ S* H2 d6 J7 ?/ w1 t( C
Text #10( p) Q3 H( t0 W7 D+ T; l
ID : 26
) t' ~, p& u; O0 O. W9 YFormat : PGS
7 E0 u  s6 ]2 S% K2 d1 SMuxing mode : zlib
5 p  i! G  v' t+ ICodec ID : S_HDMV/PGS
9 g+ O2 p  h* x5 l7 Y  Z0 ACodec ID/Info : Picture based subtitle format used on BDs/HD-DVDs5 R$ T* q# R  o, Z
Duration : 3 h 59 min
  N4 s6 C" e) }7 ~  f! o% T- b  p  vBit rate : 19.6 kb/s$ j' e8 Q( y  E! [" b# j- J- O
Count of elements : 3784
- E. r7 j: I# b% e4 lStream size : 33.5 MiB (0%)
! J- [/ C6 ^& ELanguage : Portuguese$ t1 O! i; d; {7 u) O0 G
Default : No3 [/ M% J) z1 F* n3 C* p
Forced : No1 }8 u2 D/ s  M; t* {  j
. i, y& V: r- u: [
Text #11; C. G9 N  A# `
ID : 27
! V7 V* D  J. tFormat : PGS; o# N4 x- K* O$ c. C% j: ~
Muxing mode : zlib
# }2 Z. y6 Y9 bCodec ID : S_HDMV/PGS
" T5 u  p9 o1 o6 j$ oCodec ID/Info : Picture based subtitle format used on BDs/HD-DVDs, T2 C3 X( n( F8 D; F% d1 Z
Duration : 3 h 59 min3 J4 P9 O% {6 m$ o
Bit rate : 17.7 kb/s: \4 X/ C, W$ ?# ^
Count of elements : 3762
* \8 M* `4 H: M2 q9 B. iStream size : 30.3 MiB (0%)' r% }" a( i6 m2 [- w; |
Language : Czech" b* S3 j/ V7 U% M1 r, w! N: [
Default : No
+ @8 J6 R, ~7 g: w; c  S0 i% p7 qForced : No
4 a7 a0 f3 _( s' {% }; f
3 u6 W& }* }" o: Q* jText #12
' m0 U8 @* H% DID : 284 O* c2 ?4 r, H7 l1 X* m) `
Format : PGS' f6 V+ {+ H* b" r( J
Muxing mode : zlib4 B$ F; T3 l/ {) C  n- G
Codec ID : S_HDMV/PGS
- ~: @% @1 W( C! y+ |; qCodec ID/Info : Picture based subtitle format used on BDs/HD-DVDs) P) P) h: n. h* W5 [3 [4 H
Duration : 3 h 55 min$ x, o) C" W7 D' w# ]% x7 i" E
Bit rate : 16.8 kb/s
8 R8 ^& q5 a4 R& {) w- l5 n. GCount of elements : 2552
2 K# J8 J  g* \Stream size : 28.3 MiB (0%)$ m6 ^" s9 v. N& q9 v: `  |
Language : Danish: b" c5 s& o4 f8 z+ b
Default : No) ~$ i" D0 Y0 d) @6 b
Forced : No
$ J" h8 q6 m# U3 [, F
3 w( m1 C8 p' A% E$ {! `Text #13
9 S7 u  w1 X. A) U: y2 cID : 29
% K. L( B# s0 J4 R8 `! yFormat : PGS
* o7 d/ c3 A1 k3 w2 i8 W! i; r( d! JMuxing mode : zlib! Q" \! o- s, R: {
Codec ID : S_HDMV/PGS0 F/ P7 f) ?& \3 Y9 s/ F! V
Codec ID/Info : Picture based subtitle format used on BDs/HD-DVDs% O) t" O4 g' F, J( e, |
Duration : 3 h 55 min
9 V4 M; d% ]. P2 z0 ]2 [, WBit rate : 18.3 kb/s
  y6 Z2 U  G; M6 A" U3 m+ nCount of elements : 3760. _5 P( C! i) _/ W- X/ n  S
Stream size : 30.8 MiB (0%)
6 T* A: e* ]. g# b: I) dLanguage : Finnish$ G6 Z6 m8 i, h- m: g* ?- h
Default : No
: N, A0 S. G& q0 [  N. U! B( Y6 ]Forced : No& g8 R) Q0 C# X) O1 A

: }4 _3 t" g" j7 t3 d/ n' gText #142 N$ T/ H0 g+ M+ d
ID : 30
" }0 g, y/ L" i) M; F' }% h$ c' \Format : PGS
! r0 ], [/ u# F( P1 y( z+ ]Muxing mode : zlib
, P& s, ~6 d; i  H2 VCodec ID : S_HDMV/PGS% e, H  _* `" F) T: j- l" U4 ]
Codec ID/Info : Picture based subtitle format used on BDs/HD-DVDs: y, T6 i. V' }
Duration : 3 h 55 min
3 O3 S! i7 ^! ]8 F0 d1 v' uBit rate : 18.1 kb/s7 V& S, e; Y; H# R# W
Count of elements : 3044
5 |" I) W/ j  H9 R! PStream size : 30.4 MiB (0%)
& r4 f( \% ]2 JLanguage : Norwegian/ f! `- q0 Z+ R% h6 }2 J
Default : No
1 O: w6 U8 T1 l1 |6 H1 CForced : No
! E! S, v! v0 \$ L, L; L# ]4 T. x7 y; s  G4 J6 M
Text #158 t% V! s9 M8 o& h% `
ID : 31
/ j+ p. Z; d: LFormat : PGS8 p9 Z! d6 ~- b
Muxing mode : zlib
6 B. E! ~3 p. a3 t$ RCodec ID : S_HDMV/PGS% T  h9 ]$ q. h" N% Y- [0 r' D2 [# b
Codec ID/Info : Picture based subtitle format used on BDs/HD-DVDs
' C0 V- ]' H  V! Z- CDuration : 3 h 59 min
% J$ R" V" r; l/ q8 I' `4 KBit rate : 18.8 kb/s9 |& F! L; B1 f2 x
Count of elements : 3744, T; {6 ~, l  [# m0 c( t, z
Stream size : 32.2 MiB (0%)7 Z# P! A; N* c! C' ^$ `
Language : Polish
& f  m3 G% ^& c, f/ G! i/ PDefault : No" s" N  w% r5 v/ Y' K+ I
Forced : No
3 U) `6 e" w0 V9 b0 k6 p3 G! {. x- ?2 A+ P: J1 G2 j5 m  r
Text #16! j! ^9 y' `3 {4 x/ p
ID : 321 h& M) d: I' U6 B0 P+ F) J
Format : PGS
" c" x$ u0 {& J1 G1 d. ^4 iMuxing mode : zlib
9 }2 ?1 C" Y$ bCodec ID : S_HDMV/PGS
; p% p9 {1 e2 b' \+ HCodec ID/Info : Picture based subtitle format used on BDs/HD-DVDs
* W7 i+ ~+ M/ F2 O% I9 FDuration : 3 h 55 min
& W1 _9 H( I- yBit rate : 16.5 kb/s% r* `  `" G0 ~
Count of elements : 36225 E: {, E+ ^& t3 z, S
Stream size : 27.8 MiB (0%)
, k( V8 x3 C# t1 |- K- wLanguage : Swedish
# F1 j) J: U; {) P1 \& Z  {Default : No/ n( n$ M& B# v" z# j- i* p
Forced : No* d: c  P! h6 Y" Y2 I; G" y

. {% i3 S" N0 x! Z) dText #17
: {6 K( `7 G4 i/ l$ S: iID : 33
  D, j) Z6 X/ U3 I. o! [Format : PGS
3 R  I5 d3 s: F/ d2 S1 g$ zMuxing mode : zlib
4 e, b0 K+ \; n- p) N7 OCodec ID : S_HDMV/PGS3 t8 _5 w3 t; M# I1 f! [% ]
Codec ID/Info : Picture based subtitle format used on BDs/HD-DVDs
- R, i5 V+ F* W% H( ODuration : 3 h 47 min
) o4 U1 ?8 `& _Bit rate : 13.2 kb/s
+ }( {* n8 H* _' g. W4 U* ]1 ~! SCount of elements : 3433
" x  a. ]& V: G7 N2 I% s4 Q" g8 PStream size : 21.4 MiB (0%)$ B. L, {6 X( P5 `
Language : Japanese
* [2 Y7 p" v. T. E( b6 y; u# u  B3 d; mDefault : No
* X5 O, t/ L- mForced : No  t( G- K: ]( |, @

6 @' M% V4 C' _9 B! w) W' hText #18
; t6 C8 X% n3 v% `3 gID : 34/ ^4 w, h4 Y' Y& L% x% r
Format : PGS/ j8 C. L! G5 ?2 a2 c
Muxing mode : zlib: y' _+ Y) A, m9 E" d
Codec ID : S_HDMV/PGS
  b5 f; K! z- l  U! FCodec ID/Info : Picture based subtitle format used on BDs/HD-DVDs5 g  q0 ~5 q: M5 m& v  D2 H
Duration : 3 h 44 min# J% \9 x" I$ w' }& u, _
Bit rate : 277 b/s  \8 e# N; {/ m8 p" {
Count of elements : 75/ {6 w: ?" I. R4 s5 U( m
Stream size : 456 KiB (0%)0 g$ D# }  i5 S3 z# o
Title : FORCED
: T- t8 }- W, X# d- \Language : Japanese
) s  R" P$ e0 P; ~" j: UDefault : No
3 R4 j4 n, m- [4 M& e8 xForced : No( b' V) q6 ~1 m
+ n' m3 m: T4 u/ |1 y8 ^! |3 Y- o8 y% s
Text #19
3 L1 w9 `  r8 x9 S# [6 WID : 35
$ x1 a0 p  k* G3 T) kFormat : PGS
0 C) G8 w! }( A. _' jMuxing mode : zlib" t- ]2 ~. F7 Z# z# ~- p
Codec ID : S_HDMV/PGS4 _) f, E4 b9 n' g) b0 d
Codec ID/Info : Picture based subtitle format used on BDs/HD-DVDs
  l/ [/ G( f+ n1 Q2 JDuration : 3 h 44 min3 P7 ?7 D9 ]2 f" E
Bit rate : 261 b/s
/ ]+ f9 O7 M& t1 `3 u$ jCount of elements : 40) i7 v: {. O/ t* I
Stream size : 430 KiB (0%)
9 p; a2 x0 i) \Title : FORCED# H* c5 L* h) F$ d5 u& {5 B
Language : French
, w7 e' c4 a$ M& X' IDefault : No
0 l2 l! [  ~# G: {  |Forced : No, M$ Y! H# Y* t, d* W+ O* V

% G1 O2 N2 N% w/ m* F/ Z( P& _$ ]Text #20) Z0 ]' u9 Y6 L
ID : 362 B# X. Q& |4 x. l
Format : PGS/ L% t( m6 j1 V$ O
Muxing mode : zlib5 c  h* Z2 t9 u- C, s9 {  N( j
Codec ID : S_HDMV/PGS  A4 b( {6 R7 c' F. j
Codec ID/Info : Picture based subtitle format used on BDs/HD-DVDs
& a: W7 g5 f. vDuration : 3 h 44 min
3 b+ m. p! \; c% ~% {Bit rate : 478 b/s+ N, O& |& z" K$ D
Count of elements : 70
' Q& P; D# E. g: uStream size : 788 KiB (0%)/ F& Q8 V( j$ C- W1 |* Z, I2 @2 W1 H
Title : FORCED  Q. r/ E  B7 N# X- q* r( f
Language : Italian  ~- a7 m# M- A: n' n. p* s; L5 ^( T
Default : No
7 r: j% w3 F( _1 XForced : No$ [2 b5 W$ A6 U" I

1 R6 `, q8 `" w0 r; e; C& fText #215 f* i& \, [, `7 e3 o! t2 r
ID : 37! J. |5 R& M; m! G+ J. ^8 r) Z
Format : PGS% \) c; j( k- X3 l# l
Muxing mode : zlib
! C+ e/ v1 Z# i- h4 HCodec ID : S_HDMV/PGS
: X9 u  f* v, @  V2 F0 b& bCodec ID/Info : Picture based subtitle format used on BDs/HD-DVDs
# f9 Q6 O; N+ f7 o! d4 R3 NDuration : 3 h 44 min
2 J; d, F1 H5 r' i0 q! X( a' \$ tBit rate : 344 b/s3 w( d, E" `) j4 s" W
Count of elements : 541 j4 ~) H4 i1 E+ F
Stream size : 566 KiB (0%)
4 C  V! }  k; ?# [Title : FORCED
6 W6 l4 B4 f% Q4 z2 _' SLanguage : Spanish
" i8 d; H1 O" c' A" UDefault : No
! @1 k$ W/ ~: Q$ a/ @Forced : No$ H0 I) \$ h& v

$ ~2 g0 u. _% h  l, L- AText #224 p5 E. d4 C. s+ G* a+ z" F6 X. c
ID : 38' Z% T9 e; k, m" E% [! X$ I5 j
Format : PGS& |: ]0 Q/ C; b8 V+ ~2 l  }( u
Muxing mode : zlib4 e6 w" _8 {; i0 [
Codec ID : S_HDMV/PGS
* G$ I9 |+ a) YCodec ID/Info : Picture based subtitle format used on BDs/HD-DVDs
9 [4 T6 i1 s. }4 j" m! H# g2 @0 iDuration : 2 h 12 min5 q" A, v- |# b8 |8 y& N
Bit rate : 92 b/s
  R) N) ^" I( F1 i# l( e% Y1 L0 U( N$ PCount of elements : 121 _9 D8 q7 h; i- o5 i5 B& A5 W
Stream size : 89.9 KiB (0%)
: M; n% [- i; H( B4 ^7 [Title : FORCED5 x0 x0 ^' @( d- q3 h1 F8 g1 ^
Language : Spanish
- ^, r0 g. D0 sDefault : No: T! d& {- ^0 y$ Y0 Z  ?" \1 G3 I6 j8 `
Forced : No
% l) _3 h# B, O( a1 A  a& K8 T0 M9 j
Text #23
8 w8 R: i; l& W: c: W: }ID : 39
3 x2 w  ?. ~$ h$ S& N2 \Format : PGS- C  Z7 k' w& _; w6 o
Muxing mode : zlib
; m+ {3 E8 q* G1 k$ DCodec ID : S_HDMV/PGS; u0 H- D/ _+ f; f
Codec ID/Info : Picture based subtitle format used on BDs/HD-DVDs2 {1 s  @$ c/ q- f
Duration : 3 h 44 min; Y4 }; v( _0 I/ \+ n5 {2 n0 L- ?
Bit rate : 411 b/s8 D2 z2 U% t+ A% P8 ]5 I5 W$ u
Count of elements : 64
4 Q, b2 p) |" M1 s4 N8 q5 WStream size : 676 KiB (0%)
4 o7 c) }% B8 N! mTitle : FORCED
" e( W3 l) ^, N( b3 n$ `Language : Czech
4 J5 r* [- v& r; |# S$ zDefault : No" X. Y- f1 G5 `" s' X! |( ?4 \
Forced : No6 O" o) n- T2 n3 I/ O. u( u" B/ o# s

' Q& k5 P, t, {- l& z5 EText #24$ N/ `# ^% r: |
ID : 40
" O2 J! \* y/ ?Format : PGS1 U3 y3 }2 l* g( l% C' m1 u
Muxing mode : zlib+ V2 g  K; M7 Z5 ]2 D2 s+ P/ H
Codec ID : S_HDMV/PGS8 n9 e5 T: G7 a2 h8 r; J. J: `- q; B1 M
Codec ID/Info : Picture based subtitle format used on BDs/HD-DVDs; ~' {2 ]/ k+ h
Duration : 3 h 44 min* Y7 u1 o: _' H% Z3 T
Bit rate : 496 b/s
  ~" \. i6 b' _; K* k  \5 J  ACount of elements : 78# m  [& M% J. q, u1 B0 K- A
Stream size : 817 KiB (0%): B( }/ C4 z0 Q+ U; c5 i( w
Title : FORCED) k$ L$ V. N7 k+ n3 v. c
Language : Polish  s. _! }( k4 Z* l: a$ b
Default : No9 h! q4 \& g' a
Forced : No
# f0 b0 s* D9 ]* K1 H- z* c* Z' K% G5 d2 p& @& B* G
Text #25
4 e- q& O5 ]4 ^3 o' @/ [ID : 41
8 \. `0 A9 s; K+ K# n: V) D  DFormat : PGS( i8 v3 N0 _: f& m2 T9 U
Muxing mode : zlib
6 y; F: C9 C, C; `) x2 lCodec ID : S_HDMV/PGS
( W+ C4 E0 z) s3 }9 a/ c4 T, @Codec ID/Info : Picture based subtitle format used on BDs/HD-DVDs
7 y0 m+ b! U3 S8 w0 L: FDuration : 3 h 44 min
9 T; O0 @7 N( h+ |8 X/ bBit rate : 262 b/s
9 j9 P4 h% w/ ]& G8 I; gCount of elements : 46
; W. }4 u/ t3 y7 d, V& r) c# B/ uStream size : 432 KiB (0%)
3 D) T* s5 z+ |! q$ q, X$ W  h0 tTitle : FORCED/ c, i. R, W8 E2 `% ~, _, G+ J+ s+ _
Language : Slovak1 Y% Q' I6 q, |/ r$ [) N
Default : No( q. C; R( G" E2 t+ I) J; E) m
Forced : No
9 L$ Q' c2 g6 A, L% o  P$ S
3 ?; G/ M1 I7 C) Z" l' O% SText #26
( n6 S9 V4 G& [9 m, SID : 42
+ o( I# J9 U; S$ {Format : PGS5 i, C2 D# h7 u3 T# E
Muxing mode : zlib  T' @7 \9 l) l- {8 ]# h8 @
Codec ID : S_HDMV/PGS
6 J  J' Z# ]& {, M1 PCodec ID/Info : Picture based subtitle format used on BDs/HD-DVDs/ i- }" Q) D" R$ e/ v0 D
Duration : 3 h 32 min
: t4 m1 i' Y8 x0 l3 J' b% i: HBit rate : 194 b/s- x. |9 L; ^1 @' K# a
Count of elements : 34
' {4 T5 ^; r. B; q" s  ^Stream size : 303 KiB (0%)
! G4 ~- W& C! e7 }' r, NTitle : FORCED
$ n. E1 J( E# uLanguage : Portuguese
* ~7 Z: E! B- l# ODefault : No
8 X* ?' q5 d2 j) ]' W3 GForced : No0 @4 M) m3 D( ]
& }  |4 Z2 t' J- h3 J
Menu: q/ h3 T  n  g  l7 H6 \+ W; U) \# b" p
00:00:00.000 : Chapter 01) a& X% d: y  g7 ^0 G
00:08:54.909 : Chapter 02
8 d  d3 z# X$ q& z3 b, X% a* R/ X00:19:56.737 : Chapter 03
! W# R9 F2 U) Q( A( d2 I; S: K00:36:54.503 : Chapter 04. v- ^- \( m* u% t6 ]
00:41:32.031 : Chapter 051 A  I' Q& k' n& P4 i( K6 s: N
00:50:18.640 : Chapter 06  X9 C. l! `# u. h1 p  X
00:58:42.435 : Chapter 07: ^: Y5 G; A; m3 T3 x8 O$ l- F
01:08:35.569 : Chapter 08/ D; ^  S7 M6 s
01:20:27.823 : Chapter 09' l4 k4 [) V" H$ L
01:30:05.024 : Chapter 10: Z" ?  Z# t* z. @  P
01:40:28.313 : Chapter 11
: h# g7 Z: j1 w# L: U01:51:24.010 : Chapter 12
; X" R/ O, _% p$ b- B+ z01:59:06.931 : Chapter 13
9 T/ r0 {- m: n1 b2 n02:07:56.293 : Chapter 14
; B" z' S( v- X, N02:21:58.528 : Chapter 01- q3 P$ n. r1 V
02:29:49.915 : Chapter 027 i: r5 S( |! N2 v! A  T$ U: ]
02:37:27.289 : Chapter 033 q2 }7 O" v9 f- i+ r* M
02:48:36.374 : Chapter 04) Y: u7 I/ R1 l7 W6 c6 }
02:53:19.532 : Chapter 05
2 W$ f2 j  u5 T) h03:09:54.109 : Chapter 06* K4 U- w1 Z* t" v& P
03:21:28.844 : Chapter 078 E9 F/ D* w0 ~  P! _1 q( \
03:34:12.858 : Chapter 08
( a) k0 r0 y6 ]1 l03:40:10.048 : Chapter 09
5 c+ I" G9 T% i0 \03:50:47.476 : Chapter 10

' }- G1 @: k% q! r( D$ u$ _
游客,查看本帖隐藏内容请回复 | 加入VIP贵宾可免积分免回复 了解详情 | 还不是会员:点击获取邀请码 Invitation Code

相关帖子

0

主题

55

帖子

239

积分

Sponsor

金币
31 枚
体力
91 点
hangxb 发表于 2021-5-27 08:20:35 | 显示全部楼层
每天都来蓝光论坛看看,我爱蓝光电影。3 T1 b7 u4 g' G, ~2 ?: b$ X" i
1 [" s' |' d1 {+ r' |Thank you for sharing such a good resource polite reply, very sorry for myself!

0

主题

44

帖子

283

积分

Sponsor

金币
98 枚
体力
94 点
sebarstean 发表于 2021-5-23 19:17:14 | 显示全部楼层
每天都来蓝光论坛看看,我爱蓝光电影。
  s: ~) @+ `0 z1 GThank you for sharing such a good resource polite reply, very sorry for myself!
2 N% r" A/ B7 B4 e; K

0

主题

431

帖子

2210

积分

Sponsor

金币
58 枚
体力
1344 点
QQ
sunday_119 发表于 2021-5-25 11:54:10 | 显示全部楼层
每天都来蓝光论坛看看,我爱蓝光电影。, l3 x0 K0 d8 j
In fact, I have always felt that the landlord of good taste! Ha ha!
% R; L7 L0 Q3 z6 a

76

主题

2758

帖子

1万

积分

Sponsor

金币
1312 枚
体力
3839 点
lanpanshuma 发表于 2021-5-21 11:09:05 | 显示全部楼层
看了LZ的帖子,我只想说一句很好很强大!""$ }+ r  C8 @7 L+ X0 r; w, n; F
Your resources, well, I am very satisfied!
! S  L7 M. w/ Q3 Z3 I
该会员没有 ...

0

主题

11

帖子

179

积分

Sponsor

金币
127 枚
体力
28 点
jj0391112 发表于 2021-5-22 15:20:41 | 显示全部楼层
完美极了,好好欣赏一下

0

主题

282

帖子

1297

积分

Sponsor

金币
13 枚
体力
723 点
QQ
失落的虫子 发表于 2021-5-31 16:44:33 | 显示全部楼层
沙发是抢的而不是占的!
  Q" z( b% D2 R; {Your resources, well, I am very satisfied!
5 G  A2 }: c) L/ S6 V$ u

0

主题

27

帖子

175

积分

Sponsor

金币
78 枚
体力
39 点
sawas 发表于 2021-6-2 07:38:47 | 显示全部楼层
That's awesome

31

主题

1614

帖子

8745

积分

Sponsor

金币
1234 枚
体力
4347 点
QQ
shiji1973 发表于 6 天前 | 显示全部楼层
实在是太棒了

本版积分规则

小黑屋|Archiver|蓝光电影资源网

GMT+8, 2021-6-12 18:55

快速回复 返回顶部 返回列表