BluRayCD Forum

 找回密码
 立即注册【分享大片】
查看: 145|回复: 12
收起左侧

[2160P极清] 活死人军团/亡灵大军 [4K高清版 内封中字] Army of the Dead 2021 2160p NF WEBRip x265 10bit HDR DDP5.1 Atmos-TrollUHD 18.37GB & 5.81GB

[复制链接]

5364

主题

5741

帖子

5万

积分

Post Share

金币
12844 枚
体力
10041 点

卓越贡献勋章

mvods 发表于 2021-5-21 22:39:17 | 显示全部楼层 |阅读模式
02.jpg
5 R9 O5 m, H, c: ?
7 W; l7 z% r) h- ]$ ^& U◎译  名 活死人军团/不死丧军(港)/亡灵大军/亡者之师/僵尸军团/死亡之师/死亡军团/活尸大军(台). M' g: v: G6 Z
◎片  名 Army of the Dead / Army of the Damned- G. d3 I% r: h6 H
◎年  代 2021
( R1 E5 k7 W! P5 s+ P0 u) i; u◎产  地 美国- D9 U1 T- \; E; e
◎类  别 动作/科幻/恐怖1 T$ u) x7 \% ~; A' y
◎语  言 英语
# R1 a" d4 |6 t9 x1 e◎上映日期 2021-05-14(美国)/2021-05-21(美国网络)
9 k% |/ z" |1 f◎IMDb评分  6.0/10 from 67,750 users# N0 a5 }' s: t! _$ T2 t' t  A/ @
◎IMDb链接  https://www.imdb.com/title/tt0993840/5 H7 g: q% g6 w) t& r
◎豆瓣评分 5.4/10 from 27,915 users
$ l; Z6 r0 `$ z6 M◎豆瓣链接 https://movie.douban.com/subject/3099221/
! _! T3 V; g; c  E# v5 t' K* k◎片  长 2 h 26 min' B! M0 c  `$ n
◎导  演 扎克·施奈德 Zack Snyder
% f# L, p7 I& c; J◎编  剧 扎克·施奈德 Zack Snyder 4 R+ R* m1 f; N2 ]. E# h  p8 b. A
       卓比·哈罗德 Joby Harold
& K3 @" ?4 b% v; y; o       谢伊·哈顿 Shay Hatten
2 Q9 ^7 v# @8 K# ?+ [. U6 o◎主  演 戴夫·巴蒂斯塔 Dave Bautista% F% E- H4 H% {; i6 p9 M
       艾拉·珀内尔 Ella Purnell
2 ^3 S2 j7 N9 B5 }* P' ?2 J& z9 s       安娜·德拉·雷古拉 Ana de la Reguera* z0 G, J1 g) w2 a9 @0 G7 m
       马提亚斯·施维赫夫 Matthias Schweigh?fer* l& k" _, f7 J3 m
       诺拉·阿娜泽德尔 Nora Arnezeder6 O! @9 N6 r: O5 f+ M5 r  h; y
       真田广之 Hiroyuki Sanada  L: b8 Q0 H( e; E# r# V
       劳尔·卡斯提洛 Raúl Castillo
# |2 D+ e* V9 ~4 Z7 ~; N* E+ }       迈克尔·卡西迪 Michael Cassidy
5 k* D8 t6 N: |       加瑞特·迪拉胡特 Garret Dillahunt& F. w5 n; t, G7 @+ ~
       萨曼塔·若 Samantha Jo
% o: C# G: l( n+ L+ B1 L: K% o% R: d       西奥·罗西 Theo Rossi
8 X# P+ }0 f" y. q# g# m  w       欧玛瑞·哈德威克 Omari Hardwick
7 C  o) R1 D- Z( W+ n       泰格·诺塔洛 Tig Notaro
5 l# S  q: t6 v) m6 B  {       洛拉·玛汀内斯-康宁安 Lora Martinez-Cunningham- ~& T/ V5 O1 G, b
       里昂·贝克维思 Lyon Beckwith# O$ o5 M  A% |: n- X. D' v- @, c
       萨拉·明妮奇 Sarah Minnich4 ?6 [" _$ n6 u/ e4 P# e0 E9 X
       切尔西·埃德蒙森 Chelsea Edmundson+ r! t7 Z7 Q0 S; A# {& c) \0 U
       迈克尔·雷德·麦基 Michael Reid MacKay0 M1 L" d+ {1 j- @
       胡玛·库雷希 Huma Qureshi( ?$ k& \  l4 s: c( y* h2 b$ t
       理查德·赛特伦 Richard Cetrone
9 |+ A( Z$ [. L' ?% L       丹尼埃尔·布鲁吉奥 Danielle Burgio
$ n9 T. g6 Y5 R       瑞恩·沃森 Ryan Watson# }& G% m- @$ o
       韦恩·达格利什 Wayne Dalglish
. m* R# H. B% p" A+ A9 d       莎伊娜·瑞恩 Shayna Ryan! U1 g$ A; W8 F$ l* U' q9 F
       戴维·鲍尔斯 David Bowles6 R$ F$ g* d- ]
       乔恩·道格拉斯·雷尼 Jon Douglas Rainey
3 f5 M% S: f1 s       加里·A·赫克 Gary A. Hecker
2 y2 r0 n$ A2 X: @) q) o* T, d       斯蒂芬妮·希尔 Stephanie Hill
6 G% Q5 p4 J6 `) [' |3 Q       罗比·德拉费勒 Robbie DeRaffele& H* d3 s  ?% n2 Q+ H
       詹姆斯·凯迪 James Cady
. ]4 O+ y3 Z+ q5 i; i6 E       雅各布·布朗 Jacob Browne. r& N# Z' L9 r$ N( x4 B& V
       大卫·冯·罗姆 David Von Roehm
3 d% \9 Q/ r/ j5 Z& @5 W       费尔南多·劳拉 Fernando Lara
7 Q1 j' p) W  }& v       蒂莫西·奥蒂斯 Timothy Otis
# o5 s' x" ^$ k: M6 p& A0 _       薇·妮可西 V Nixie
( P! U4 j5 D0 p7 \! j* g; V8 M. @9 }0 C. Z# Y& E4 b
◎标  签 丧尸 | 扎克·施奈德 | 丧尸片 | Netflix | 恐怖 | 科幻 | 美国 | 动作
4 Z4 j' y( l+ i: L& p6 x8 }
" g1 I4 y1 Z% U5 P- X& j◎简  介     % b6 T3 B1 ]6 P) Y& k0 |) m. P

2 O) w8 T: K( _  影片的故事发生在丧尸危机爆发的拉斯维加斯,在此期间,一名男子集结一群雇佣兵进行最终的赌博,冒险进入隔离区,以阻止有史以来最大的劫案。8 Q" O7 S4 u. g3 g7 m
1 c  P! D, F# U( X9 o  A+ i
  Following a zombie outbreak in Las Vegas, a group of mercenaries take the ultimate gamble, venturing into the quarantine zone to pull off the greatest heist ever attempted.
% b" `  v, ]$ i4 s' ~+ Z
Video$ m# P  r" t. Z4 N' b) I3 Q" H
ID : 1* U- B6 i) N7 ^: G  E
Format : HEVC
8 p6 }0 [9 M! N& b" ]3 S% VFormat/Info : High Efficiency Video Coding
9 F4 J" t) o3 j' J$ u0 g, G2 B) iFormat profile : Main 10@L5.1@High/ u) x3 ]4 _; f6 U
HDR format : SMPTE ST 2086, HDR10 compatible- a! ^3 I5 |- Z" J& w, z0 Q
Codec ID : V_MPEGH/ISO/HEVC+ c) C  I2 }0 T. g; s% E3 [
Duration : 2 h 26 min
" M+ A2 x% k% b' T* UBit rate : 17.2 Mb/s/ U( ^5 D* J& v9 u( h1 C: Q
Width : 3 840 pixels
) T% F0 o. o. W1 u& PHeight : 2 160 pixels/ B7 N6 T" f( W* x+ ]
Display aspect ratio : 16:90 r" \7 G8 g8 P; n  E/ O$ H* n1 L
Frame rate mode : Constant
" W! w. t- ]7 [3 k* q% p' A) rFrame rate : 24.000 FPS
: Q! @7 q2 c7 k- T  w$ \9 Q% _4 S5 N& EColor space : YUV
8 U, @! w5 y0 d& WChroma subsampling : 4:2:0
& U* S7 J1 W6 J5 LBit depth : 10 bits* ~# r/ ?+ H! I$ s; |. M, L+ _1 y
Bits/(Pixel*Frame) : 0.0866 T4 ~' U6 W  h7 T8 `4 l
Stream size : 17.6 GiB (96%)
0 G8 c0 x4 w4 Z* xWriting library : x265 3.5bf91444e0:[Windows][MSVC 1928][64 bit] 10bit
9 P& f' i, I! a# a. VEncoding settings : cpuid=1111039 / frame-threads=4 / numa-pools=28 / wpp / no-pmode / no-pme / no-psnr / no-ssim / log-level=2 / input-csp=1 / input-res=3840x2160 / interlace=0 / total-frames=0 / level-idc=51 / high-tier=1 / uhd-bd=0 / ref=5 / no-allow-non-conformance / repeat-headers / annexb / aud / no-eob / no-eos / hrd / info / hash=0 / no-temporal-layers / open-gop / min-keyint=24 / keyint=250 / gop-lookahead=0 / bframes=8 / b-adapt=2 / b-pyramid / bframe-bias=0 / rc-lookahead=40 / lookahead-slices=8 / scenecut=40 / hist-scenecut=0 / radl=0 / no-splice / no-intra-refresh / ctu=64 / min-cu-size=8 / no-rect / no-amp / max-tu-size=32 / tu-inter-depth=3 / tu-intra-depth=4 / limit-tu=0 / rdoq-level=0 / dynamic-rd=0.00 / no-ssim-rd / signhide / no-tskip / nr-intra=0 / nr-inter=0 / no-constrained-intra / strong-intra-smoothing / max-merge=5 / limit-refs=0 / no-limit-modes / me=1 / subme=5 / merange=57 / temporal-mvp / no-frame-dup / no-hme / weightp / weightb / no-analyze-src-pics / deblock=-3:-3 / no-sao / no-sao-non-deblock / rd=4 / selective-sao=0 / early-skip / rskip / no-fast-intra / no-tskip-fast / no-cu-lossless / b-intra / no-splitrd-skip / rdpenalty=0 / psy-rd=2.00 / psy-rdoq=0.00 / no-rd-refine / no-lossless / cbqpoffs=0 / crqpoffs=0 / rc=crf / crf=17.0 / qcomp=0.60 / qpstep=4 / stats-write=0 / stats-read=0 / vbv-maxrate=160000 / vbv-bufsize=160000 / vbv-init=0.9 / min-vbv-fullness=50.0 / max-vbv-fullness=80.0 / crf-max=0.0 / crf-min=0.0 / ipratio=1.30 / pbratio=1.20 / aq-mode=3 / aq-strength=0.80 / no-cutree / zone-count=0 / no-strict-cbr / qg-size=32 / no-rc-grain / qpmax=69 / qpmin=0 / no-const-vbv / sar=1 / overscan=0 / videoformat=5 / range=0 / colorprim=9 / transfer=16 / colormatrix=9 / chromaloc=0 / display-window=0 / master-display=G(13250,34500)B(7500,3000)R(34000,16000)WP(15635,16450)L(10000000,1) / cll=2473,596 / min-luma=0 / max-luma=1023 / log2-max-poc-lsb=8 / vui-timing-info / vui-hrd-info / slices=1 / no-opt-qp-pps / no-opt-ref-list-length-pps / no-multi-pass-opt-rps / scenecut-bias=0.05 / hist-threshold=0.03 / no-opt-cu-delta-qp / no-aq-motion / hdr10 / hdr10-opt / no-dhdr10-opt / no-idr-recovery-sei / analysis-reuse-level=0 / analysis-save-reuse-level=0 / analysis-load-reuse-level=0 / scale-factor=0 / refine-intra=0 / refine-inter=0 / refine-mv=1 / refine-ctu-distortion=0 / no-limit-sao / ctu-info=0 / no-lowpass-dct / refine-analysis-type=0 / copy-pic=1 / max-ausize-factor=1.0 / no-dynamic-refine / no-single-sei / no-hevc-aq / no-svt / no-field / qp-adaptation-range=1.00 / scenecut-aware-qp=0conformance-window-offsets / right=0 / bottom=0 / decoder-max-rate=0 / no-vbv-live-multi-pass
( s; _' X4 p: T8 O% |# x: }Default : Yes
  a( Q4 m7 d/ D- v9 r3 F7 a9 C- PForced : No
4 S& v3 n" X+ D3 h* c4 zColor range : Limited" o3 j, j3 N- E0 P: L! H& M# S  a
Color primaries : BT.2020
/ X2 r( [$ K! NTransfer characteristics : PQ. @8 D4 ?2 v1 X( Z: z' V6 p+ p! B
Matrix coefficients : BT.2020 non-constant. s9 E) q. i# h( }
Mastering display color primaries : Display P3
2 z6 t. D. l3 h$ NMastering display luminance : min: 0.0001 cd/m2, max: 1000 cd/m2
: M, I' {. y( K2 G# `Maximum Content Light Level : 2473 cd/m2: \! Z" y1 W. ~" g) V3 G0 J
Maximum Frame-Average Light Level : 596 cd/m20 j) f( x1 d7 D& r0 E/ I
5 C2 P! f4 r5 i! F. ]. @
Audio9 f9 s% x4 r2 L1 Q; B1 R" @; I
ID : 21 o9 Q3 N; K8 o% M5 q; V
Format : E-AC-3 JOC* l) ~7 s' d- h
Format/Info : Enhanced AC-3 with Joint Object Coding- H* z6 M8 F  B6 v& d9 S7 i
Commercial name : Dolby Digital Plus with Dolby Atmos: w8 D2 p# K0 f6 Z# Z8 u
Codec ID : A_EAC3
8 B2 ?4 f( s* xDuration : 2 h 28 min
9 Q. A9 A0 [, J$ k9 s7 S1 SBit rate mode : Constant. {- P. g. y8 |$ x
Bit rate : 768 kb/s' F. k7 q/ f& K, h* v- _
Channel(s) : 6 channels
9 ~2 O( |( R. F$ gChannel layout : L R C LFE Ls Rs
; Y) e  `5 `  o' }' F" C4 jSampling rate : 48.0 kHz
6 F5 Q  ~: U# W5 X  OFrame rate : 31.250 FPS (1536 SPF), S" G4 s# L+ n
Compression mode : Lossy
8 Y2 k4 a+ R+ R' B' LStream size : 815 MiB (4%)* j: l0 l. P1 O/ _
Title : English' z; k7 Z( o9 T: h( Y
Language : English# H# Z7 y6 `# g
Service kind : Complete Main3 Y# v5 r2 a0 o" T0 K7 z% ^3 G
Default : No
: v9 s( \( @/ U" i( T  q/ ]Forced : No
' w# e; D& K$ p' S6 z; MComplexity index : 16
1 Y, d8 y# K/ V% h3 n: k! Q; y  _Number of dynamic objects : 15: `; [9 h" I# l2 [$ @0 _$ \: J
Bed channel count : 1 channel; E9 u  w! S* {# x
Bed channel configuration : LFE, K$ D: N/ V% R1 c2 b, X

: S% u2 S- K1 S/ aText #1! X2 z3 {- Y* Z
ID : 3
4 O3 T7 y5 D) o4 h% M  CFormat : UTF-8. G, V* ^" u1 M5 @+ s, }
Codec ID : S_TEXT/UTF8
. B" A0 v! U, zCodec ID/Info : UTF-8 Plain Text7 k8 b/ Z: d( j* v3 Z( t+ y6 w2 X
Duration : 2 h 23 min- B3 W+ H$ O5 T5 C1 G0 f+ ?
Bit rate : 55 b/s/ H6 j; f/ h+ Z; e
Count of elements : 1992
6 w' m" C3 ]7 c4 N/ @5 n- f/ b2 Z. oStream size : 59.0 KiB (0%)
5 i( Q: J  s& q: ?: xTitle : English [CC]
: b6 w/ a( Q$ b2 n/ lLanguage : English
2 ]' O( l; }9 O: h+ uDefault : No
- w* T* i7 r: D2 C1 H' o" UForced : No
% h2 |" v& R- u+ |: a; S1 S8 P! y: u) X
Text #2  L* w+ f5 x5 _, k7 r- L
ID : 4* h5 `  U+ t( @& B  |9 X
Format : UTF-8
* h8 i  f4 J% Q# w8 uCodec ID : S_TEXT/UTF8
7 l' K; c( c+ L/ m; r: P5 I/ iCodec ID/Info : UTF-8 Plain Text, L  @) Z7 K5 |, N& D% |; G
Duration : 2 h 26 min
+ l5 c$ [7 U, ]! H# p- y# X( aBit rate : 36 b/s/ c8 B+ D% H5 c+ j- V0 a
Count of elements : 1381
* I+ q* Y' X3 Y/ OStream size : 39.0 KiB (0%)  S8 B; e* ?, k1 V) U
Title : German8 `0 Z+ }' ]/ r  V
Language : German
$ Q0 P' q% U6 j1 |) ADefault : No
! R* n/ a" U- p5 P8 r- UForced : No
! Y  R6 L( E% a1 M9 f2 R2 {' b
" W" ^2 t/ i! B& F" B: {* O3 DText #3
9 f: p" k) F6 P; V: `ID : 5/ T6 e. l* f' a1 m1 Z5 m
Format : UTF-8
; R# S6 O5 Y! k- J0 ?. mCodec ID : S_TEXT/UTF8
( k# t, O5 r2 |$ p% I/ iCodec ID/Info : UTF-8 Plain Text1 U  O% @7 F% x1 e' C9 t
Duration : 2 h 26 min/ R& K9 j4 H0 Q1 w: _
Bit rate : 37 b/s' s( j" J- W) n$ x* A% P
Count of elements : 14115 `) T& q, O( |2 O# O5 i! L9 J6 {
Stream size : 40.3 KiB (0%)" _! g+ P$ {) U# V: _
Title : Japanese
9 Y) B9 g2 g' fLanguage : Japanese3 r/ D; m+ ]. ]5 y
Default : No$ t2 k$ Z  O# V& n/ {
Forced : No
/ Z6 Y( l+ E& K7 g% I+ i9 K0 }7 ]* s' C
Text #45 t" O5 \9 J' {0 }: L
ID : 6+ x3 z- X& X  x. j( n+ Z! h
Format : UTF-8, _; Z$ I8 s! d2 D
Codec ID : S_TEXT/UTF8
! o. P8 s. }9 U/ S- h$ L9 ECodec ID/Info : UTF-8 Plain Text8 v: A. D; T& Y, @0 U1 o0 z8 ~8 i7 {
Duration : 2 h 26 min& f# m- i, H4 W4 @0 B
Bit rate : 60 b/s8 D" C& [. f9 O) T1 v# r! Q" h
Count of elements : 1436# e: j3 S! J8 O+ Y- M4 i
Stream size : 64.7 KiB (0%)
6 d, F/ |6 _  X8 q8 a5 c& K+ RTitle : Greek
6 r( v9 g& T/ [. m% }' {" |% L1 [/ NLanguage : Greek
# J+ Q  N* D8 n( B2 `4 v9 v3 ODefault : No
& {  X& _% _4 f2 A) f1 YForced : No1 [& A# Y0 K% {2 L1 A  c
4 J. z6 _, R, y, I9 C# e
Text #5
& f9 W" v% H7 r1 QID : 7
! F" u, P% \: i; a/ SFormat : UTF-82 Q2 j% a" W1 h+ x6 A( o
Codec ID : S_TEXT/UTF8/ d5 }5 f! ~  i! n" s3 [7 w
Codec ID/Info : UTF-8 Plain Text6 q$ m9 H1 A% ~2 i' u
Duration : 2 h 25 min# h# J4 |  q0 ?) ?1 Y  n8 h
Bit rate : 64 b/s/ p2 }. A0 O- H. i3 s
Count of elements : 2149! _/ Q' {! B4 R
Stream size : 68.7 KiB (0%)# Q4 G% X: U! r1 ]8 _9 `9 |
Title : German [CC]
, b0 }5 Z; P% L3 g# i. t7 \; H! ULanguage : German
, A& e  x. ~' M1 yDefault : No" o$ P. \3 Z; ]8 z0 F
Forced : No- |" I9 Y$ e6 u  e4 Z7 @) ^
& S/ \4 z6 G" b2 i" E- P; r
Text #6
& O5 P" O) I5 L3 h1 ~ID : 8: o" E( W" x9 V+ K% d/ R
Format : UTF-8/ J" b0 g; r  I+ Q5 c2 H6 _
Codec ID : S_TEXT/UTF8$ O! O- @- o3 l; ^2 s! E% ]2 b
Codec ID/Info : UTF-8 Plain Text
; o2 I# k2 C1 XDuration : 2 h 26 min
7 S! y& o' ?3 O# h6 B$ x! RBit rate : 35 b/s
0 ~7 ~: i: B1 l1 o# ]: j: Q/ RCount of elements : 1413. {5 |8 g) j0 u% T+ ~. T' \$ `
Stream size : 37.6 KiB (0%)
$ e0 ?2 w# d1 f% @- \Title : Hungarian
8 A: n2 f8 w8 t1 `1 R: TLanguage : Hungarian% P8 w, ^9 b  x3 K9 e0 r* x- Q
Default : No
3 r- \8 U, q5 s' f% {8 zForced : No
5 H  f) P+ m3 ]6 u& T
1 s4 i, `8 D+ }. nText #7& w5 L* i+ Y3 L3 k7 J- @
ID : 9# h  L5 [/ I5 ]$ }
Format : UTF-86 U: D+ M$ ]- s0 H, A
Codec ID : S_TEXT/UTF8( q# b- B! F- g' e$ t- F0 z
Codec ID/Info : UTF-8 Plain Text
( v9 X1 }! X7 v1 F& d' _Duration : 2 h 26 min
& X  b5 p; i( n* Y: NBit rate : 36 b/s
2 Q0 J$ N' K2 K! y0 Y/ VCount of elements : 1421
9 n! |( v! |/ c$ s2 q0 u& ~0 hStream size : 38.6 KiB (0%)8 i  r- Y% I- F) y7 V
Title : Spanish: X; G8 b0 X$ p
Language : Spanish" F  Z* g/ J- ]" q/ E
Default : No
0 X7 }! j* z0 N8 I/ o/ h7 @! s) ]Forced : No
' T+ k/ {' q* z5 I. ]$ ^& a+ e( ~: s0 a$ F
Text #8% a" F, E& z! V5 J
ID : 10
9 `' f- S6 D; H4 MFormat : UTF-8/ R5 V1 N! b& i2 k
Codec ID : S_TEXT/UTF8
2 ^$ w% G# ?% k) I) QCodec ID/Info : UTF-8 Plain Text
7 ~; u* S$ ]6 ]# p4 ]0 l+ KDuration : 2 h 19 min+ u$ x# f8 O7 N$ \; n: Z3 u' C
Bit rate : 49 b/s# g% L0 `9 m* @- K. A3 X) h* e
Count of elements : 1752
. N5 Z; f1 P6 r3 J1 p4 r$ lStream size : 50.3 KiB (0%)
1 R1 Q. d/ I$ p  HTitle : Italian [CC]
) ?/ v4 ~" C" m4 D6 FLanguage : Italian
, J$ P. `/ w) ?# SDefault : No
. `) q2 A" w% [% c, Y1 ~( ^Forced : No: n7 b8 J, K5 n7 Y

# N* {# x8 y9 j  [Text #9
  Q+ S3 l. J- s1 s/ R2 AID : 11
& W  ?4 \! ~5 E! d7 W' Q3 ~: zFormat : UTF-8
! C$ \1 R8 o# H: e% J2 M, YCodec ID : S_TEXT/UTF8
1 v/ |4 r% R3 zCodec ID/Info : UTF-8 Plain Text
' A9 K. E9 s9 \! h' M3 q  z/ }! gDuration : 2 h 26 min" t! z) g. v# j! j& P1 L+ ]2 k3 F
Bit rate : 45 b/s  t$ W* ]- Z' k0 Q
Count of elements : 1473+ q! s* c3 `) H0 v$ O
Stream size : 48.8 KiB (0%)
1 Y- J0 y; l2 T* [Title : Korean
; ?  v5 n; g: z: _; pLanguage : Korean
7 R6 n$ i& d% d, C) Z! Q7 D; vDefault : No- a- S6 s( J& I7 o8 ]* x
Forced : No
8 ^( e( g: u1 o0 Y
0 Z% S! b$ t3 X) S: ?Text #10
4 {4 u' a+ ]6 l% L7 {ID : 12
% t+ p* M) r5 l: X5 R% DFormat : UTF-80 W7 v5 G" W8 G% G
Codec ID : S_TEXT/UTF8
2 r  l, G0 g; s5 o+ O' x" jCodec ID/Info : UTF-8 Plain Text' f: \; j0 X$ A! ^7 A1 m. N! H. p% }
Duration : 2 h 26 min3 o0 G2 Q0 T/ D" C: c- L- V4 v& g
Bit rate : 38 b/s8 {( u# e  e1 L% X1 \
Count of elements : 14551 l* a+ {9 l) `) ~+ U% _7 K
Stream size : 41.2 KiB (0%). S( j4 t) G- g# T. Z
Title : Chinese Simplified
* P7 \5 V2 ]6 j8 a6 i8 x7 QLanguage : Chinese
3 ?$ b8 n" t& {Default : No; D+ L& P# [4 f# X
Forced : No  k+ v1 w  t6 k
0 G: w9 x: R) ]
Text #11& C( I0 x9 u, J" H
ID : 13( P9 M- k' d0 @* H8 u- `- w  p# b3 i
Format : UTF-8
  P" f4 W; a( e4 lCodec ID : S_TEXT/UTF8% O; G+ W8 G: |+ ]* }" X
Codec ID/Info : UTF-8 Plain Text, {: m) `- [7 I/ T
Duration : 2 h 26 min" P. ~: }( n5 u6 U
Bit rate : 34 b/s1 p7 W; N9 O8 d7 `
Count of elements : 1364& @  l% x9 c0 ?4 d
Stream size : 36.9 KiB (0%)' L  |. X. `" P( v4 R
Title : European Spanish/ x( D1 _$ ~6 F) y5 ~
Language : Spanish
/ U, M* `4 _7 T9 \. KDefault : No
7 S2 Z8 A2 B  `9 i" L- Y( TForced : No5 K5 [+ U1 ]5 g: z! h" [
' j' ~) d' }; g5 [9 \1 t' w; Z( `
Text #12
3 T/ d2 w3 j  P8 }  a3 QID : 146 ?* a: R. n1 L' E  F% p' L
Format : UTF-8
1 R6 c" c/ T( _8 eCodec ID : S_TEXT/UTF8! ?8 R! J. z! ~, I. E
Codec ID/Info : UTF-8 Plain Text( h5 b- d" s" Y* w5 J0 h
Duration : 2 h 23 min% i/ k1 ~6 |9 l+ m: P1 B
Bit rate : 46 b/s
: D8 D$ M& g9 c" ^$ I% e7 KCount of elements : 1727; d2 V/ p! ?- i0 F* M# t
Stream size : 49.2 KiB (0%). e  T$ |8 u" _8 u* d1 U5 [
Title : Spanish [CC]" p1 _* ~0 T& z5 o& R/ Y7 B4 R
Language : Spanish
3 o' E! K% h+ \2 HDefault : No  R9 U2 Q, M" d/ e$ E' ?' X+ `
Forced : No
$ H9 Z6 \3 J- ]6 @, A$ Q2 E2 }
6 j" J9 _- l4 d5 _+ Z8 i# t, {Text #13+ z. P3 y3 u, H6 H- b9 \  m  f
ID : 15
- Y% R- G) f3 w8 x9 j6 I/ N! e5 MFormat : UTF-8* p0 l$ c7 R) v% Q4 u9 {
Codec ID : S_TEXT/UTF8
! f: G/ s! S1 T: VCodec ID/Info : UTF-8 Plain Text
( J& O& E, n( }! oDuration : 2 h 26 min% ~& e% ]: l2 @% _+ [
Bit rate : 36 b/s1 Y+ R1 t" Y, L6 ^8 l
Count of elements : 1373
. @) d: F/ H, Y& Q8 ^Stream size : 38.8 KiB (0%)
" T% H( w  \: ]2 p9 x1 C: p! c: N2 \Title : Swedish
: p9 r# ^' @  I) P0 W. U. t5 E3 qLanguage : Swedish
, O/ w3 w# I, S/ T, r  B0 `+ x) yDefault : No
/ d( ^& Q0 `$ B1 {; j' S7 m. eForced : No
3 S; V/ H" r+ I/ v: a
) f8 g- D" V' W/ bText #14
  K0 ^. @4 m) \0 O0 M) D, HID : 16
+ Y( |% h+ h4 t& A% c0 VFormat : UTF-8
# A- o! k7 K! Q: ZCodec ID : S_TEXT/UTF8; R6 o6 N$ [* }( Y* n
Codec ID/Info : UTF-8 Plain Text
9 i- s" S5 }( o& e. rDuration : 2 h 26 min
# T: {5 c3 R7 A1 i+ |) ~" dBit rate : 35 b/s- P: z! c+ u4 C. g9 h/ A% K
Count of elements : 1350; X% ?5 C0 ~7 w; q9 Q0 P. h0 \6 H
Stream size : 38.2 KiB (0%)" c1 `6 V4 X0 u$ U- S
Title : Norwegian Bokmal5 l1 e( ?. `! j" t
Language : Norwegian Bokmal# J# C4 }3 Y& L2 ^
Default : No2 ]0 @! d6 B: [* s0 U0 t3 D2 x
Forced : No
* ?; e, b8 g, {
( Z; x: {5 g# Z$ {; t. g, d; |Text #153 r" k$ V# Z& |+ U  ~
ID : 17
  o; r" @4 B2 [  m2 H) \0 |Format : UTF-8
" n$ o; _0 q# WCodec ID : S_TEXT/UTF8
. p! a  ]5 G1 D6 A- j& ]/ xCodec ID/Info : UTF-8 Plain Text
7 k' a9 Q0 O( s4 ]3 N) O/ NDuration : 2 h 25 min' q3 y, z, m1 w9 U$ {- Q
Bit rate : 33 b/s
0 K+ N7 I& ^, m+ r8 I6 f. F8 A* P% oCount of elements : 14477 ^6 i1 q# ~5 c
Stream size : 35.6 KiB (0%)
" D" U2 _% s/ n. ]" }6 [/ z' rTitle : Croatian5 Z8 N) T/ A* y/ u
Language : Croatian1 v& h% p( |9 ]4 H+ R- _0 l0 g& j
Default : No) q, ?3 U& ^! ]/ n
Forced : No# d* Y; X; X2 n( D) ^" I
( {: _- O- N8 b. o! I
Text #16* u9 v: ?6 u7 g6 E  c- F1 H5 a
ID : 18
$ Y/ I& P5 E3 e9 O3 hFormat : UTF-8
: p1 o0 @: o! K) ~# G4 FCodec ID : S_TEXT/UTF83 }7 ^& ]! W5 C% u; j5 [8 y
Codec ID/Info : UTF-8 Plain Text& {) v5 E3 E) c) }' r/ G
Duration : 2 h 26 min  O. K0 g, q1 ~/ _
Bit rate : 33 b/s' c. J3 v% F6 A( j4 G$ D
Count of elements : 1225( K& x5 K7 F* C8 j# t. ^9 _/ k
Stream size : 35.6 KiB (0%)) S8 j' N8 Q, q' W7 `1 a1 h
Title : Dutch2 ^1 B# |6 A# Q2 g* }
Language : Dutch
' X1 t3 s/ H3 H# V( i" j( KDefault : No$ I6 `. C; L: U3 e; O# W
Forced : No) b2 [: y, {! g) l9 f
7 g. i- _* z+ |
Text #176 L  D8 q; K. r, E
ID : 19
+ X3 [8 |' t% N& XFormat : UTF-8# _6 u$ n6 r0 [% }
Codec ID : S_TEXT/UTF8* Y% E# r6 w  _+ U
Codec ID/Info : UTF-8 Plain Text/ X& i/ ]3 T* X: b' m& |9 R5 w7 Z
Duration : 2 h 26 min
- `+ I  t0 L) X4 w# O4 pBit rate : 51 b/s, b, t0 ?7 I5 a7 Z7 p- r; O
Count of elements : 1422
. ?1 Z+ m( ]+ i% J. SStream size : 54.7 KiB (0%)$ v8 F4 O7 M* L; u
Title : Vietnamese8 C4 t) M) o8 D% ~+ J
Language : Vietnamese
1 G2 ?0 j" R+ g+ z7 LDefault : No
% p) n$ F) Q5 d- DForced : No; ^- N5 W1 U7 V5 ^/ d5 R: C

" Y! H6 v7 K* Y2 l6 }7 `5 f$ jText #18' X- O1 M2 `. [+ g
ID : 20
  E" H% q6 e3 d5 ^* f. l+ i- IFormat : UTF-84 B; [$ _$ J# e8 a* q7 G
Codec ID : S_TEXT/UTF82 ~8 p; O# F$ e5 H
Codec ID/Info : UTF-8 Plain Text9 A: I4 Q& Q2 }/ D9 L% F
Duration : 2 h 26 min8 ~! e. @2 a8 a" i# \* G
Bit rate : 95 b/s
  U: n9 x# b6 LCount of elements : 14547 ~4 f1 h. S# z9 u5 E0 R! p+ \
Stream size : 102 KiB (0%)
% F; K1 z2 h; UTitle : Thai
7 U' v: I3 L( @" x" h! f+ jLanguage : Thai- o% V  P! A0 v- `
Default : No
% {; d- s# J4 h* V- uForced : No
* w# D9 q# f* A# S" F9 a
- i; R; q+ `1 [  T3 _) e6 L4 hText #19
! y8 [/ P$ n* T: [( s1 pID : 21& f/ F( ?6 B  r2 t
Format : UTF-8, F6 k* y+ K( q, f, a* }
Codec ID : S_TEXT/UTF8
- a% t5 L$ z$ q  P, K- m: KCodec ID/Info : UTF-8 Plain Text/ c6 n( ^3 {6 ^: j9 U# o
Duration : 2 h 26 min
% R7 z0 H2 p9 l0 S& k7 gBit rate : 34 b/s- l( q  w. N3 z8 w$ [
Count of elements : 1444& y8 {3 ~# W3 S/ M1 u1 Y
Stream size : 37.0 KiB (0%)# ~% w: A* v' p5 |' G+ a
Title : Indonesian5 a6 X9 V" n. L0 ?7 A$ n8 Q1 D" l
Language : Indonesian
( ]( g  A$ E8 f( [Default : No
2 ]4 u9 {/ s  e+ ^" O; l! O& G1 FForced : No' S, e2 O8 j1 o- K, v
+ ~, e4 d0 |: u/ D
Text #20: f6 q% N( }0 A3 z( }) t
ID : 22
. N& w  Y: h! o: B6 \" qFormat : UTF-8% P5 d6 D+ g& \1 u4 y7 ^% S
Codec ID : S_TEXT/UTF8
  i( v: n1 v3 d9 i" H* B! RCodec ID/Info : UTF-8 Plain Text
9 I0 Q" h# T$ Z4 {  lDuration : 2 h 26 min1 l- g" c  Q" g! u
Bit rate : 35 b/s
) n5 [1 l; |5 m7 |$ [$ GCount of elements : 1401
; r" K6 s4 ?- a2 jStream size : 37.7 KiB (0%)
1 E: K4 E" t8 M# C% P% ]Title : Italian7 J3 {3 p& g* A. e
Language : Italian; w0 u6 G2 [+ t- ]
Default : No
1 @  T5 S7 B4 ?8 S$ L: S# B3 ZForced : No# Y1 t7 I1 T& T6 q

5 H8 E8 W+ V: Q& n  K) c; rText #21$ N; U, }$ L0 }! F
ID : 23
  j! ?6 w( \- K- lFormat : UTF-89 {" L7 W5 }' H" {; {; a6 g
Codec ID : S_TEXT/UTF8! k7 {* i9 I* ~; c' c  F8 P, f
Codec ID/Info : UTF-8 Plain Text' P' G; L5 a! H" e' G9 F! f
Duration : 2 h 26 min3 b( U$ t" J1 L( X4 X5 |9 S
Bit rate : 33 b/s
8 i; |& M1 e7 t6 J5 S/ `, GCount of elements : 1340
5 _' I/ t" z0 g. ?5 W8 `% hStream size : 36.3 KiB (0%). D) e- S$ ?& y" E/ _$ [
Title : Danish
& U* b. u8 T+ m" {, @# vLanguage : Danish7 @5 j" ?* S# a2 r: X: Q( @: ]
Default : No# b* D6 k) Q3 Z7 o% L
Forced : No2 e/ H- O9 ^/ J, O# d0 j7 }! [
8 v/ Q& K$ |8 r+ z7 |* L1 [
Text #22. w+ p9 V, v1 ~
ID : 24
9 n5 X1 d" |7 I) _: V: Z+ m: [Format : UTF-8
7 ], u4 ~% g" Q2 N1 v  t0 a- ^+ oCodec ID : S_TEXT/UTF88 W% r1 z& q% D) P
Codec ID/Info : UTF-8 Plain Text, D" ~& C' P7 d7 E
Duration : 17 s 584 ms$ m6 P; \( Q# s  U/ f, Z- o
Bit rate : 104 b/s
& A2 R% J2 H" z8 TCount of elements : 7& M' H6 e8 b. a; n1 k& V5 S0 B
Stream size : 230 Bytes (0%)3 ^3 ^7 P% [4 N
Title : English [Forced]% C' R0 h6 Y4 N$ a$ M- `
Language : English% T# u" F! }$ K5 p( \# i
Default : No
, L' ]. z) t) B. Q9 T1 rForced : Yes
. d$ U$ l7 Z+ B9 e$ E1 U- x' k; i) s
Text #234 X7 {' W/ k  x7 R
ID : 25
7 X& U( u+ V, l7 AFormat : UTF-86 b% d- H: t8 J1 ^( s
Codec ID : S_TEXT/UTF87 z+ l5 v: q( @& \6 s
Codec ID/Info : UTF-8 Plain Text
: p; I" T8 k' ^( e( V! [. Z) `Duration : 2 h 23 min  C0 ?: J9 z- U( |5 P& m( s
Bit rate : 50 b/s
8 Q5 T4 T; W7 O% WCount of elements : 1878( u% ]$ O" A- Z
Stream size : 53.0 KiB (0%)
* y% ?/ e. x1 }: s" A% C' ?Title : Brazilian Portuguese [CC]$ i9 i3 V, u. E+ r$ P) ]9 Q6 {
Language : Portuguese
# D6 G( O7 a0 c' ^Default : No
- ~$ e, t. a7 f. u7 s# w/ g" \; _Forced : No
2 _/ A% X8 F  B6 ?- }0 M- H' t3 ~1 V- r! U( B
Text #24
. H" ~% h' v. Z- V6 V4 fID : 26; ~4 [% D2 }5 x$ H6 P' }0 x
Format : UTF-84 }% ~) q  G9 C  Q
Codec ID : S_TEXT/UTF8: F. A" G4 x: E" |; ~4 a
Codec ID/Info : UTF-8 Plain Text
/ S9 l/ t5 s6 p# }' K' ~" `Duration : 2 h 26 min
' B  j$ Y( i& B5 t8 d) s6 eBit rate : 35 b/s* @) X: C& }% A9 t% R9 T9 C6 Z( e
Count of elements : 1367: G2 k, ~1 M; ?. s) M3 }5 @  B
Stream size : 37.8 KiB (0%)
; q$ O+ z2 e" z, jTitle : Finnish
% V' n: A- ^8 R- rLanguage : Finnish
: N6 M, W: `5 u( R6 ^9 ^( O, vDefault : No
: b5 `9 h5 G" k/ x/ AForced : No: _/ s( j; ]2 y
$ i4 Z# H8 Y: \3 G5 g
Text #25
/ {" N, P% P; \ID : 27) p- @% P: x6 g6 Y6 r: n
Format : UTF-8( R( r: j! m+ D; Z
Codec ID : S_TEXT/UTF8
7 m9 \2 G% x6 @0 [Codec ID/Info : UTF-8 Plain Text
3 s  s* d7 j# Q% X6 h+ w5 TDuration : 2 h 26 min
0 T/ a& ~4 i+ f# UBit rate : 58 b/s' s2 E$ o1 q( w$ G7 W( h
Count of elements : 1446
" `5 Y' ^  a& ~' U' n% tStream size : 62.3 KiB (0%)
1 _. I! m. _- eTitle : Ukrainian" W# e2 m7 h& A' z
Language : Ukrainian" v% y. Z8 a; Y7 I
Default : No: r9 L# |, i/ c- O8 ~; B
Forced : No
5 }/ ^: d, n3 e: O; ?; C5 a
: e* y) c/ j5 l9 oText #267 {9 g% T' ?! t4 G- p
ID : 28
4 U' w  Y$ _! h2 {( z5 ]Format : UTF-8
- q+ }3 L3 x5 ?4 XCodec ID : S_TEXT/UTF8. P  [( C! ]0 Z. v3 @
Codec ID/Info : UTF-8 Plain Text
5 z- E+ g8 m. \+ B! FDuration : 2 h 23 min
2 w, w; O5 l2 }8 L- ABit rate : 53 b/s
) {5 v0 N: ~5 rCount of elements : 1844
3 y) g3 H2 t: Z+ B3 K( `( r' fStream size : 56.4 KiB (0%)( s3 p% O# N7 _5 X  J8 K" t
Title : French [CC]
( \* O: x5 t  W$ `' M: RLanguage : French, b: @5 J0 |- @
Default : No
: A8 F/ s9 C& i' }& q( j% B% bForced : No' }/ U& X+ Q2 Z( C4 T) l5 F& n

! z& j! b% d3 E( b4 NText #27- h5 v+ b; `3 i  x$ G% H. m
ID : 29. m# q- g3 U# D9 r, g
Format : UTF-8
6 x# C" V4 T9 ]7 z& bCodec ID : S_TEXT/UTF8
, }' E3 v; f" }  `! b5 E3 k2 e+ ?Codec ID/Info : UTF-8 Plain Text4 j+ o% J" q* F: M
Duration : 2 h 26 min
4 `  X+ t$ _# t: ZBit rate : 60 b/s8 O" t' g5 @; d( G2 S9 |( e
Count of elements : 1403
* c& g$ q6 ^* n4 u5 OStream size : 65.2 KiB (0%)' Z) G4 ]/ W" V. f* q7 s
Title : Hebrew3 }% g# {% x0 Y
Language : Hebrew* i1 ~' C8 _' @, f) T! }) [$ L! T1 e
Default : No4 t% f+ K' d5 H+ c) w# P
Forced : No/ W" a( W  R) Q. s1 V1 W* U6 b! H

; p6 ]/ Q! p3 @  s( f  JText #28
5 t' o' H4 C' |& l$ v/ NID : 30- v* ^% C$ h, U' z1 _
Format : UTF-8( S: R7 q5 X# V6 y3 i
Codec ID : S_TEXT/UTF8; j+ t+ ~& M# Q3 Y
Codec ID/Info : UTF-8 Plain Text% @6 D1 j$ R( M1 c" L5 n
Duration : 2 h 26 min
. C% Q. |! Z- eBit rate : 36 b/s
4 C, Z' |" G/ Y# P4 ^0 D& LCount of elements : 1309% \) y( r/ ^/ o* `
Stream size : 39.3 KiB (0%)" F4 [. r5 }7 E4 S0 l4 T
Title : French+ l7 Y9 @0 d7 f4 r
Language : French, F" }' a# K" C: D0 L3 E
Default : No0 x* C# k' V. b* P7 p
Forced : No
6 S! v0 Y9 r8 O& |
1 ]: N+ q) M* H% k3 j/ ~! NText #29
  _. M5 j6 F, `: g7 Y* hID : 31* U( Y! @% \; Z$ B+ B
Format : UTF-89 m0 h8 E* P) ~/ g
Codec ID : S_TEXT/UTF8
3 c; n8 x4 Q9 KCodec ID/Info : UTF-8 Plain Text
) R' m$ ?& T$ fDuration : 2 h 26 min
3 k0 |1 `; c+ V1 t, n3 IBit rate : 35 b/s: _1 t8 F: G/ ~/ Z7 a- }7 z6 U- A
Count of elements : 1463
: u/ O1 d+ e9 j8 d% m( _. pStream size : 38.4 KiB (0%)
6 b: x+ i) C8 R1 P4 U4 b; hTitle : Brazilian Portuguese
; b1 ]2 K! V! A4 V, T/ h5 FLanguage : Portuguese
# B+ [# b: w9 U% ?* ~Default : No" K7 l, k( x5 c1 _
Forced : No, @, O9 m5 v# K4 {) ^7 k  a

+ h5 m6 K+ [7 H  iText #30: R0 z* g7 h3 J. m* T
ID : 32
3 ]. j5 Y8 r+ [  A, ^Format : UTF-8* D# _, m/ W3 I# x
Codec ID : S_TEXT/UTF83 s- e/ P& t1 e3 ?4 F: j, Q5 z) o
Codec ID/Info : UTF-8 Plain Text: U' `( }: q& [$ w0 {
Duration : 2 h 26 min: T2 S3 l- o$ m/ o: @- z) `+ h$ {; F6 n" \
Bit rate : 59 b/s& y( h4 Q2 ]9 q
Count of elements : 1447
0 n; d- `8 w" u# ^  k4 `9 l, G' ^Stream size : 63.5 KiB (0%)3 D8 `$ M* c2 a1 V/ L
Title : Russian" G, X* ^' E1 s! p' m& ?3 m
Language : Russian) \6 K% B4 f3 s/ w! i" g8 T
Default : No9 ~/ y9 k5 W3 ]/ L3 r# S# K
Forced : No
) t. d* t6 m, {7 p$ i. g- B' n/ x+ }. m% Z% f/ X
Text #31) E3 k$ P0 n% l4 N* a
ID : 33
9 u4 s" {2 N& O  ^) Z: k; i, W- c( gFormat : UTF-8
# W4 X( Z7 N% T1 a  p$ PCodec ID : S_TEXT/UTF8/ B! T* l- V+ y& C2 c0 a
Codec ID/Info : UTF-8 Plain Text8 D/ r" R3 l2 A4 ?3 D' \: G: \1 k6 m
Duration : 2 h 26 min
$ f* I. K& t1 \( ?Bit rate : 30 b/s
9 g6 v! R; j. |, r% {, MCount of elements : 1403" R$ N5 ?1 R* f  M
Stream size : 32.6 KiB (0%)
/ W' \, U' C3 e6 p9 D$ A- \Title : Polish
9 j/ w- C  q, H* \( zLanguage : Polish
7 D/ b( |0 Z$ [1 r) w3 t6 \Default : No
$ z, p9 U+ t: H$ @5 E6 k: e/ ^Forced : No6 Z& P6 y6 y" x2 h; k0 k5 ^

2 ?) o: D, A+ F  y3 qText #32
) E; @3 G: f$ SID : 34
  n! q/ J$ L4 QFormat : UTF-89 r2 I/ A2 z  `6 P9 R1 W
Codec ID : S_TEXT/UTF8
, o! A7 f' y4 M# C# bCodec ID/Info : UTF-8 Plain Text) [+ a2 q4 _( L! n
Duration : 2 h 26 min
) G- u; ?: b/ `7 K9 E  e5 ~) R; pBit rate : 37 b/s& _- a# d, |/ G3 f" e/ L
Count of elements : 1310
" M; K- W. c( H2 k: P6 N: n- RStream size : 39.6 KiB (0%)& t' G3 O  w/ N' I
Title : Turkish
4 Q8 l, R6 U8 R! A& [! A8 @3 VLanguage : Turkish
2 H; t- a* h; V5 sDefault : No7 N! M# I  H8 ?) p
Forced : No$ i. U& m' r, K, w4 `2 n9 g5 [6 x
9 p8 E. b( H' @! j4 |+ _0 g
Text #33; f3 c- {4 F' b; t+ E3 S9 n% Q8 b4 @$ S
ID : 357 K- `# ^# E1 Q: j
Format : UTF-8
7 [; l9 U3 n4 F5 F% x% M7 @& lCodec ID : S_TEXT/UTF8
+ ^0 C1 A$ n8 R7 S5 J4 ]Codec ID/Info : UTF-8 Plain Text8 h: s$ Q, p! E/ Q. i9 ?7 w
Duration : 2 h 26 min
+ g) F) F& r, cBit rate : 35 b/s1 a0 d/ [! O; I  C+ `8 H
Count of elements : 1448
, l5 W- j( Q( K# p9 M" D) aStream size : 38.2 KiB (0%)
9 S% ~4 D- }: F6 Q7 ]& ^Title : Portuguese# P: m& Y' a) I3 S3 R
Language : Portuguese
, |4 ]) D& F1 v, u! XDefault : No- A- l0 `4 C, |+ H
Forced : No' C  H* u- K3 H" o; [1 o, ~' B

9 t6 N5 n% n$ C, @" p/ U1 vText #34
+ w) l; f" E; S0 k; aID : 36# I9 G' f. {2 \
Format : UTF-8& [8 R" u9 R# a
Codec ID : S_TEXT/UTF8
) H2 }* H5 D7 [- SCodec ID/Info : UTF-8 Plain Text
$ h+ y  x$ V; Y3 I4 JDuration : 2 h 23 min& E/ ?' V) z+ Z
Bit rate : 132 b/s: j: u: Y, C! G& E" s/ a1 k9 E
Count of elements : 1842% B2 R. D6 _7 Y! z6 K
Stream size : 140 KiB (0%)5 g& K1 F4 ^% g- c, W+ {4 l% w% u
Title : Hindi [CC]
( k- z, d* z! hLanguage : Hindi- P7 a0 D. ?: K' D& b& B' h
Default : No
8 K$ y2 ?2 i* u  K( z( l, U: T5 e6 |Forced : No2 i1 K- x! B, }: P+ ^

) y8 b2 E& u: L, ~Text #35; |* z3 a& m4 l5 w2 m1 A
ID : 370 F5 H* {- e" U9 T: U; u
Format : UTF-85 V5 V* G% B! r# e0 L3 P
Codec ID : S_TEXT/UTF8! U) @% j2 ]/ M4 y# E4 H
Codec ID/Info : UTF-8 Plain Text% z1 d8 O+ ^, @8 t
Duration : 2 h 26 min/ P) {) u2 }6 O% M
Bit rate : 72 b/s: d: Z( @0 p2 N) |' B" X
Count of elements : 1460( a6 G6 N9 U: P& R4 F3 M$ F
Stream size : 77.9 KiB (0%)
) t3 |0 @# K2 J4 xTitle : Arabic
( l' G/ l' D4 _! e) |+ U$ ?Language : Arabic7 T* x! h* R" J' |; r: v  m
Default : No
' O- }6 }4 |+ l& I4 z, o' a, CForced : No/ o4 D; B, G5 ~' G$ b, B4 }0 x& Z. D
. q% w3 O$ G- T; q4 g3 u
Text #36
$ i9 O% h! _) H5 q, f$ cID : 38
; q& d- F  t, o$ A2 lFormat : UTF-88 Q3 ]  C1 g* E
Codec ID : S_TEXT/UTF8
* }$ ~9 q) |5 @9 w. HCodec ID/Info : UTF-8 Plain Text2 r5 [9 }# ?9 I
Duration : 2 h 26 min& \7 }1 q, A; \2 K; D
Bit rate : 33 b/s
/ U/ ?( G# F% A/ {- m. I* X# QCount of elements : 1445; O# ]- I; F5 k5 n& y
Stream size : 35.8 KiB (0%)
9 N: ]% ?1 I4 u% oTitle : Malay5 [' ^' ]% l7 b
Language : Malay
9 _, Q- V/ H3 \4 h9 f6 `Default : No, N5 c: |: V, v% A
Forced : No
# X, A3 M$ h& p: x/ V. D3 ?8 W
9 m2 X6 [" A% ^' ]2 K& kText #371 r: q2 T* L1 {: [
ID : 399 D1 b: E# \! j8 z5 \" v
Format : UTF-8) |7 p+ B3 I8 }! w  v+ c* p8 p- z
Codec ID : S_TEXT/UTF8# ^; a& @7 A2 I! h- m2 u: ~
Codec ID/Info : UTF-8 Plain Text$ }* U  D' ]) F8 ]
Duration : 2 h 26 min: j9 N" y' J9 @* c9 D1 C1 k
Bit rate : 35 b/s
* R2 E) S, f, t8 UCount of elements : 1448: k3 c/ x. A# e
Stream size : 38.3 KiB (0%), i  Z4 f5 ?) ]  @- {6 }
Title : Czech; V1 h( U) @% H/ ^; Q6 j
Language : Czech
) T9 d5 {* m4 L- W& h0 U* y: ?3 uDefault : No: N) w/ G: ^& \9 X0 B; I& s
Forced : No, A5 s7 A. r, F$ j; _. J: n
9 B6 }. P& @4 f9 v3 L( q
Text #38- q) z& K0 Q! B1 m$ O8 N% k6 m, Y
ID : 405 _0 D1 |9 b8 \, Z. g
Format : UTF-8
) V& C7 F4 r4 r4 L1 ?Codec ID : S_TEXT/UTF8
# a9 ~/ x& Z# J0 K5 zCodec ID/Info : UTF-8 Plain Text7 D! x9 G! W! z
Duration : 2 h 26 min4 j' [& q  m: n" ~1 L9 a" r) I( f
Bit rate : 40 b/s) j0 A  H. w1 ~' Q! h( K) t
Count of elements : 12994 \* a+ g( E4 Q% Z* x0 r2 i
Stream size : 42.8 KiB (0%)
" V3 W1 j9 L9 g% [" qTitle : Romanian0 S/ ], E0 X; S! Q9 V
Language : Romanian( P* i! U& O& ?" w6 ]$ c" t6 z
Default : No% g. @; n( Z/ e% T+ B9 i$ b3 Z2 [) X
Forced : No% j! @9 I; b+ m3 L( G
: V! g0 S' k& p2 k- \* M1 O! M; b
Text #39: t) T2 {7 A% Y7 K6 c& Z
ID : 416 ?. ]; U+ z& j# J
Format : UTF-8, ]  c: n* N, c# R) |5 x" J
Codec ID : S_TEXT/UTF8
; B; z' b7 E5 D2 D( f0 _  fCodec ID/Info : UTF-8 Plain Text
) R4 n' j( O# D+ M! pDuration : 2 h 26 min
; S( }  |2 y8 e6 l+ VBit rate : 38 b/s6 w8 s" h# P$ I( D6 \7 ~: e/ \% f5 w
Count of elements : 1529
9 G3 g: Y4 J3 w# JStream size : 41.5 KiB (0%)7 |' c# N5 k. Y' H5 D/ y' }* }
Title : Chinese Traditional" v* r3 [' v8 B7 c: W2 l3 f
Language : Chinese
3 L$ p% s! }. r' q2 p' T3 R" t% lDefault : No( K0 w0 R! b0 R% a% ~$ l9 E% ?
Forced : No
Video& y9 b5 K. c8 h5 l2 r& i
ID : 1- `% \# e) H( Q# r7 Y
Format : AVC
2 t$ ~$ f' C; A0 lFormat/Info : Advanced Video Codec2 X, ]0 z) G% f- J' l+ L
Format profile : High@L4.1
" t% h7 s! y5 t% i1 |& g. V0 GFormat settings : CABAC / 4 Ref Frames; t9 N& w; w* \, g) |/ c6 [5 a" X( V
Format settings, CABAC : Yes$ N0 ?4 f. j6 m4 J
Format settings, Reference frames : 4 frames
. v$ V, Y4 Q4 i6 _" o. b, y5 QCodec ID : avc1$ W7 W& B9 W1 j, f9 h
Codec ID/Info : Advanced Video Coding
- T% m8 L$ G" r' J' z% f- s2 HDuration : 2 h 28 min
/ g# I) [1 k- D6 n  W! ~% `8 m* ^5 Q" A" ^Bit rate : 2 500 kb/s4 b  ?$ w: `9 P  C: k
Width : 3 160 pixels+ K, ]5 g9 I3 F
Height : 2 160 pixels/ h9 f8 H* d, N+ t% K2 ^! t  A  U8 q
Display aspect ratio : 16:9) \5 F1 e( r, h9 D. I
Frame rate mode : Constant: Y. h, S/ @- p! J% |* u
Frame rate : 24.000 FPS. o- l/ E6 T% E
Color space : YUV
; }/ g. ]+ o7 m/ dChroma subsampling : 4:2:0( p1 }/ e1 `/ h; a5 z
Bit depth : 8 bits
, U; o" S4 U7 EScan type : Progressive# o2 H  l$ m; ^5 G  ]7 \* n
Bits/(Pixel*Frame) : 0.050
9 K/ h  F) [' A$ [+ x( X: r  R9 yStream size : 2.59 GiB (92%)2 W( ~: _( Y$ h4 x5 `* }' n# Y1 y
Writing library : x264 core 152 r2851M ba24899
4 ]& d6 M6 N3 i8 P* m* tEncoding settings : cabac=1 / ref=4 / deblock=1:-1:-1 / analyse=0x3:0x113 / me=umh / subme=9 / psy=1 / psy_rd=1.00:0.15 / mixed_ref=1 / me_range=24 / chroma_me=1 / trellis=2 / 8x8dct=1 / cqm=0 / deadzone=21,11 / fast_pskip=1 / chroma_qp_offset=-3 / threads=16 / lookahead_threads=4 / sliced_threads=0 / nr=0 / decimate=1 / interlaced=0 / bluray_compat=0 / constrained_intra=0 / bframes=3 / b_pyramid=2 / b_adapt=2 / b_bias=0 / direct=3 / weightb=1 / open_gop=0 / weightp=2 / keyint=250 / keyint_min=25 / scenecut=40 / intra_refresh=0 / rc_lookahead=50 / rc=2pass / mbtree=1 / bitrate=2500 / ratetol=1.0 / qcomp=0.60 / qpmin=0 / qpmax=69 / qpstep=4 / cplxblur=20.0 / qblur=0.5 / vbv_maxrate=31250 / vbv_bufsize=31250 / nal_hrd=none / filler=0 / ip_ratio=1.40 / aq=3:1.00
- a/ F: H$ r3 o4 R5 WEncoded date : UTC 2021-05-21 07:06:02% ^& C, R, U0 @! q" p
Tagged date : UTC 2021-05-21 07:06:02% m, ]/ ?/ J; l2 h% |
Codec configuration box : avcC7 Z" `; h3 ~$ @- B1 ]% H

6 Z+ k' Z- _' E9 FAudio
  b- {% Z# V/ f4 i$ @0 m- q; VID : 2
/ f5 G0 }- {( p" [. `  G. [. D* U* h7 ]9 @Format : AAC LC$ I6 l( ?  ^* i9 d- ^
Format/Info : Advanced Audio Codec Low Complexity8 s+ z7 G; E( g3 ~# h
Codec ID : mp4a-40-2
/ f! L5 H/ E( @4 iDuration : 2 h 28 min9 ]" U5 C: f/ W2 j9 s( A& H. M
Bit rate mode : Constant
0 t! S& t3 Y% U' z0 e7 @Bit rate : 224 kb/s
$ a& L7 C/ Y( A9 \# P4 \Channel(s) : 6 channels& d4 K# F7 G) S: x5 g: [/ a: P4 h
Channel layout : C L R Ls Rs LFE
! h9 G% z# C5 Z* x! J- ?& g+ VSampling rate : 48.0 kHz' _6 S& [1 B1 E7 M7 S3 E& [
Frame rate : 46.875 FPS (1024 SPF)
2 Q, @% @# E5 [. d% bCompression mode : Lossy
! M+ A# o% G- X: pStream size : 238 MiB (8%)* a5 @" P" Q& U
Language : English) g, o2 f( n, _+ g  ]/ S0 g
Default : Yes
9 N& E3 j1 ^( ^& L# v& x5 _Alternate group : 1
2 D7 `( }2 ?6 n/ OEncoded date : UTC 2021-05-21 07:06:02
8 `; j2 [8 m) [Tagged date : UTC 2021-05-21 07:06:02

3 }; R0 x8 u: r1 h- w
游客,查看本帖隐藏内容请回复 | 加入VIP贵宾可免积分免回复 了解详情 | 还不是会员:点击获取邀请码 Invitation Code

0

主题

28

帖子

209

积分

Sponsor

金币
113 枚
体力
38 点
wade414553085 发表于 2021-5-26 18:45:23 | 显示全部楼层
每天都来蓝光论坛看看,我爱蓝光电影。  f+ B' E# m0 m) u8 N3 Z
Bluraycd.com movie updates really fast, also did not release issued, whether you believe it or not, anyway, I believed!

0

主题

6

帖子

168

积分

Sponsor

金币
144 枚
体力
11 点
xiaoshatao 发表于 昨天 21:41 | 显示全部楼层
活死人军团/亡灵大军 [4K高清版 内封中字] Army of the Dead 2021 2160p NF WEBRip x265 10bit HDR DDP5.1 Atmos-TrollUHD 18.37GB & 5.8

76

主题

2758

帖子

1万

积分

Sponsor

金币
1312 枚
体力
3839 点
lanpanshuma 发表于 2021-5-22 17:17:55 | 显示全部楼层
看了LZ的帖子,我只想说一句很好很强大!""+ X7 ]$ C$ s8 c9 `% T- ^
祝愿蓝光社区越办越好!I wish Blu-ray communities better and better!/ w! x* I; N  a
该会员没有 ...

1

主题

50

帖子

328

积分

Sponsor

金币
12 枚
体力
209 点
baishanyang 发表于 2021-5-22 11:52:08 | 显示全部楼层
每天都来蓝光论坛看看,我爱蓝光电影。
+ K+ o  C! _- \" u/ i祝愿蓝光社区越办越好!I wish Blu-ray communities better and better!

0

主题

15

帖子

224

积分

Sponsor

金币
130 枚
体力
62 点
QQ
hqk 发表于 2021-5-23 16:38:31 | 显示全部楼层
出来真快,赞

0

主题

35

帖子

355

积分

Sponsor

金币
88 枚
体力
193 点
wuziwen 发表于 2021-5-24 21:03:50 | 显示全部楼层
每天都来蓝光论坛看看,我爱蓝光电影。

0

主题

113

帖子

579

积分

Sponsor

金币
2 枚
体力
355 点
狐狸打扮也是猫 发表于 2021-5-25 08:49:42 | 显示全部楼层
果断回帖,如果沉了就是我弄沉的感觉很有成就感!$ o! m  y: ?2 ~# T+ D
Your resources, well, I am very satisfied!' I- h. Z; f/ J* Q1 H" C' G

0

主题

58

帖子

277

积分

Sponsor

金币
23 枚
体力
139 点
defend 发表于 2021-5-25 22:00:59 | 显示全部楼层
谢谢!收藏了!

0

主题

130

帖子

1425

积分

Sponsor

金币
65 枚
体力
1100 点
mycjk 发表于 2021-5-27 21:47:15 | 显示全部楼层
每天都来蓝光论坛看看,我爱蓝光电影。! g6 v: Z1 D) f
祝愿蓝光社区越办越好!I wish Blu-ray communities better and better!
9 K9 G. h7 c6 s% q, r

本版积分规则

小黑屋|Archiver|蓝光电影资源网

GMT+8, 2021-6-12 18:44

快速回复 返回顶部 返回列表