BluRayCD Forum

 找回密码
 立即注册【分享大片】
查看: 10|回复: 1
收起左侧

[蓝光原盘] 人造怪物 [REMUX无损版] Monsters of Man 2020 1080p BluRaycd REMUX AVC DTS-HD MA 5.1-FGT 30.39GB

[复制链接]

5622

主题

5796

帖子

6万

积分

Post Share

金币
12801 枚
体力
19306 点

卓越贡献勋章

黄金嫖客 发表于 前天 18:37 | 显示全部楼层 |阅读模式
A US weapons manufacturer tests its 4 killer robots on heroin producers in the Golden Triangle in SEAsia. It goes haywire.
( B) l) A, l* ^5 g5 B( W( Q
7 M8 s* v( R' b+ E5 s' Z' U
1 U; i$ G( r6 D
$ t4 _0 b/ L' @. W◎译  名 人造怪物
% B+ M+ o2 Y" U8 a* o) R◎片  名 Monsters of Man/ D. l2 b7 E0 t7 ]- A3 D6 u
◎年  代 2020
1 z! |. r( E+ r. i5 v& `* C◎产  地 澳大利亚) I+ t6 \4 F0 X1 B/ j- _+ j+ M
◎类  别 动作/科幻/惊悚
2 Z  A+ V& t" U4 E% l* ?5 R◎语  言 英语5 [& @# Y  u% x7 d  F; B9 \; |
◎上映日期 2020-12-08(美国/巴西)5 J, T; T9 e+ V" p) K/ O
◎IMDb评分  5.3/10 from 3,940 users) s# O  n4 g1 z' U2 z: {. y, q
◎IMDb链接  https://www.imdb.com/title/tt6456326/3 Y2 l5 o9 m9 q% ~
◎豆瓣评分 5.8/10 from 2,363 users
& r; ~; d& g4 r& f" c◎豆瓣链接 https://movie.douban.com/subject/35151580/7 }3 l+ n' C2 O+ O; h" m/ x" [
◎文件格式 x264 + DTS 3 J- {; x! h! i  A
◎视频尺寸 1920 x 1080
) t3 T& A4 q' z3 h2 x  [2 Z3 t; g◎文件大小 1DVD 30.39 GiB
0 V1 H6 Q, l$ k/ h: j1 V. e# P% i◎片  长 2 h 11 min
4 l6 O  }3 ~( x# q, u, C◎导  演 马克·托亚 Mark Toia
! |, [2 w& r  K; _" C2 N* i' B2 d◎编  剧 马克·托亚 Mark Toia3 }# M3 ^+ q% S7 N4 J: C, }9 w6 j
◎主  演 尼尔·麦克唐纳 Neal McDonough
+ g  M5 e2 d8 }  H3 m; ]$ U9 ]       乔斯·罗赛特 Jose Rosete
1 [8 k& M) A6 q# h3 o       凯利·陈 Kayli Tran' d5 j- L2 W/ d3 B% i
       杰西卡·布莱克莫尔 Jessica Blackmore4 g' D, |, S* }/ P6 R
       大卫·萨马廷 David Samartin
& W) ?( {  `3 o) F       泰勒·利·爱德华兹 Taylor Leigh Edwards/ y. Z: u5 u5 j$ `5 w
       大卫·哈弗蒂 David Haverty4 h1 n( G' V+ p9 A1 C( i* _1 Y
       保罗·哈帕尼米 Paul Haapaniemi
  K1 T' g6 u3 {- j* x       布雷特·特雷诺 Brett Tutor
+ F7 Y4 [; V& W2 m7 x6 m       康拉德·K·普拉特 Conrad K. Pratt
. k7 r! j7 H6 M6 {; v3 {/ H! {* R       乔蒂·杜伦纳 Jordy Tulleners& b; v4 t$ P" A" v
       塔蒂安娜·马尔贾诺维奇 Tatjana Marjanovic
6 d2 F) x2 b: x' i, ]& N; X# ^
◎标  签 科幻 | 美国 | 动作 | 2020 | 惊悚 | 美国电影 | 犯罪 | 恐怖
; W; @8 \- m% Y% r7 l- l; @
4 l" Q  o1 R( y$ s& H' d◎简  介     
, f# m4 v0 T3 r' T  q, H" T, ?" g5 f1 P; S4 k* i$ y" N
  一家机器人公司与一名腐败的中情局特工联手,试图为自己定位,以赢得一份利润丰厚的军事合同。他们非法空投了4个机器人原型到臭名昭著的老挝、柬埔寨和泰国之间的金三角地带,对毫无戒心的毒枭进行现场实地测试,这是全世界永远不会错过的。其中一个机器人在空投中受损,机器人技术团队在它变得自知之明时失去了对它的控制,成为一个势不可挡的杀人机器。
* i9 R% Z, x2 V! y' v& ?. s
7 t/ I& Q" L) {  A robotics company teams up with a corrupt CIA agent undergoing an illegal, unsanctioned military operation. Dropping four prototype robots into a suspected drug manufacturing camp in the Golden triangle that no one will miss. The mission is to prove the robotics company is worthy of winning a lucrative military contract. Six doctors on a good cause witness the brutal slaughter of an innocent village and are forced into a deadly game of cat and mouse as they become the new targets.$ ?9 q' F+ b( u8 U3 q+ s& V2 p4 T
2 E! P& c" N2 x) k
Video2 [1 O5 E8 ^5 \
ID                                       : 1
9 b, V( y; L* t: {4 j! x, m5 D$ gID in the original source medium         : 4113 (0x1011)
0 j. }3 ~$ ^- j* |5 |& q$ qFormat                                   : AVC# Z9 P- R  Q/ m" b( x9 s* f
Format/Info                              : Advanced Video Codec
9 N( P$ i9 t0 d* Q  kFormat profile                           : [email protected]
/ c, [- @0 D/ r, ~: d$ hFormat settings                          : CABAC / 4 Ref Frames6 I' H, ]7 s7 e$ J* V
Format settings, CABAC                   : Yes6 k3 Q8 u6 L; _8 b0 L
Format settings, Reference frames        : 4 frames
& N% y" e0 U% P" p# {! T; iCodec ID                                 : V_MPEG4/ISO/AVC
) D; G0 u3 Y. r+ o# lDuration                                 : 2 h 11 min) W9 S! i2 t* ]; _3 b4 S2 q
Bit rate mode                            : Variable
% E) x" {+ ^( F5 I1 b: t7 wBit rate                                 : 29.8 Mb/s5 h( A' W1 I5 M( [
Maximum bit rate                         : 37.0 Mb/s
# R/ h# @: \  Q' M: r( mWidth                                    : 1 920 pixels
! W. C! s# `8 m2 {  a: v+ {Height                                   : 1 080 pixels
/ e$ ?: M( F3 X5 e1 K' _# |& vDisplay aspect ratio                     : 16:9
6 C6 k1 q( d$ C8 fFrame rate mode                          : Constant
# b4 ]- Y; U% U' I) EFrame rate                               : 24.000 FPS
0 t4 M9 [9 Q0 {Color space                              : YUV
, }* j5 p" {! P! FChroma subsampling                       : 4:2:0
/ I4 l' D. r! [# L1 \" aBit depth                                : 8 bits3 M! i- B: e7 |- j/ X0 ^- L
Scan type                                : Progressive9 v% P' L* U0 J! ]  v
Bits/(Pixel*Frame)                       : 0.598
4 E, ], ^7 D: c8 s% Z; tStream size                              : 27.4 GiB (90%)
4 c; C2 B$ d: M2 V( L4 V( e6 U0 PTitle                                    : Monsters.of.Man.2020.1080p.BluRayCD.REMUX.AVC.DTS-HD.MA.5.1-FGT
3 ?( n0 g5 n" @# w3 _! O4 cLanguage                                 : English
% n/ s8 m$ e, N% U& qDefault                                  : No5 j* k3 h; M, D" U8 i
Forced                                   : No
3 B9 L( }* F  cOriginal source medium                   : Blu-ray' C5 h- H; B8 r+ C# |" M4 }$ ~4 Y  A
; @7 E, v( b, O2 s, B4 m/ `$ s
Audio  R4 J$ e8 K- ^, G
ID                                       : 2
& n  i9 y7 d( K9 PID in the original source medium         : 4353 (0x1101)- |" k6 m/ a+ d# w' a
Format                                   : DTS XLL
/ A! `( }, p" Z  DFormat/Info                              : Digital Theater Systems# i6 Y( c) o9 ~8 P+ y
Commercial name                          : DTS-HD Master Audio
2 e  k; N) [* s) s3 h* G9 NCodec ID                                 : A_DTS/ S/ S& i6 e( a/ ], g2 @
Duration                                 : 2 h 11 min
* _" N1 Q& b* |* [  gBit rate mode                            : Variable8 ^3 E  v  x1 r( q+ y) k2 V% e2 _
Bit rate                                 : 3 210 kb/s
$ Z8 s2 H# W, N- a" r( W3 J' x$ |Channel(s)                               : 6 channels+ M- N& P# r5 u# \* M5 x5 T
Channel layout                           : C L R Ls Rs LFE
; }$ C. Q4 o& K5 ], ^3 n/ g, `Sampling rate                            : 48.0 kHz) {8 ~" y# ?2 P8 J. L7 p
Frame rate                               : 93.750 FPS (512 SPF)% E, e: W3 H4 D; I
Bit depth                                : 24 bits
1 N0 ?  _/ B9 d/ d5 h; OCompression mode                         : Lossless" C7 N  b) b4 Y1 n5 R
Stream size                              : 2.96 GiB (10%)) v7 \8 L; c6 z2 n" _
Title                                    : Monsters.of.Man.2020.1080p.BluRaycd.REMUX.AVC.DTS-HD.MA.5.1-FGT( L+ h% W/ a( c: L6 O
Language                                 : English  n1 Q9 S' E: X2 i5 }
Default                                  : Yes
! Z9 k% c1 @' A% J% H1 [" GForced                                   : No
  `. R- u& H" i* x. y% EOriginal source medium                   : Blu-ray) r) L6 v- G# ]% D
0 {1 b* K. U7 g1 z; p' d; c8 O3 \
Text #1
5 B3 s( N2 P, k" p* ~7 i/ HID                                       : 39 Q5 m: c; B  _; F, w5 T6 j/ F
Format                                   : UTF-8; O% i. i: ]5 {+ J# {
Codec ID                                 : S_TEXT/UTF82 J' C2 E. A; b" n% y/ w! |4 R- Z
Codec ID/Info                            : UTF-8 Plain Text1 K  a! `# y6 ^4 V
Duration                                 : 1 h 51 min& c; `6 `8 p: j8 ?
Bit rate                                 : 1 b/s% l9 M( u, m! [6 j7 }( Q
Count of elements                        : 50+ {- m9 L/ K$ X9 T; O) }
Stream size                              : 1.04 KiB (0%)
. o/ v& R# O  |3 S4 ]; gTitle                                    : FORCED/ q0 }$ \1 y. W
Language                                 : English
/ j6 ^) B$ T9 r# iDefault                                  : Yes5 x, {2 u6 A# U
Forced                                   : No- q0 U+ C- {( {( G" Q+ K( b  P
0 x; p$ B' B5 u2 ?4 o3 Y9 X
Text #22 \7 d( {8 v# V, _" D0 v
ID                                       : 4& e7 l; b( P* Q' \# `: ^
Format                                   : UTF-8
2 L/ f( J( Y, g. V& \4 PCodec ID                                 : S_TEXT/UTF8
) ^4 h* Q4 n& @: WCodec ID/Info                            : UTF-8 Plain Text8 @' H, X* Z3 g$ d2 M
Duration                                 : 2 h 4 min; f( \! e6 w: c+ M, c% @+ `
Bit rate                                 : 43 b/s& p/ F9 I4 ~2 y
Count of elements                        : 1602) T3 x( a! f* j& d
Stream size                              : 39.8 KiB (0%)
3 S0 v. n/ }, |% W& M4 o  VLanguage                                 : English; `( w0 @$ G5 H8 l
Default                                  : No
  D% i* q' U" aForced                                   : No
8 ~0 q1 K# x* v* G/ C' N/ Q& W! w" w& {0 V" k; ~! _+ v
Menu
8 ~- l/ C8 y& N8 U  N+ E1 V; ^00:00:00.000                             : Chapter 016 B4 J! ~* W9 c) U+ w1 J5 ]# g! y" Y
00:12:10.083                             : Chapter 02
1 A4 i6 ~& a8 r: c$ b00:21:34.375                             : Chapter 03
, z% r* ?# A* x4 L* _00:32:43.291                             : Chapter 04* K  F6 }' g+ A4 ?
00:54:11.041                             : Chapter 05
. D3 j1 C, e7 P3 _01:07:39.625                             : Chapter 06
" T  t/ j( O/ ], f" f01:18:08.125                             : Chapter 07, t! D" ^8 [6 j; y" p) h
01:30:46.791                             : Chapter 08
1 g# U/ E. T1 E2 f+ i01:39:52.208                             : Chapter 09
4 X+ m: Z  f9 E8 g, e  s! |4 h01:51:40.000                             : Chapter 10' I: n0 j5 O( U3 \8 m; V4 M
02:03:41.458                             : Chapter 11
/ Y8 |; i1 |, ^
游客,查看本帖隐藏内容请回复 | 加入VIP贵宾可免积分免回复 了解详情 | 还不是会员:点击获取邀请码 Invitation Code

76

主题

2758

帖子

1万

积分

Sponsor

金币
1312 枚
体力
3839 点
lanpanshuma 发表于 前天 23:54 | 显示全部楼层
楼主发贴辛苦了,I*老*虎*U!
: Q7 R/ T/ y, u* i6 Z$ ]' @至少是现在,我一天没有访问蓝光电影论坛就不爽!At least now, my day did not visit the Blu-ray Film Forum on unhappy!
# ~( J+ `4 ]$ w8 e1 b2 |+ v$ w
该会员没有 ...

本版积分规则

小黑屋|Archiver|蓝光电影资源网

GMT+8, 2021-6-12 19:35

快速回复 返回顶部 返回列表