BluRayCD Forum

 找回密码
 立即注册【分享大片】
查看: 28|回复: 4
收起左侧

[蓝光原盘] 拆弹专家2 [REMUX无损版] Shock Wave 2 2020 CHINESE 1080p BluRaycd REMUX AVC DTS-HD MA TrueHD 7.1 Atmos 7.1-FGT 40.52GB

[复制链接]

5622

主题

5796

帖子

6万

积分

Post Share

金币
12801 枚
体力
19306 点

卓越贡献勋章

黄金嫖客 发表于 前天 22:13 | 显示全部楼层 |阅读模式
When a terrorist who specializes in explosives takes hold of an underground tunnel, he threatens to kill hostages if his demands are not met." c& {2 D, Y0 n" y$ Z

5 i  b7 a0 v" z 01.jpg
6 _- Y4 ^, D) e4 e. L' S4 o4 p
, y. o0 w% Z( W% t9 w◎译  名 拆弹专家2
8 U$ B# C* G  o◎片  名 Shock Wave 24 l* Y( S# N/ v
◎年  代 20209 t  {3 `8 J% R% N: z0 s4 h' z
◎产  地 中国大陆/中国香港
. }$ t, a* M  W0 l◎类  别 动作/犯罪8 {4 z& ]4 ~4 v* T2 [* J5 f( W
◎语  言 汉语普通话/粤语/英语
1 X6 h, ]3 M( k0 d3 n◎上映日期 2020-12-24(中国大陆)/2021-02-18(中国香港)0 T( C7 u& O3 y3 k
◎IMDb评分  6.9/10 from 1,200 users6 W0 G  r+ Y! q  v7 B; X
◎IMDb链接  https://www.imdb.com/title/tt9597838/
, h5 w/ ?7 f* u& C' J5 m" r◎豆瓣评分 7.6/10 from 457,323 users
: m. k9 e9 p, n2 ^- @/ y- P, o◎豆瓣链接 https://movie.douban.com/subject/30171424/0 s+ x% z. K: B/ l0 s5 w
◎文件格式 x264 + DTS + TrueHD ; G3 A' W" t7 h- l) E! t
◎视频尺寸 1920 x 1080$ Q8 [5 s6 F# i' i( m4 w- `
◎文件大小 1DVD 40.52 GiB7 N9 m: J3 \9 E6 N
◎片  长 2 h 0 min
) h" B+ _9 q- F◎导  演 邱礼涛 Herman Yau5 c- L& p/ R  s
◎编  剧 邱礼涛 Herman Yau
; Q+ x+ E: e1 @' |) a! d       李敏 Erica Lee
/ \6 M% n: v9 d; ^0 v) g       李昇 Eric Lee
, U9 U, T, {  H4 c& s/ G1 c7 h◎主  演 刘德华 Andy Lau! \, V1 r: `7 U) U/ _$ C; [
       刘青云 Sean Lau0 |6 V) d2 R  a) {3 D
       倪妮 Ni Ni9 s+ U" v' a# G! b: b
       谢君豪 Kwan-Ho Tse
1 Y6 P) C8 _6 Z2 {: w8 J' ^6 {       姜皓文 Philip Keung Ho-Man
0 h6 l; ^$ ?) G- J4 b% f       吴卓羲 Ron Ng
9 c  {" X% C, U( o4 \! ]' a       马浴柯 Marc Ma
2 R8 w6 k) a0 a4 O9 a       黄德斌 Tak-bun Wong
- R0 ]7 _" ?$ B1 U2 ?; t       郑子诚 Tse-sing Cheng! y0 k+ M7 r% f2 L9 k/ p$ |
       洪天明 Timmy Hung Tin-Ming3 I9 m6 Y# @$ q) I5 ^
       袁富华 Fu-wah Yuen
- u1 h6 m7 u+ c+ p5 B3 }/ b* U0 u       刘浩龙 Wilfred Lau
& S* D5 G2 ^. H+ u       凌文龙 Man-Lung Ling- p. X# m. P4 z6 L7 G1 p& \
       赵永洪 Raymond Chiu
- n# _3 ^( H9 c- y1 Q2 j8 j       蔡瀚亿 Babyjohn Choi
! c' |2 V# B! ^- Y       张竣杰 Chun Kit Chang# z8 R5 }0 [- Q3 W' u2 m
       张扬 Yang Zhang
0 v* V' G' S; y6 o       伍咏诗 Ng Wing Sze
' {' _4 u: A" c- \. W$ N: V1 T       吴海昕 Sofiee Ng
( [5 g$ h  U! a/ E0 d       周祉君 Aaron Chow. D) s" [+ V3 {% Y  O  L1 Q- W' A
       梁天尺 Leung Tin Chak3 W, H' ?  t; P: K, `1 e
       钟志光 Chung Chi Kwong2 b* q6 C7 w0 ^# b" w8 C
       顾纪筠 Priscilla Koo
8 o4 [# i7 q$ v       安吉·阿维斯塔 Angie Aveestar
5 F1 S, i3 t9 M       梁健平 Kin Ping Leung4 J8 S1 ]& E+ q0 l$ h
       甄咏蓓 Olivia Yan: m1 w8 L  F* t  _/ J' c0 w

1 o9 |' F/ }& d' W1 h◎标  签 香港 | 警匪 | 犯罪 | 动作 | 2020 | 剧情 | 电影 | 华语" c/ P, ~; M: s7 U- @) g

6 T$ c  b7 p: y7 V' p% Z/ P( x" T◎简  介     
/ \: J9 L+ N4 b  P* I0 k3 {* B& S- ?4 J& e8 p1 N
  香港某处发生爆炸案,前拆弹专家潘乘风(刘德华 饰)因昏迷于现场,被警方怀疑牵涉其中。苏醒后的潘乘风只能一边逃亡一边查明真相,然而,他的好友董卓文(刘青云 饰)和他的前女友庞玲(倪妮 饰)却给他讲述了两段截然不同的经历。有计划的爆炸案接二连三发生,真相却越来越扑朔迷离……
) q) O6 v$ y: H7 s  o# b8 u+ n% C" I7 M6 V- M8 H
  When a bomb went off unexpectedly during a police operation to disarm it, Poon Shing-Fung, a bomb disposal officer, got caught in the blast and thus lost one of his legs. Poon decided to leave the police service. Three years later, the police suspect Poon, who was found in a coma at the spot of a terrorist bombing attack, of being involved in several bombing attacks in the past two years. Poon can hardly remember his past and even his own identity due to Post Traumatic Amnesia. He plans to escape to find out the truth. Meanwhile, knowing the terrorist organization's schemes of destroying Hong Kong landmarks, Poon, as the key person between the police and the terrorist organization, would possibly save or destroy lives of the innocent civilians in the city.  H: [$ i4 O$ q5 x
/ R3 ~" u! u3 C9 }
Video
% R' U" |( s; u( _1 h4 z: QID : 17 E4 {/ R. L( z
ID in the original source medium : 4113 (0x1011)* p7 X( ?! s4 b' Z( V& \
Format : AVC
( j' g$ F9 c2 V  XFormat/Info : Advanced Video Codec
5 [/ ^' X+ V7 ~! a4 F6 P! EFormat profile : High@L4.1
. }* O1 O/ e- A) O' H! fFormat settings : CABAC / 4 Ref Frames
6 N4 m# t% D6 G) B9 C- n: a/ q# H2 A# GFormat settings, CABAC : Yes
* U8 r; s' N- c! ?0 x! fFormat settings, Reference frames : 4 frames% [1 J; H3 M4 A8 e
Codec ID : V_MPEG4/ISO/AVC7 |! b1 C+ I* e  Z
Duration : 2 h 0 min
" V2 g7 P* \( n& s1 oBit rate mode : Variable
0 x4 x6 Q8 [, }& K2 E) QBit rate : 26.8 Mb/s
5 K  ^: T+ `; C/ Z2 C. ]Maximum bit rate : 28.0 Mb/s5 O) E" Q! h8 T* _
Width : 1 920 pixels
6 }% W/ X( X! D4 pHeight : 1 080 pixels
( I$ @! \: {2 bDisplay aspect ratio : 16:9" F6 h! q; e4 W. ]! Y$ l
Frame rate mode : Constant! C) ?$ z8 V3 G& ~6 ~  q% C
Frame rate : 24.000 FPS
) }" U- \$ W, Y) O" x  ~Color space : YUV+ @' P5 c3 S# Y
Chroma subsampling : 4:2:0* y* O0 I& u4 p, H
Bit depth : 8 bits
/ k, S" I' b/ `2 QScan type : Progressive; f- A! v1 z8 @2 }6 H6 j/ C
Bits/(Pixel*Frame) : 0.538
5 d) x# z. i2 TStream size : 22.5 GiB (56%); [7 G% n( d+ C4 Y) T! t
Title : Shock.Wave.2.2020.CHINESE.1080p.BluRayCD.REMUX.AVC.DTS-HD.MA.TrueHD.7.1.Atmos.7.1-FGT5 @- g; d" t; S1 ^
Language : English* _) G8 Z: U0 g+ L% M
Default : No7 a! Z% ~/ `; o( N" ~
Forced : No* \7 ?1 L. j# K8 Q- ]( s) E
Original source medium : Blu-ray
( I5 ?0 F8 B: Z( d1 N) U7 ]3 S2 N. S
Audio #1
3 y) s; r) R7 ?! w& FID : 2; ]7 o* x+ k7 Z* T! c
ID in the original source medium : 4352 (0x1100)
0 k0 p7 h6 h. C; y( QFormat : MLP FBA 16-ch5 T: D/ Q5 ]! E1 q# v
Format/Info : Meridian Lossless Packing FBA with 16-channel presentation  R6 g7 i: f' c
Commercial name : Dolby TrueHD with Dolby Atmos
7 i0 N& y) [" \, I" [0 I, WCodec ID : A_TRUEHD
* J6 a* Q2 g# u2 Q. JDuration : 2 h 0 min- s  w  M+ M& B* O
Bit rate mode : Variable7 H4 ^" ~# m+ S
Bit rate : 5 172 kb/s
5 e, f. H+ l7 _6 u* ~Maximum bit rate : 8 928 kb/s0 Y7 h# c* d$ ^
Channel(s) : 8 channels4 F/ W- b/ g+ z# `3 E) a9 R  m) C
Channel layout : L R C LFE Ls Rs Lb Rb
( t, K  v# k6 i. q4 HSampling rate : 48.0 kHz
) v9 ^0 F8 {& u7 G3 VFrame rate : 1 200.000 FPS (40 SPF); ^; {! g, z; Y( o; J8 y8 F
Bit depth : 24 bits
1 J' ]+ [- z  W( a# S9 J2 m$ FCompression mode : Lossless
/ _5 N% r) E( f0 Z: S6 b+ L, P$ _Stream size : 4.35 GiB (11%)9 |' u  a% D' F5 V8 ?- z
Title : Shock.Wave.2.2020.CHINESE.1080p.BluRaycd.REMUX.AVC.DTS-HD.MA.TrueHD.7.1.Atmos.7.1-FGT8 \$ o/ G0 Y! R4 g
Language : Chinese- ^$ ?. e0 ~  ]0 e
Default : Yes
: j  W# H; ^$ X  w' c/ VForced : No( J/ d8 D0 \% t! g( T* i: d, p$ I
Original source medium : Blu-ray
- j+ E7 Z) O/ Q, s" J, r% m7 cNumber of dynamic objects : 11: S; q9 y, c' N6 n8 i9 F: I
Bed channel count : 1 channel
1 \4 R5 F2 s- a6 e; vBed channel configuration : LFE; p; l9 t) Z! g) ?/ A! d7 q
1 J% L8 g* g& _7 p$ s  C; |5 f+ h
Audio #2! M( u4 [- x9 s7 Q
ID : 3" N; Z( G, O, d# Q+ L, [) E8 F
Format : DTS XLL4 d7 [( [1 C7 E3 c" S. ^2 P) t; ^
Format/Info : Digital Theater Systems
  T/ z" k0 O9 a! u2 ]) M9 r' J6 E- C( P( |Commercial name : DTS-HD Master Audio+ _+ z& w7 u! n! y( t8 |
Codec ID : A_DTS
4 d) z7 u& P: T; M- W: e9 NDuration : 2 h 0 min8 F5 m$ i& R: i4 t! L
Bit rate mode : Variable  Z; c+ i; t! L' ^5 P$ M6 s
Bit rate : 4 799 kb/s. q& G% r8 j  U% k
Channel(s) : 8 channels
% A' n( q" A; ^3 X8 X# D+ L' nChannel layout : C L R LFE Lb Rb Lss Rss
3 R# A4 f" ~+ f: \Sampling rate : 48.0 kHz
, o8 S  M: ~7 g9 S3 [/ n) bFrame rate : 93.750 FPS (512 SPF)- D3 U* p/ H) v. ^5 `8 `+ x
Bit depth : 24 bits+ a. X' P% N3 ^. Y& b
Compression mode : Lossless9 ~2 ]. ], s8 _. n" L" R
Stream size : 4.03 GiB (10%)
" G" L* |7 `" }# p, x) ]. u. fTitle : Shock.Wave.2.2020.CHINESE.1080p.BluRaycd.REMUX.AVC.DTS-HD.MA.TrueHD.7.1.Atmos.7.1-FGT! t( @7 y& W8 V
Language : Chinese2 I% d8 z. y5 h2 a
Default : No
! o. U3 v9 c+ H8 h- U3 CForced : No
) c3 V) Y5 |/ Q$ }) r- S( w
; J% {" r" O* I: W" Q$ U7 ~Audio #3% o4 V# }( F8 k
ID : 4$ G5 [* k: I$ B; L" a
ID in the original source medium : 4352 (0x1100)0 p. r  s" A9 z$ r! D1 H+ n! M) t2 w
Format : AC-3
; v6 P+ X! h; s7 k" k) I: WFormat/Info : Audio Coding 3% L$ d7 s7 i$ J: M; {* X5 c
Commercial name : Dolby Digital
0 s; ^. }* v% U1 T. V4 @/ G8 cFormat settings : Dolby Surround EX
/ W; d6 \  l8 c' p/ }Codec ID : A_AC3* k9 o: a6 y  O  E0 Q' W
Duration : 2 h 0 min
* E9 u; G. |/ }- GBit rate mode : Constant; }; s, c& S2 C4 w
Bit rate : 640 kb/s7 \" u/ c0 k3 p7 o, _
Channel(s) : 6 channels
2 ?' y, C7 ^: `% n0 U5 `+ B( M" pChannel layout : L R C LFE Ls Rs1 m+ Y: w- Y& {1 \* P; }0 ]- J5 ]
Sampling rate : 48.0 kHz" U1 U/ Y: [" A9 ]% y
Frame rate : 31.250 FPS (1536 SPF)5 T$ J% K8 a9 j' R
Compression mode : Lossy; k3 g$ S% U4 H' S  I
Stream size : 551 MiB (1%): w+ [9 G. e; F+ k
Title : Shock.Wave.2.2020.CHINESE.1080p.BluRaycd.REMUX.AVC.DTS-HD.MA.TrueHD.7.1.Atmos.7.1-FGT
8 E+ U* C9 @( V- K: W  `' m5 WLanguage : Chinese
4 c+ {! x' I9 u+ QService kind : Complete Main& s- \; R# S# p% l  `, {3 {$ }$ H& K
Default : No- h% s; \9 r, W& g  w
Forced : No
- S, h/ h. @& E( GOriginal source medium : Blu-ray% s# b0 ^3 i# f8 i

$ }# L# O* ]2 j+ i* [, v  u& B, S) OAudio #4
7 x9 D8 Y8 b2 x7 EID : 5
; L/ N. L! [0 t  ~5 ~9 z! }! X/ NID in the original source medium : 4353 (0x1101)
/ }4 x  O! N( O% k3 B: QFormat : MLP FBA 16-ch* ^  k+ C3 {6 Y
Format/Info : Meridian Lossless Packing FBA with 16-channel presentation. I6 z6 w4 u' ?2 I1 ~9 T1 i# u
Commercial name : Dolby TrueHD with Dolby Atmos
- A* P: m9 \8 \Codec ID : A_TRUEHD
; b2 {/ J7 @" Y+ c! V/ y" E, h( SDuration : 2 h 0 min
7 {1 z3 X9 F! ]3 X% S9 |Bit rate mode : Variable
( q: m' k& e3 J# Z  H6 E+ T. i, H4 j: |) EBit rate : 5 184 kb/s/ r! S$ S/ C( H9 {
Maximum bit rate : 8 994 kb/s
) c3 Q$ u, p* d* V/ h1 i4 l0 oChannel(s) : 8 channels; G3 }) d. t- Z4 t5 y
Channel layout : L R C LFE Ls Rs Lb Rb
* a3 s. H5 {) wSampling rate : 48.0 kHz
6 z) o7 P: p8 UFrame rate : 1 200.000 FPS (40 SPF)1 @  n, F/ ~& e0 Q. `
Bit depth : 24 bits
4 U+ q% X! y8 t& i$ s4 T; ZCompression mode : Lossless
# m3 N; J! S8 u8 a/ A8 X! XStream size : 4.36 GiB (11%)
& F- j/ w$ |# _* e$ |; G3 STitle : Shock.Wave.2.2020.CHINESE.1080p.BluRaycd.REMUX.AVC.DTS-HD.MA.TrueHD.7.1.Atmos.7.1-FGT4 a: t+ e/ [- k5 k
Language : Chinese/ B1 D3 @" _: ?+ R* R" H: U
Default : No; K  R2 ~' i* c9 H! i" M
Forced : No
* h( s6 J3 D+ W+ v, }8 T5 FOriginal source medium : Blu-ray
; T* H+ ?% S* Q6 W* _8 t. BNumber of dynamic objects : 112 y5 X9 D0 `4 S0 _- Y
Bed channel count : 1 channel
3 \; e" M% X+ c' vBed channel configuration : LFE
6 F4 y1 C" n. S& k' M8 r
% L- U1 d$ r9 y  p. SAudio #5% @: B9 ~# f0 \' s8 {
ID : 66 `% H+ x: O* Z0 `* \" ^' h
Format : DTS XLL6 h# Y- `. j, `8 A+ A( F* O
Format/Info : Digital Theater Systems$ S" M& ]$ M$ A- x$ ^1 q0 f
Commercial name : DTS-HD Master Audio8 e4 w+ n0 n9 K: Z7 r% I  Z
Codec ID : A_DTS+ Q7 L& ?, `* e8 J7 C
Duration : 2 h 0 min; ~$ e1 p# ?4 \! M/ p$ l
Bit rate mode : Variable. o2 q6 ~! a1 Z8 y5 g0 g4 d* X
Bit rate : 4 806 kb/s7 q3 f5 e" V! s6 Z+ [' H
Channel(s) : 8 channels
+ l0 M1 C9 v% Q7 G2 k- T' G5 NChannel layout : C L R LFE Lb Rb Lss Rss/ D4 E* O: G) J7 o) P) ~! n
Sampling rate : 48.0 kHz' z8 X# _% W# c( F5 G7 L- j
Frame rate : 93.750 FPS (512 SPF)/ Z4 J+ p* @$ D" T" o3 ^
Bit depth : 24 bits, g% A7 G8 {- F/ J2 s6 {- ?4 r6 n0 l
Compression mode : Lossless6 j( h. |0 w# x! x  R
Stream size : 4.04 GiB (10%)* ?; D2 h- o- S8 r+ ~, E, D$ k% t
Title : Shock.Wave.2.2020.CHINESE.1080p.BluRaycd.REMUX.AVC.DTS-HD.MA.TrueHD.7.1.Atmos.7.1-FGT
  |" }$ ?1 {! b( U% Q6 VLanguage : Chinese4 z" o" A5 c  m4 f' u
Default : No$ B( Z. y/ M/ p. \; K6 `4 M% T
Forced : No
) `6 J/ H, e8 G" {( B$ f5 A" H' B8 B6 u2 T
Audio #6' u( I# R7 f# @2 {
ID : 7
) O0 i4 \0 c! s  }3 A8 c/ ^ID in the original source medium : 4353 (0x1101)9 k# x: E5 q- M) I8 V
Format : AC-39 ]2 d) L" @5 ^
Format/Info : Audio Coding 3
( @" z( D( ?2 y$ D1 Y* M1 H! lCommercial name : Dolby Digital# e: y( C1 b6 g2 @5 I  H
Format settings : Dolby Surround EX' i' X7 M+ f6 X0 u" j& B' L7 L
Codec ID : A_AC30 {; z, |. T% H4 c: I
Duration : 2 h 0 min" |' u% [$ I( C1 [3 z
Bit rate mode : Constant- ], S* O0 p8 y: J
Bit rate : 640 kb/s, K: O  i$ X* `1 e6 l) ~
Channel(s) : 6 channels
+ b6 X' O! H: CChannel layout : L R C LFE Ls Rs
1 A% `' S" s; S3 U  ~+ ^* ^: l- a8 JSampling rate : 48.0 kHz5 M6 _& D. u( e! J
Frame rate : 31.250 FPS (1536 SPF)/ q$ U# X* ?" B' ~3 d; N/ h/ y( Q
Compression mode : Lossy5 e0 D) z( v6 Z
Stream size : 551 MiB (1%)
+ K* h. i6 D6 V9 {) ITitle : Shock.Wave.2.2020.CHINESE.1080p.BluRaycd.REMUX.AVC.DTS-HD.MA.TrueHD.7.1.Atmos.7.1-FGT
% P8 Y! q7 a' LLanguage : Chinese2 c1 M; Q! D  N3 {( a
Service kind : Complete Main
2 h/ v. N  z; o2 v1 A7 s( LDefault : No6 [% o: e/ m- l$ y. S
Forced : No0 b0 k7 g/ b8 B3 z; I
Original source medium : Blu-ray5 E( q0 v1 t! W9 C# f

% s+ U# z7 K: ~2 p; Y  x! kText #10 p! h) U5 N& D1 W* X$ `  ?2 J7 ]. M
ID : 8
& f5 H) o1 q$ d/ Z, oFormat : UTF-84 M# G) k. u/ d" h/ x4 J1 l& [
Codec ID : S_TEXT/UTF8
! m  e! @. b" S6 G2 WCodec ID/Info : UTF-8 Plain Text2 o* U4 `  ], w* b% ]
Duration : 1 h 55 min! ~! R/ }+ D6 P: \& v' v' R; |+ @
Bit rate : 51 b/s5 A8 ]* k  W! G* Z$ {3 w6 m: P
Count of elements : 18159 ~6 l9 o, Y7 s; \/ |5 n5 l
Stream size : 43.8 KiB (0%), b( \- D$ {5 S/ K7 ^
Title : English-SRT
& ~7 ~! K6 ^3 m" bLanguage : English
) s' }! q  z5 n4 i) s& Q* vDefault : Yes
2 P2 E# H- }& q, S/ U, L5 J- KForced : No1 I& y7 x, \% r4 u* R! l& T
* U! X, e* |, y/ N* E- @& S
Text #2
% ?# K* M( \6 s0 z- `- E, wID : 9
# l, Z( _, N% R/ [% q1 {ID in the original source medium : 4610 (0x1202)
3 P6 b& r  N& k9 m  Q& {Format : PGS
, A- a/ g+ |- I$ P' |( L/ N4 ^Muxing mode : zlib8 _# c: b* ^. n  `
Codec ID : S_HDMV/PGS5 e. U7 a) C" I4 J0 v
Codec ID/Info : Picture based subtitle format used on BDs/HD-DVDs# O6 z: v8 V" u
Duration : 1 h 55 min
$ k; ~% j4 D& }# ?( C8 M/ t6 xBit rate : 35.2 kb/s1 @5 d* T+ i  L' |
Count of elements : 3288
' r8 J3 g7 |) f- g+ k0 w6 n' f' ~  h( c4 jStream size : 29.0 MiB (0%)' \8 p# o& y# k$ j4 p1 T$ Y
Title : English-PGS- z' U- R2 v* c* Z
Language : English
  M: H" ?3 _" N+ [: s6 `! E6 E4 bDefault : No/ {. z+ t- c1 S) V2 k
Forced : No: z2 u( S9 X! X7 H
Original source medium : Blu-ray
  u3 r! u0 Y  q2 m4 b3 `
  f  ~: q8 @5 w9 b: d8 dText #38 d  q& ?9 R" Z- Z9 W% k- r
ID : 10) @7 @- }( J2 k9 k
ID in the original source medium : 4608 (0x1200)
% F& B3 ^( U% J% i: yFormat : PGS: Z6 o, W/ ^# o7 J/ s7 x
Muxing mode : zlib' P  E# c* |+ o) o% U6 q0 p
Codec ID : S_HDMV/PGS' [: A# o! u9 ]$ e1 Z$ _
Codec ID/Info : Picture based subtitle format used on BDs/HD-DVDs7 _8 M; y% L" c, F- w
Duration : 1 h 55 min
* P8 @2 L9 b5 f2 uBit rate : 32.4 kb/s
, ]# K- ?, O+ @" y9 p  v. wCount of elements : 3286. U7 s: P, Q# i, j: B; E+ H
Stream size : 26.7 MiB (0%)
- w4 Y2 E6 f% `2 _: {8 G$ B$ yTitle : Chinese-PGS! }! {8 l% }" N- J6 Z2 i
Language : Chinese% x5 @, d3 v) O  D' i! A+ V( V) T
Default : No8 r, c+ G( r  r# e# d9 A+ Z
Forced : No6 w. X( \+ u+ v2 A6 u0 w$ x1 }
Original source medium : Blu-ray
- _! j" d) ~+ w4 \0 q1 {! ]4 L" A7 ?$ H: n
Text #48 O( L. R- I, y: Z3 A. T' p0 t! ~7 N
ID : 11
$ `% n% ~% y1 I2 oID in the original source medium : 4609 (0x1201)
, s# t$ C. ]% Y% ?Format : PGS
( w7 U8 O' b' d' RMuxing mode : zlib& z- n/ P- F3 g
Codec ID : S_HDMV/PGS" K: W) N. c! ^5 G/ O2 a* |
Codec ID/Info : Picture based subtitle format used on BDs/HD-DVDs6 {0 v% I2 F* f0 Q( T: _. M
Duration : 1 h 55 min
- T: @( {$ u+ sBit rate : 30.0 kb/s
# z; A, k! c% T, p4 `Count of elements : 3286/ \1 F: {. E( R% z8 F" E
Stream size : 24.7 MiB (0%)
$ P- Q( P% a# D% p9 pTitle : Chinese-PGS6 h, _# ~3 _. l) \: x0 K3 q: u
Language : Chinese
" J3 [+ K9 R7 A( e5 o8 N6 c# F  jDefault : No
' n6 T: v* h; U; v8 \  [Forced : No
- y2 Y6 m5 G, y* o2 {Original source medium : Blu-ray! ]0 [, z" v8 d
7 g2 ]8 f2 `  y
Menu
2 b. M- D; W; h8 {$ |00:00:00.000 : Chapter 01
  i* r% q' U" X$ Y00:14:42.083 : Chapter 02* b* \% k% E! \" \5 X0 u- B7 I  G
00:23:21.833 : Chapter 03* A8 z8 Q# e; i. r1 h
00:33:24.500 : Chapter 04! ^" d" U! `! d( @0 {* W
00:48:20.500 : Chapter 05- O4 W( K- r5 @9 ?( i- W
00:56:44.916 : Chapter 06
1 j. P) @: \7 ~6 m; e. q1 c01:11:31.000 : Chapter 07
' q  V( e4 r" U2 g, p/ a8 ~2 @) P01:17:01.416 : Chapter 08
! d0 b9 J) U2 f/ l6 L2 H9 C01:26:24.000 : Chapter 09
8 y: I& H. g* y2 I+ L; t+ T01:34:30.791 : Chapter 10
, a+ I4 ^! [  q! r  ?01:41:33.916 : Chapter 11
3 j5 W3 S, X! P9 ~. C01:56:59.166 : Chapter 12
% M0 I9 G( r/ a% o6 v7 r' w
游客,查看本帖隐藏内容请回复 | 加入VIP贵宾可免积分免回复 了解详情 | 还不是会员:点击获取邀请码 Invitation Code

76

主题

2758

帖子

1万

积分

Sponsor

金币
1312 枚
体力
3839 点
lanpanshuma 发表于 前天 23:59 | 显示全部楼层
看了LZ的帖子,我只想说一句很好很强大!""$ _# g6 b& a9 Z( e+ y6 e
Blu-ray Film Forum: I will always support you!
  E: f5 h: s$ u: A4 _% @2 }2 g
该会员没有 ...

26

主题

384

帖子

1898

积分

Sponsor

金币
37 枚
体力
1016 点
wyyo 发表于 昨天 08:54 | 显示全部楼层
每天都来蓝光论坛看看,我爱蓝光电影。2 g& y5 I7 y: e7 C+ b( Y
至少是现在,我一天没有访问蓝光电影论坛就不爽!At least now, my day did not visit the Blu-ray Film Forum on unhappy!1 j% g7 \* X) b7 c

4

主题

992

帖子

3109

积分

Sponsor

金币
0 枚
体力
1130 点
QQ
davidqin 发表于 9 小时前 | 显示全部楼层
啥也不说了,楼主就是给力!
  ]+ r3 j& {$ G7 J* Z& M, {Not see, I am a novice, the inadequacies of the first Please bear with me!& c; ~2 f, R% m# H7 \

4

主题

992

帖子

3109

积分

Sponsor

金币
0 枚
体力
1130 点
QQ
davidqin 发表于 9 小时前 | 显示全部楼层
每天都来蓝光论坛看看,我爱蓝光电影。
! s) Y( c+ j, i5 ^3 ~" oBlu-ray movies Community: my favorite!
# a1 ~( S) ]6 v6 R! n

本版积分规则

小黑屋|Archiver|蓝光电影资源网

GMT+8, 2021-6-12 20:24

快速回复 返回顶部 返回列表