BluRayCD Forum

 找回密码
 立即注册【分享大片】
查看: 6|回复: 1
收起左侧

[蓝光原盘] 父子对决/父子格斗争霸赛 [REMUX无损版] Embattled 2020 1080p BluRaycd REMUX AVC DTS-HD MA 5.1-FGT 32.88GB

[复制链接]

5622

主题

5796

帖子

6万

积分

Post Share

金币
12801 枚
体力
19306 点

卓越贡献勋章

黄金嫖客 发表于 前天 22:41 | 显示全部楼层 |阅读模式
A son aspires to follow in his famous MMA father's footsteps, but along his journey must figure out how to break the abusive cycle, if possible, that his father has continued.
$ J$ _; B. f+ [0 O$ @6 z
) ~" ^% d5 ?' z" \/ ` 01.jpg
6 C1 T) t1 n/ J' g
3 k6 y5 k; Q1 y◎译  名 父子对决/父子格斗争霸赛
5 Q- }3 H$ w/ a! o$ q! @; T& B. p9 t◎片  名 Embattled+ m& y5 U1 m4 _
◎年  代 2020
" f9 j9 C% y0 j/ B9 {# C. S; w) g◎产  地 美国# d  m0 t# W# C2 Y' X
◎类  别 剧情/动作/运动. P; b' o' h; ^
◎语  言 英语
$ l. r  N- B  T" v2 Q8 p4 D( n◎上映日期 2020-11-20(美国)
- I) ^$ j6 M+ y3 K; i0 C) H: Y◎IMDb评分  6.6/10 from 1,172 users
& p- X) _3 y3 S◎IMDb链接  https://www.imdb.com/title/tt6539992/
0 }5 r  Z7 h. ~6 }◎豆瓣评分 0/10 from 0 users
9 |) a$ t+ d8 {& D◎豆瓣链接 https://movie.douban.com/subject/34851589/
- s. k# X# d. z9 M2 U# ]6 p◎文件格式 x264 + DTS2 c) t8 z8 r) k: c  K% J, [
◎视频尺寸 1920 x 1080
8 G/ R3 V0 c1 A2 t◎文件大小 1DVD 32.88 GiB
! A7 M; ?6 d% [8 n1 K◎片  长 1 h 57 min  K' y7 {% c% n/ p! f5 G  V& h: A
◎导  演 尼古拉·萨尔基索夫 Nick Sarkisov  m) Z& t. X) b3 X# _  A
◎编  剧 戴维·麦克纳 David McKenna$ `: S( t! j2 A3 X$ Q
◎主  演 伊莉莎白·里瑟 Elizabeth Reaser$ ?: b" Y3 Q1 p) n1 Y
       唐纳德·法森 Donald Faison
9 k8 _2 o" |. c, |( w( g; I       德鲁·斯塔基 Drew Starkey- ?, R# H5 G5 x  {$ v8 L
       斯蒂芬·多尔夫 Stephen Dorff3 E$ s; h0 u/ x9 X7 e- ~
       萨伊德·塔格马奥 Saïd Taghmaoui
$ j3 E1 [9 ]* C$ I       卡鲁切·特兰 Karrueche Tran
% s* q% A9 s8 ^9 x; Z4 k       达伦·曼恩 Darren Mann
8 ^, C' D6 S1 v: H/ `; L       泰伦·伍德利 Tyron Woodley
0 T: Y$ D" I7 s       艾娃·卡普丽·帕拉佐洛 Ava Capri Palazzolo
8 _; A7 ?* E0 p7 z( l3 A       林赛·加勒特 Lindsey Garrett( R+ a6 I8 D  ]9 P6 S( {
       查尔斯·格林 Charles Green! u. x; O* F8 O- T- u3 G- w/ S; b
       布莱恩·欧尔利 Brian Oerly) Z' ]9 Z% e8 E
       奥利弗·特雷韦纳 Oliver Trevena/ W& g; s$ d5 M6 r  M1 a
       西耶娜·诺维科夫 Sienna Novikov
" d5 C& _  F( O2 w% X* `       亚当·卡斯特 Adam Karst
$ O. q! t* Q" s       肯尼-佛洛里安 Kenny Florian
+ v4 p# Z( x0 o+ ?% v% r       艾米丽·托尔斯 Emily Towles
- a5 m" k. U1 O% U6 Y       Donald Cerrone. N, c9 g, s* P) B5 B
       约翰·福兰纳干 John Flanagan
  A5 S) p& z( @- S3 B9 t       Jay Galloway3 N0 b2 z' p. n) s# z
       Diana Chiritescu/ ]3 H. p/ G) S% e
       Michael Foster3 U8 R8 k6 p" T* F6 F
       Leopold Manswell8 ~; B. Q* n: ~
5 a) y0 O5 H$ l  `
◎标  签 MMA | 格斗码亲情戏 | 美国 | 综合格斗 | 父子对决 | 动作 | 2020s | 2020
3 k$ Q5 J, g8 \0 D. t3 H. x$ f# S
◎简  介   - o0 h! p2 f6 M) n  F) y' o
6 {! g. O6 t$ y4 f$ c1 v" |; v
  一个儿子渴望追随他著名的MMA父亲的脚步,但在他的旅程中,如果可能的话,他必须弄清楚如何打破他父亲一直延续的虐待循环。
) y3 H- {* `& Y: V- D
; j9 D! B, n1 J8 e, T2 }) m' M/ R  A son aspires to follow in his famous MMA father's footsteps, but along his journey must figure out how to break the abusive cycle, if possible, that his father has continued., k7 |& y2 R# O! }( U. ~8 g* z

5 i# S5 |* M8 V! T
Video" A+ p$ Z5 i: j* R
ID                                       : 1
$ e+ a' Z. i% R+ a! }7 T8 C: hID in the original source medium         : 4113 (0x1011)
% j) \5 n6 M# D7 L7 K1 uFormat                                   : AVC4 O$ Q5 m/ n' H- H
Format/Info                              : Advanced Video Codec, F& b3 D7 q! j( W8 |( g1 x# |9 l
Format profile                           : [email protected]
/ @- O9 u4 Q' k# SFormat settings                          : CABAC / 4 Ref Frames" m; J6 h+ a1 B+ M$ a% P* D
Format settings, CABAC                   : Yes
) Z/ Z/ n% b7 v% ]4 qFormat settings, Reference frames        : 4 frames
( J+ ?9 ^# ?# [3 `3 ?# ]Codec ID                                 : V_MPEG4/ISO/AVC& r* a( r4 c, i1 i$ x
Duration                                 : 1 h 57 min
) U' |! V1 }, _  E# `/ BBit rate mode                            : Constant
& c$ K$ \1 ~4 qBit rate                                 : 34.3 Mb/s+ I! X- s; B) g. Z$ x" Y
Nominal bit rate                         : 36.0 Mb/s+ W+ q1 e4 B3 ]8 J, y8 {
Width                                    : 1 920 pixels$ ~7 D4 b7 ^" x0 Q' Z( n. o! y. `
Height                                   : 1 080 pixels
  U1 m& t8 [, q& _Display aspect ratio                     : 16:9  T8 m, q/ o, b$ ~
Frame rate mode                          : Constant" N0 G: x' P3 d+ V( w* T
Frame rate                               : 23.976 (24000/1001/189150) FPS, }7 a3 z' T5 Y  H1 ?$ }
Color space                              : YUV
' x+ t- E2 W' E% f; `& r$ CChroma subsampling                       : 4:2:00 P  F; I& I9 u: s; ~. }
Bit depth                                : 8 bits
7 |* w9 w4 @) H" Z/ RScan type                                : Progressive) B) g% Y& d) \6 J1 P+ h
Bits/(Pixel*Frame)                       : 0.689  V) t7 R0 A' o- e6 k- \
Stream size                              : 28.0 GiB (85%)
# P! f3 ?7 [, XTitle                                    : Embattled.2020.1080p.BluRayCD.REMUX.AVC.DTS-HD.MA.5.1-FGT1 V- m% F& h6 t: G8 X0 a+ U) D; u7 f
Language                                 : English. k$ P% y- V1 {5 r
Default                                  : No0 B7 l, d; o0 r* J: Y7 V
Forced                                   : No: e$ t3 [4 B& u0 I1 |
Original source medium                   : Blu-ray
+ i! U( m! _* e5 ?
+ G& o. d" o2 G1 `% }8 zAudio #18 o' f5 r$ U. w" k6 a! Z  M5 A" }
ID                                       : 2+ k2 W4 n9 o6 I5 J" P: N  S, o+ M
ID in the original source medium         : 4352 (0x1100)5 K7 R1 P8 l8 z; ?3 A3 V: I7 v0 T
Format                                   : DTS XLL, y% ?" r5 u4 x9 D: a1 j. x
Format/Info                              : Digital Theater Systems& s  j7 C' E( r% L% j! ^0 |
Commercial name                          : DTS-HD Master Audio
- H& i) x8 }7 F$ qCodec ID                                 : A_DTS1 {3 k% v6 s0 y
Duration                                 : 1 h 57 min$ q3 ?. D* w2 w# F
Bit rate mode                            : Variable7 q2 L, \0 [# `' p  G
Bit rate                                 : 2 717 kb/s; A  R" O. E2 K9 C: c% ^  p
Channel(s)                               : 6 channels; u/ Z1 k. X: c% v
Channel layout                           : C L R Ls Rs LFE- t9 p2 z' T% g+ Z  f4 [
Sampling rate                            : 48.0 kHz1 n0 P9 w5 q1 b
Frame rate                               : 93.750 FPS (512 SPF)
, F1 _7 X' V: l; }2 }Bit depth                                : 24 bits
9 h) B: f& u2 yCompression mode                         : Lossless, n7 s7 q7 Z7 U6 `
Stream size                              : 2.22 GiB (7%)
+ t! P7 @4 g; p# t) c) F$ eTitle                                    : Embattled.2020.1080p.BluRaycd.REMUX.AVC.DTS-HD.MA.5.1-FGT  ~1 d* L# [1 ^; Z3 J
Language                                 : English5 \' C& J6 C4 L& f% r3 n
Default                                  : Yes
9 c4 m- M( `+ J$ T! @Forced                                   : No
+ O' h7 c; T1 ?% T7 T+ U1 ?7 ]Original source medium                   : Blu-ray
" ]0 O' p: v% h( q* e  x' I# k. f% p  @5 T0 @# x4 X. b
Audio #20 W3 s% B& a3 s+ g; r
ID                                       : 3( o! o& S/ S# s1 l0 N; U% J8 G
ID in the original source medium         : 4353 (0x1101)) @8 j6 F9 `9 C( V9 ?
Format                                   : DTS XLL
+ n9 ]+ U8 m( c2 X& D) |; wFormat/Info                              : Digital Theater Systems( G- k& l( \$ G) b  U
Commercial name                          : DTS-HD Master Audio; L0 {% s4 y: @+ g  l' X
Codec ID                                 : A_DTS1 C/ d3 a; T1 H% I7 H- H
Duration                                 : 1 h 57 min
' k5 G/ I5 N0 l! l( U9 c) hBit rate mode                            : Variable- f  C5 h( D8 V6 \
Bit rate                                 : 1 573 kb/s
2 r5 F. Y4 o$ X2 @5 @Channel(s)                               : 2 channels
1 f# D7 ^; U9 q/ q/ FChannel layout                           : L R+ b/ H+ b: P( \& E" X: x  W
Sampling rate                            : 48.0 kHz
4 ~. M4 n& o# iFrame rate                               : 93.750 FPS (512 SPF)
2 e2 K5 c+ ?) o$ [' X  }Bit depth                                : 24 bits. Q( Q+ a! r- o  X5 D
Compression mode                         : Lossless( |( S+ f- o# \8 E* `
Stream size                              : 1.29 GiB (4%)( Z" r# y# G, Z  o
Title                                    : Embattled.2020.1080p.BluRaycd.REMUX.AVC.DTS-HD.MA.5.1-FGT7 c9 t% h  \6 p- ]
Language                                 : English8 O, f$ y/ f; K# I% _9 h1 R8 {
Default                                  : No
- I9 C& ^4 |& hForced                                   : No/ g( s8 G8 K  g# L0 j
Original source medium                   : Blu-ray( S5 D5 S0 Q/ t4 N: N# r: B
' o- |' C. D. i* |, c
Audio #3
. ~- u, Q$ Z; X$ c. j+ @ID                                       : 4
& j8 W+ N4 {9 E4 ~+ v# R* s/ uID in the original source medium         : 4354 (0x1102)1 y: S: `* w3 o3 H% F. d. n/ r
Format                                   : DTS XLL
7 G3 P( g# f1 q! F3 U' V2 NFormat/Info                              : Digital Theater Systems/ a4 f4 C  l* J+ @% n6 ]% A$ M
Commercial name                          : DTS-HD Master Audio
; R; c$ m  N1 |! G$ k8 B/ ?) m+ OCodec ID                                 : A_DTS3 V6 l" @* U& z+ o! O: y& ^
Duration                                 : 1 h 57 min$ @. m- \+ G2 p: w& t
Bit rate mode                            : Variable- \+ z7 _3 n. k. ]  U
Bit rate                                 : 1 598 kb/s' k) E1 q* G, @. I. x1 q
Channel(s)                               : 2 channels
, @# v0 ^6 A& r% [, a& B2 nChannel layout                           : L R
, X3 {7 L2 |" Q. T0 |9 nSampling rate                            : 48.0 kHz
9 r5 O9 K( ]& E1 MFrame rate                               : 93.750 FPS (512 SPF)
$ M2 q% D1 d. [/ W, BBit depth                                : 24 bits
! E3 c0 M% g  p* T9 h) N6 UCompression mode                         : Lossless
7 z  h2 K: `9 v' I$ p6 F" aStream size                              : 1.31 GiB (4%)
- s% c8 o& u5 W+ o6 y7 f) jTitle                                    : Embattled.2020.1080p.BluRaycd.REMUX.AVC.DTS-HD.MA.5.1-FGT
; d+ j7 J! K1 `* pLanguage                                 : English2 _/ h4 n2 c$ F, N9 }. |1 o5 H
Default                                  : No
9 g1 J4 V, @0 [4 q' n" V6 Z9 EForced                                   : No( W  [% B; h( ?0 g) b) i
Original source medium                   : Blu-ray+ x7 x  R: j/ P; R" U' x

2 K8 ?/ l& d$ U/ R% O9 lText #1
% l1 Z6 C6 B6 C) Y1 T) c  {ID                                       : 5
3 [0 O# _# O# f. |5 b/ [9 `, ?8 WFormat                                   : UTF-8
  t$ Q5 R6 |3 q- }: h. M& U8 rCodec ID                                 : S_TEXT/UTF8
% }; b( w: d- O6 s6 cCodec ID/Info                            : UTF-8 Plain Text$ g; F# I1 q- D, _& ^- @
Duration                                 : 1 h 55 min- v: y, n$ F1 e$ L5 L; H
Bit rate                                 : 59 b/s
9 V+ t, k& H; O# U) y" z" N; oCount of elements                        : 1809
3 a* {7 p# L( vStream size                              : 50.2 KiB (0%)8 A) W6 q. m& H# i" E) t
Title                                    : English-SRT
- ]. A' ~9 b4 |: l+ LLanguage                                 : English
5 ^- C" T% Q5 ~' R1 `6 C0 [$ tDefault                                  : Yes% q- Z/ i2 i- w2 r. V
Forced                                   : No
8 v. X: V9 y# k7 @) ~- s) @' ~3 c
; J5 g  y& ?: j" w2 Z5 [) w9 o) _3 mText #26 K" k7 `' F3 ~) A- D; h
ID                                       : 61 r6 @/ u9 }6 B$ E( j  g
ID in the original source medium         : 4608 (0x1200)& J4 o6 g" M1 }' W; n
Format                                   : PGS
3 f4 ^* _: K. {' xMuxing mode                              : zlib! l2 f: V5 l6 m/ c2 L$ P4 y
Codec ID                                 : S_HDMV/PGS! `# |2 g% I" V6 Z6 P- T
Codec ID/Info                            : Picture based subtitle format used on BDs/HD-DVDs
4 e$ h/ F$ k" x# C$ Y8 ODuration                                 : 1 h 56 min
' f( D+ ]9 o) u5 @# X) H, OBit rate                                 : 36.5 kb/s3 ]! G& r0 ^0 H0 a# O) z5 e
Count of elements                        : 2625
/ ]) n+ V; P" Z3 Z: |: S/ w9 sStream size                              : 30.4 MiB (0%)/ S9 B7 }; C- Q! f2 \5 c+ G/ B; N7 _
Title                                    : English-PGS6 b: X$ ~$ r2 Z! g  _& E+ y
Language                                 : English
/ Y" |6 V9 B8 @1 V( VDefault                                  : No4 h. Q& w- O: A2 X0 q1 _0 m
Forced                                   : No
; r& q2 D7 l# J+ Y# P8 x* }: oOriginal source medium                   : Blu-ray$ k6 ?& ]0 F6 F

: ?3 n6 `- h5 F0 V" mText #3* \) ~/ x! S( j( x9 \" r7 a" v
ID                                       : 7
3 p9 r/ S% @0 ?- e6 d1 r4 uID in the original source medium         : 4609 (0x1201)
" n7 b1 f5 f7 A/ d$ MFormat                                   : PGS
( A& f" r; G( T0 E# p/ [; IMuxing mode                              : zlib
( A2 d0 k5 T; t8 t( CCodec ID                                 : S_HDMV/PGS
3 \. c5 B/ s; M5 D8 MCodec ID/Info                            : Picture based subtitle format used on BDs/HD-DVDs) ^  i6 S! H' ]* H& p
Duration                                 : 1 h 55 min
6 f4 T8 B3 k3 c6 XBit rate                                 : 34.9 kb/s
' A# l4 x; [, _& l+ s& GCount of elements                        : 2439
3 }6 J2 [/ A4 I: l/ n% p+ f" ^Stream size                              : 28.9 MiB (0%)
4 x3 b6 n9 N$ s0 WTitle                                    : Spanish-PGS
( y* p& V5 n8 z: d. @, e! DLanguage                                 : Spanish
3 p8 Q  w2 _  ?7 }0 {Default                                  : No
  J$ {3 \' E# i5 D' v; E8 yForced                                   : No6 K9 \2 B, {# L* t  l9 J& Y
Original source medium                   : Blu-ray  f  L2 x# a, Y5 m+ [3 f' x

9 i3 K6 a( |9 i# V4 P' }5 tMenu- V% C. {- n- P. A2 R; W
00:00:00.000                             : Chapter 01
- ~) m2 k5 q3 o1 v  c# P3 r% b: N00:10:33.007                             : Chapter 025 f6 E4 k# V# v# r: V
00:18:28.107                             : Chapter 037 G& a, c: S0 }
00:30:37.752                             : Chapter 04
" K8 S& |; s6 ?/ {' f00:41:54.220                             : Chapter 05
2 F2 }/ {- B. ~' k, |00:52:06.414                             : Chapter 06% M6 U& t5 ~, ]
01:02:15.481                             : Chapter 078 a. g6 M# A3 ?. r( X+ Y) o' [
01:12:43.025                             : Chapter 08
) |! }3 Q0 U* f01:23:40.432                             : Chapter 09
& y& b+ |& R, {7 F01:31:01.873                             : Chapter 10) V2 }. Q9 W9 |; y- ~  {- A
01:40:33.986                             : Chapter 11
5 ~! T" Y) |5 @- ~7 G* v# `3 J01:50:00.176                             : Chapter 12

0 M+ k, p8 H0 F& O& H' A
游客,查看本帖隐藏内容请回复 | 加入VIP贵宾可免积分免回复 了解详情 | 还不是会员:点击获取邀请码 Invitation Code

76

主题

2758

帖子

1万

积分

Sponsor

金币
1312 枚
体力
3839 点
lanpanshuma 发表于 8 小时前 | 显示全部楼层
这么好的帖子不回对不起自己!
& g0 ~4 x( O. U% \- T2 w% YYour resources, well, I am very satisfied!
/ \1 C* J5 y2 [  N+ l
该会员没有 ...

本版积分规则

小黑屋|Archiver|蓝光电影资源网

GMT+8, 2021-6-12 19:39

快速回复 返回顶部 返回列表