BluRayCD Forum

 找回密码
 立即注册【分享大片】
查看: 151|回复: 16
收起左侧

[蓝光原盘] 特工追缉令/触发点 [REMUX无损版] Trigger Point 2021 1080p BluRaycd REMUX AVC DTS-HD MA 5.1-FGT 19.70GB

[复制链接]

8213

主题

8407

帖子

6万

积分

Forum Moderator

金币
11998 枚
体力
10677 点

卓越贡献勋章

24小时 发表于 2021-6-25 20:11:56 | 显示全部楼层 |阅读模式
A disgraced former U.S. secret agent, who suffered memory loss, is dragged back into the darkest shadows of the spy world.
4 u( f2 |' H* s( N) V& ~0 D+ |6 @/ r' _  i! H. ~2 h
01.jpg
1 h4 W8 W* P% P
( X' Y8 N0 Q/ W9 a◎译  名 特工追缉令/一触即发/触发点
3 x8 |! M' I' f' B: n( m9 D◎片  名 Trigger Point
- {' k! g0 z0 X. y, }◎年  代 2021
& y* x* [" M7 m# }◎产  地 加拿大
5 [3 w" X$ o* B& s' B% L2 G◎类  别 动作/惊悚, D! y; s, Z2 k8 a: A
◎语  言 英语0 k6 z9 |) \4 o: \+ P$ v/ _" x
◎上映日期 2021-10-10(美国)
4 u# j1 H, A& L# ]+ o5 F# |◎IMDb评分  4.8/10 from 1,069 users
- u# }- O$ r* K0 p◎IMDb链接  https://www.imdb.com/title/tt13382698/
2 N/ K* ?$ K4 Q+ H/ |◎豆瓣评分 0/10 from 0 users1 y7 B' ?' k5 H0 R  h0 y
◎豆瓣链接 https://movie.douban.com/subject/35387943/
) a% |# w) w/ ]2 L" X7 Z, B2 R% \◎文件格式 x264 + DTS
% B2 n4 w. O( p$ q◎视频尺寸 1920 x 1080
9 ~7 H. w) C7 x% G  Y% a◎文件大小 1DVD 19.70 GiB
" |2 c3 d4 y( ]% \& \◎片  长 1 h 22 min# r7 g! B* j) v( |6 [
◎导  演 布拉德·特纳 Brad Turner$ t0 V- t! W/ L9 d
◎主  演 巴里·佩珀 Barry Pepper7 k1 u, }% [7 G& v
       劳拉·范德沃特 Laura Vandervoort
. P* z/ t- U$ |: G; D4 G       伊芙·哈洛 Eve Harlow1 Y  ?; B1 ~% c  V4 }% X; c2 }
3 [8 p/ k. `! A& @' J" I
◎标  签 特工 | 动作 | 美国 | 风景好 | 犯罪 | 惊悚 | 美国电影 | 看过的电影" A  r4 M+ F( |1 G  @% j4 y( X4 U

9 n3 g3 h4 B8 A* U1 Q) L; U/ B# {◎简  介
- I# u' q) ^* ]$ e7 v: H; `& l
  一名名誉扫地的前美国特工失忆,被拖回间谍世界最黑暗的阴影中。7 T9 u# B& a4 R
) ?% C# o3 m' B
  Follows Nicolas Shaw, a retired U.S. special operative who becomes part of an elite "invisible" team that quietly takes out the worst villains around the world.5 L" Q. t0 f% S8 o9 _

% k8 F- j$ J' S( F7 T6 w
Video- T% P: i8 R' H) `: W0 Q6 c6 t
ID                                       : 1# [1 o' e/ _4 j6 O3 A3 o# `
ID in the original source medium         : 4113 (0x1011). x9 l; r! s6 G8 B
Format                                   : AVC
; H3 O7 j3 }7 EFormat/Info                              : Advanced Video Codec
; v3 g' ^0 _; eFormat profile                           : [email protected]
* P# Y7 O5 u. [0 AFormat settings                          : CABAC / 4 Ref Frames
9 z% d3 ?2 R; H' J$ I, s( @Format settings, CABAC                   : Yes: G$ i7 V6 C: P5 p1 z
Format settings, Reference frames        : 4 frames/ s7 o# Z+ \+ G. I- C+ J" L
Format settings, GOP                     : M=3, N=12) y+ {* Q/ d: X$ D" c! A
Codec ID                                 : V_MPEG4/ISO/AVC
* l* p: z" X; O, o2 {0 d4 W, d! YDuration                                 : 1 h 22 min/ U- X# y0 `$ r
Bit rate mode                            : Variable
) P- W. k4 U& D& JBit rate                                 : 28.2 Mb/s
3 X: F* M+ \5 o/ b) F- PMaximum bit rate                         : 32.7 Mb/s* a" s: U4 R5 V+ X% A- y
Width                                    : 1 920 pixels+ R" U+ J1 A7 g8 @; J4 U  G. p
Height                                   : 1 080 pixels) W& g+ t+ e& H6 a
Display aspect ratio                     : 16:92 f4 \$ H4 f, m1 c, C
Frame rate mode                          : Constant
/ `; ~; }$ f4 r5 ZFrame rate                               : 23.976 (24000/1001/189150) FPS) Y; R* u& r' z3 e4 _6 t
Standard                                 : NTSC
9 `% Q" |7 Q7 _2 bColor space                              : YUV
: G' f9 X' o8 }  H: wChroma subsampling                       : 4:2:0
1 i; U- i8 [8 J) cBit depth                                : 8 bits
1 J3 h. `' w9 x- V3 S. hScan type                                : Progressive
, w. @+ u# q4 EBits/(Pixel*Frame)                       : 0.567
9 a  [8 Y/ f1 J5 z. v# AStream size                              : 16.2 GiB (82%)0 x% a* H9 B! C4 y6 C" v
Title                                    : Trigger.Point.2021.1080p.BluRayCD.REMUX.AVC.DTS-HD.MA.5.1-FGT
5 b& Q" m& ~& BLanguage                                 : English
& c0 h2 ~+ ^6 QDefault                                  : No
$ n' m4 W; x: uForced                                   : No
1 y0 O/ O' p9 SColor range                              : Limited8 b+ x+ }6 k+ S( C) k- U; y
Color primaries                          : BT.709. H, Y5 T. V3 _& u
Transfer characteristics                 : BT.7095 U! c6 s$ w. n2 q$ b1 o# V- ]
Matrix coefficients                      : BT.7094 j; E. p+ H$ N: r6 G  g, r7 [8 `
Original source medium                   : Blu-ray  ~  Y; v) _. v$ z3 o

. M8 ^; t( n1 W5 {Audio #1
5 h9 I/ d7 h% qID                                       : 26 q5 f2 b& v: W% e7 K- {) Y5 a- B& g0 k
ID in the original source medium         : 4352 (0x1100)) n$ \5 S( f! A/ `  ?( }
Format                                   : DTS XLL  C/ b2 |' r8 `
Format/Info                              : Digital Theater Systems
& A5 a( @- ^2 r  ~/ F8 ]2 Y$ Q; V2 jCommercial name                          : DTS-HD Master Audio
5 ~. y% {4 j9 T' b, Z8 fCodec ID                                 : A_DTS
1 b; t3 B) E2 j/ C+ BDuration                                 : 1 h 22 min
' E$ N2 B& \6 xBit rate mode                            : Variable" z$ L' u: B+ h- r  t$ s
Bit rate                                 : 3 700 kb/s
* j# K0 j4 r& N5 U# {& LChannel(s)                               : 6 channels
$ K6 l5 O9 Q4 _% E7 w( DChannel layout                           : C L R Ls Rs LFE
* y/ K! A: h. b% L- T6 A6 dSampling rate                            : 48.0 kHz
) T5 f; a3 s" I- E+ b# ^7 W# H- YFrame rate                               : 93.750 FPS (512 SPF): F6 q% N! \& |) q: f
Bit depth                                : 24 bits3 k, ^5 S, B& I- N8 F+ ~8 M+ z
Compression mode                         : Lossless2 ^5 t6 j* h: t$ F
Stream size                              : 2.13 GiB (11%)
8 G% i$ ^& m0 K; C( ~Title                                    : Trigger.Point.2021.1080p.BluRaycd.REMUX.AVC.DTS-HD.MA.5.1-FGT
, w0 E) {% s" j4 j- \1 DLanguage                                 : English1 z# z$ r, M' i) t
Default                                  : Yes  t7 ]2 E3 e& F8 I  p# M
Forced                                   : No* \  B% d% d0 r* O- F& u2 j: U
Original source medium                   : Blu-ray7 |- k; x" f2 x3 z3 g

- E4 q: w- d: u9 Y+ x1 a! KAudio #29 w3 F# j7 W+ a( [7 B1 I7 x
ID                                       : 3. }6 `) h' ]& `7 v- h  F! q$ @
ID in the original source medium         : 4353 (0x1101)# R* }9 b5 j+ l
Format                                   : PCM
5 Q' ^' Y0 j" Z9 G; n. AFormat settings                          : Little / Signed3 {& p( q/ P0 U& b! ?8 c8 T
Codec ID                                 : A_PCM/INT/LIT
0 \0 Q. E0 B' s6 q. ^Duration                                 : 1 h 22 min
( b: h: a1 a) b& mBit rate mode                            : Constant
) E6 b1 s2 v# OBit rate                                 : 2 304 kb/s6 a4 L9 x& F" }3 h0 g5 b
Channel(s)                               : 2 channels9 I! t% i" @" Y9 v4 y9 Y
Sampling rate                            : 48.0 kHz
' ]! z  f- H! q- t6 bFrame rate                               : 30.000 FPS (1600 SPF)
7 a7 |6 o( t$ \& @( g4 zBit depth                                : 24 bits. I- n* V! f5 A5 }% X& |
Stream size                              : 1.32 GiB (7%)7 m8 Y0 I- \6 W1 F  H6 E
Title                                    : Trigger.Point.2021.1080p.BluRaycd.REMUX.AVC.DTS-HD.MA.5.1-FGT
$ I0 L: \% ^( c' U5 q$ t* j' ?Language                                 : English
  S8 d3 p9 o; r( o& BDefault                                  : No
; k' ?" L' ^! z: r2 V8 `Forced                                   : No5 o& y/ B, U. M" r8 \; A4 V. |
Original source medium                   : Blu-ray
, v" v2 l3 N1 o' ?+ x& u! o, J; J, g4 Q' C
Text #1
6 _7 O: Z  M- Q! E' W7 TID                                       : 4
3 K  r7 a3 M! Z" [7 tFormat                                   : UTF-8* ]5 r7 |, X9 H
Codec ID                                 : S_TEXT/UTF8
! V6 c) v6 @, h0 r1 o. zCodec ID/Info                            : UTF-8 Plain Text
1 Y% J% ?. d9 k, T) }. N- ?, TDuration                                 : 1 h 17 min
' }1 Q; S& K" w9 K+ K1 PBit rate                                 : 40 b/s$ v) z% c4 w$ s3 X4 z* B+ W
Count of elements                        : 909
8 ?0 R3 t9 h' YStream size                              : 22.8 KiB (0%)
2 O$ K' f7 |1 W9 l# aTitle                                    : SRT
$ _, x# _* q: N( b8 b+ C5 LLanguage                                 : English5 j0 Y# ^8 q) p* k1 C/ w
Default                                  : Yes: o  ^1 q- H7 |, @2 f3 j: n9 H
Forced                                   : No9 @- I9 W$ q. N% ]  d
) M* `. N- L  B2 b; P# z
Text #2) a/ G( a& `0 W3 c# v' ]
ID                                       : 5
8 M4 O; z. @# M1 j! B6 pID in the original source medium         : 4608 (0x1200)
9 M" g+ u+ Y3 f( r7 zFormat                                   : PGS1 d1 U0 U- V. e6 J
Muxing mode                              : zlib
2 Q/ Z1 L1 i. T0 n1 ^% I. q) j+ MCodec ID                                 : S_HDMV/PGS; q. ?0 |3 d7 ], N, [$ o& K* o
Codec ID/Info                            : Picture based subtitle format used on BDs/HD-DVDs
# ~8 i  |9 Q" S. M8 F) q* h& _Duration                                 : 1 h 21 min
* H, p/ b( M- z& V; Z2 ABit rate                                 : 59.4 kb/s$ v5 _9 V- g8 _% Z, b8 I4 r, o7 b
Count of elements                        : 1887
7 w. G  o8 O1 w4 x8 A! G! \Stream size                              : 34.7 MiB (0%)- s" Q( B  I- R: A" f/ G) i
Language                                 : English
- M9 p4 p0 g0 I5 s' \Default                                  : No/ a3 L: a6 T9 b, n9 |
Forced                                   : No
$ ?$ ]8 v% Q2 g7 zOriginal source medium                   : Blu-ray$ z- t& I4 u4 p6 ?) ?5 o1 S8 Q
6 |3 p" P5 C8 S" [4 b
Menu  R% N/ |9 W# S6 y5 |, f3 x
00:00:00.000                             : Chapter 011 j. Z+ H5 T0 P# V" X; |8 |/ R# o
00:05:52.727                             : Chapter 029 r& i+ m) P3 t0 p2 K
00:13:45.115                             : Chapter 03
; T' v0 C5 t$ ^! w" s00:20:46.787                             : Chapter 04
# U% t2 `+ v" Z8 ?+ q00:27:38.740                             : Chapter 05* S7 y( D/ w" }! F9 W. {
00:37:21.864                             : Chapter 06
4 G* z- e+ b9 k0 O3 r# y00:42:08.984                             : Chapter 076 s/ D/ x2 J; H" f" W
00:47:56.164                             : Chapter 08& p3 l% L) b: i
00:55:25.780                             : Chapter 09
+ R% s' e- `& {  @% V9 M01:02:33.124                             : Chapter 10
7 r& m" y: w5 U* K01:10:42.988                             : Chapter 11
4 z  |: g! H' z5 f01:18:45.011                             : Chapter 12
* C( Q( ]) |/ ?' }, S2 y2 \
游客,查看本帖隐藏内容请回复 | 加入VIP贵宾可免积分免回复 了解详情 | 还不是会员:点击获取邀请码 Invitation Code

相关帖子

0

主题

100

帖子

637

积分

Sponsor

金币
72 枚
体力
320 点
zzk980220 发表于 2021-6-27 17:28:54 | 显示全部楼层
每天都来蓝光论坛看看,我爱蓝光电影。( D5 D# ^1 Y# U9 _; l: Q" }: h& L
The decisive Replies sink is I get the sinking feeling great sense of accomplishment!
& T; H4 _% S8 k1 L: L- d8 O* _3 F

0

主题

140

帖子

569

积分

Sponsor

金币
8 枚
体力
277 点
sebarstean 发表于 2021-7-23 22:02:47 | 显示全部楼层
每天都来蓝光论坛看看,我爱蓝光电影。
: c  W( u5 D- O) d1 p( SAfter reading the posts have nothing to do I Amoy posts!
6 L+ o( }& b/ Y3 M* f

76

主题

2994

帖子

1万

积分

Sponsor

金币
1440 枚
体力
4226 点
lanpanshuma 发表于 2021-6-26 06:50:05 | 显示全部楼层
楼主发贴辛苦了,I*老*虎*U!
  L. l9 b. d3 P" oAfter reading the posts have nothing to do I Amoy posts!
* U4 \% {% X, v- m- H& ]/ w4 }( k

0

主题

48

帖子

329

积分

Sponsor

金币
101 枚
体力
124 点
beamk 发表于 2021-6-25 22:07:22 | 显示全部楼层
这部片不知道有谁看过呢?

76

主题

2994

帖子

1万

积分

Sponsor

金币
1440 枚
体力
4226 点
lanpanshuma 发表于 2021-6-26 06:54:13 | 显示全部楼层
楼主发贴辛苦了,I*老*虎*U!3 z5 h/ u4 ?7 g. v, W
Your resources, well, I am very satisfied!1 x# K( b5 H9 Y% P9 n9 n

0

主题

441

帖子

2246

积分

Sponsor

金币
47 枚
体力
1369 点
QQ
sunday_119 发表于 2021-6-26 10:04:48 | 显示全部楼层
啥也不说了,楼主就是给力!
4 n5 r0 ]: M: V' XAfter reading the posts have nothing to do I Amoy posts!
' e4 _+ V  o& h7 B2 M, n; ^

0

主题

12

帖子

252

积分

Sponsor

金币
133 枚
体力
95 点
mtdfr 发表于 2021-6-26 14:00:07 | 显示全部楼层
新电影呀!谢谢分享!

0

主题

27

帖子

467

积分

Sponsor

金币
161 枚
体力
237 点
ljy-123 发表于 2021-6-26 18:27:01 | 显示全部楼层
啥也不说了,楼主就是给力!
0 H. q; E! Q1 D! ?Blu-ray Film Forum is now my home!4 \9 D( ]0 [7 |. I

0

主题

10

帖子

175

积分

Sponsor

金币
130 枚
体力
24 点
bobnt 发表于 2021-6-27 14:50:50 | 显示全部楼层
hhhhhhhhhh

27

主题

411

帖子

2105

积分

Sponsor

金币
46 枚
体力
1162 点
wyyo 发表于 2021-6-28 10:40:37 | 显示全部楼层
啥也不说了,楼主就是给力!0 E; @0 \" s9 S
I love your Blu-ray movies Forum!
3 Z$ F- u0 F& P5 K* N

本版积分规则

小黑屋|Archiver|蓝光电影资源网

GMT+8, 2021-8-5 22:52

快速回复 返回顶部 返回列表