BluRayCD Forum

 找回密码
 立即注册【分享大片】
查看: 208|回复: 27
收起左侧

[2160P极清] 明日之战/幽灵征募 [4K高清版 内封中字] The Tomorrow War 2021 2160p AMZN WEB-DL x265 10bit HDR10Plus DDP5.1-NAISU 14.64GB & 14.94GB

[复制链接]

5884

主题

6263

帖子

6万

积分

Post Share

金币
14283 枚
体力
11232 点

卓越贡献勋章

mvods 发表于 2021-7-7 19:38:17 | 显示全部楼层 |阅读模式

! |% O: b; z9 u, y
* b( M+ M% u+ k) w: S◎译  名 明日之战/幽灵分遣队/幽灵征募
; @  L" a8 k9 R- y7 u◎片  名 The Tomorrow War / Ghost Draft+ J% T) u; T1 u
◎年  代 20213 E1 R3 l- S; I+ J0 S4 ^( t- s
◎产  地 美国# x* a" G4 I8 W' x
◎类  别 动作/科幻
* n) M5 m# `* W- R◎语  言 英语. t4 L. p/ G1 c% M
◎上映日期 2021-07-02(美国网络)
; b: B; }) D- G. U; S◎IMDb评分  6.7/10 from 58,596 users
- ?, a/ k: e/ ~: p& w  R◎IMDb链接  https://www.imdb.com/title/tt9777666/
; V, C: s# G) L$ k' P* B- e9 F◎豆瓣评分 6.5/10 from 16,762 users; b9 {+ ]5 `# x% v, s
◎豆瓣链接 https://movie.douban.com/subject/30459571/: p7 U9 y7 X# F; r4 ?* y' j9 p
◎片  长 2 h 18 min' f1 G6 |! N4 o% y
◎导  演 克里斯·麦凯 Chris McKay/ E3 ^9 N8 N" Q- i
◎编  剧 扎克·迪恩 Zach Dean
1 l- t5 L" t& ]. F) L◎主  演 克里斯·帕拉特 Chris Pratt$ R* [; V* J, Q
       伊冯娜·斯特拉霍夫斯基 Yvonne Strahovski
  B8 \' w3 `- k% f4 f( h" C       J·K·西蒙斯 J.K. Simmons
7 u8 H8 `/ o/ K  K. G; ~       艾德文·霍德吉 Edwin Hodge
6 ~% P' o: F9 s) P7 Z       山姆·理查森 Sam Richardson3 k/ x# b1 p0 _  v5 w- M4 ^5 o0 B
       贝蒂·吉尔平 Betty Gilpin3 @- E7 h0 \  }4 ]* U9 c" W
       贾思敏·马修斯 Jasmine Mathews
: r6 D# B1 \$ Y2 |$ p8 @       玛丽·莱恩·莱杰斯库 Mary Lynn Rajskub
  e4 i% C: T$ S       赖恩·基拉·阿姆斯特朗 Ryan Kiera Armstrong
! Y) M9 N6 @( c8 \, d: l6 V       凯斯·鲍尔斯 Keith Powers
9 [: ^3 m. P9 k+ f       赛切儿·加布埃尔 Seychelle Gabriel; }# {7 o& A7 h. w$ m9 ~$ e' x% A* e
       菲丽莎·特雷尔 Felisha Terrell
" C2 ?7 {  Q& Y: G- S       梅利莎·圣阿曼德 Melissa Saint-Amand
& b. l" J" D" w/ ~       加里·维克斯 Gary Weeks
% T5 t" s, I3 G- a: G: L' `       大卫·马尔登那多 David Maldonado) s1 P- |! x( ~' U
       马修·康威尔 Matthew Cornwell  @. ^& s7 r  P# h' k
       埃里克·格里斯 Eric Graise( x* Q5 e- r3 ]. W
       罗伯特·廷斯利 Robert Tinsley; L1 A. k, \2 M) J, U" V
       安德里娅·安德拉德 Andrea Andrade
+ b8 X( E; r+ Z       帕特里克·马龙 Patrick Malone
3 n* b3 e; U; J7 c( H2 }! E       施奎塔·詹姆斯 Shiquita James
6 U* @: `' U; \- ?4 F/ j       吉姆·帕尔默 Jim Palmer
8 x7 F: s9 A0 V2 V9 o       雷德·戴利 Rad Daly
; w0 F4 h0 E" @* a       亚历克西斯·拉奥特 Alexis Louder
  b# B* w+ ~- y/ a& m       梅根·劳利斯 Megan Lawless( V3 K0 L; l) M/ x& O) f- H
       克拉克·萨鲁洛 Clark Sarullo) i  L" {+ z, d; v8 l
       肯尼斯·以色列 Kenneth Israel
, }  y  }* K( M7 C       小佩里·祖鲁 Perry Zulu Jr.
" ~' m5 F+ M! W7 T7 j       肖恩·雷卡特尔 Shawn Ray Cartel
5 }  M# [$ O  T3 ^" O. o5 @. k       Rodney L. James
0 u+ H* B, P( l8 m: {, U$ M       Chibuikem Uche
2 k/ H0 M5 }3 b  a2 ~5 N% ^8 Z       迈克·米切尔 Mike Mitchell5 U; F% G5 m- H( k+ ?
       Alan Trong
# I+ H  `1 M8 u( h8 L
% o- A5 r" s' q- s- u& ^◎标  签 科幻 | 克里斯·帕拉特 | 美国 | 美国电影 | 2021 | 电影 | J·K·西蒙斯 | 等待上映' ]% m3 `" \- {
* O+ {2 [0 a9 Q' B  w6 X  z# J5 T
◎简  介     
" x1 b7 u/ p  u& C
: f. a! F3 M- A5 Y  克里斯·帕拉特商谈主演科幻影片[幽灵征募](Ghost Draft,暂译),克里斯·麦凯([乐高大电影])执导,扎克·迪恩([陷阱])操刀剧本。故事讲述一对父子被征募到一场未来战争中,这场战争决定着人类的命运。天空之舞(Skydance)出资制作。0 _) X- v3 [6 \# V& e0 \

5 p4 W& A& R' o: g  A family man is drafted to fight in a future war where the fate of humanity relies on his ability to confront the past.
, I1 r1 W7 J* }3 q+ @/ D
Video
" q! e- d5 K# l. yID                                       : 1
7 H& @: K! Z  ?* x' WFormat                                   : HEVC. Q, I( R: `5 ]
Format/Info                              : High Efficiency Video Coding
4 o7 v8 S& \/ a1 \. i! kFormat profile                           : Main [email protected]@Main- c' _# e- v/ R. T1 L+ p. A
HDR format                               : SMPTE ST 2094 App 4, Version 1, HDR10+ Profile B compatible
+ Q* E* g7 \6 A' S- o, P! c9 U$ J8 g* MCodec ID                                 : V_MPEGH/ISO/HEVC4 g6 H$ B4 A# ?2 P: T& S
Duration                                 : 2 h 18 min
6 V  ?  b9 B, ?* o& ?Bit rate                                 : 14.4 Mb/s
2 Y. G) H- A, \0 O/ P' K; ]# gWidth                                    : 3 840 pixels
9 z* i. }; B2 f+ }0 N0 y7 Z, mHeight                                   : 1 600 pixels
6 b) I: \: T" l2 |9 j! @+ {Display aspect ratio                     : 2.40:16 O) k6 ^" Q+ V' [- s7 \
Frame rate mode                          : Constant
' k9 ]* }5 X( S6 MFrame rate                               : 23.976 (24000/1001/189150) FPS
9 S& n/ V% q# V! k5 _6 D2 N. tColor space                              : YUV% D( O! P' v2 K# I' z
Chroma subsampling                       : 4:2:02 P4 z/ j9 q. G
Bit depth                                : 10 bits
: y, ]" q# _0 b. WBits/(Pixel*Frame)                       : 0.098
2 c4 ]; f) E$ n" d0 RStream size                              : 13.9 GiB (94%)
: }' ]0 r# k0 T$ ?3 WDefault                                  : Yes
. v/ T. W  b4 P6 a9 PForced                                   : No
/ x( r* @4 p& h3 Y2 P7 W+ q5 r9 DColor range                              : Limited4 z1 @0 k2 g# f4 {! i% t% K0 x) V
Color primaries                          : BT.2020
5 w* Q, y" R9 p/ VTransfer characteristics                 : PQ
" e2 H- y+ a  b  I& PMatrix coefficients                      : BT.2020 non-constant+ F& g+ f3 e# l3 b! m  V
Mastering display color primaries        : Display P3; }3 z: w, P, W- Z% ]+ Y6 G
Mastering display luminance              : min: 0.0001 cd/m2, max: 1000 cd/m2
8 \2 U8 Y$ t& J$ @# MMaximum Content Light Level              : 956 cd/m25 g/ T: m  {# |+ V4 J) X
Maximum Frame-Average Light Level        : 570 cd/m2
' o, S& R% k! e  }/ G6 q* O( A/ \1 l9 R; A
Audio
, G# ~2 m: X' }ID                                       : 24 m' L" O* w1 R& O
Format                                   : E-AC-3
; S2 z" q8 o% E  D) |4 g8 T5 rFormat/Info                              : Enhanced AC-3
- y9 ^7 y$ h3 i1 B) pCommercial name                          : Dolby Digital Plus
8 Q  c' c  F! \# n. MCodec ID                                 : A_EAC3
6 `* E6 Y. M" s5 @0 _! T) SDuration                                 : 2 h 18 min1 u( ?# d& B5 }2 _
Bit rate mode                            : Constant
2 s1 H+ ]3 x' D+ d5 P& j) {8 ABit rate                                 : 640 kb/s1 y+ |8 a5 h! l- B! B& [+ y
Channel(s)                               : 6 channels
5 @& F( D* \  k* m! f- OChannel layout                           : L R C LFE Ls Rs" @% n+ o  V6 e, n- }, Z
Sampling rate                            : 48.0 kHz
! `6 m6 c" y9 s# tFrame rate                               : 31.250 FPS (1536 SPF)
, r0 U5 k! r( g; eCompression mode                         : Lossy2 s" [2 p  s: S3 K. D
Stream size                              : 632 MiB (4%)
" B* |' Z; G% Q$ hLanguage                                 : English
5 I: f' ^: k% f4 e) pService kind                             : Complete Main
' |, k9 s4 u) a% i& q1 PDefault                                  : Yes" R$ \4 d4 r" Y+ {9 C7 f5 L4 k/ Q
Forced                                   : No
8 z. u5 \! c* t0 v% X( T* ^, e/ D9 c$ o6 a! n! C
Text #1
9 v7 m6 ^) r& [% J9 o" \ID                                       : 3
& e* L0 G0 ]# ~; F& v) v$ B6 N6 }Format                                   : UTF-80 e1 T: H1 R& [! \& b  }2 f: F) t5 J
Codec ID                                 : S_TEXT/UTF8
8 v" K0 S# m$ ^8 J. RCodec ID/Info                            : UTF-8 Plain Text
' G& \$ Y; b3 N# s/ w/ F2 DTitle                                    : English) l! ^, u( i, B" ^
Language                                 : English7 l( ^" q  r' L( z1 z
Default                                  : No8 c4 q1 P% u: p" b$ D% E, v
Forced                                   : No4 |/ n& i4 v4 R+ P# h0 @% l# `
: i8 I. e* ^7 P& ]$ [( m
Text #2
/ J5 O+ c4 ?9 Y8 F$ }) {& e9 hID                                       : 4; g* C4 `6 K' v' n5 `- b
Format                                   : UTF-8
7 h# R6 H1 X6 Y9 oCodec ID                                 : S_TEXT/UTF8
0 W/ F% ^- e. N$ u% P$ m' R- DCodec ID/Info                            : UTF-8 Plain Text
2 a% {! E+ S9 XTitle                                    : Arabic1 C# P$ H" m# r
Language                                 : Arabic& f2 @9 ?6 [) W. m) B
Default                                  : No1 H$ U1 X8 i/ u* t) t5 q
Forced                                   : No
7 x& T, v; \/ \3 f- T
. B1 i5 A4 G+ S, K6 w9 w1 D' R7 i0 D/ mText #3
: L: a2 m! L9 N. H. ?ID                                       : 5
/ g1 X+ F% a9 p7 j2 ?Format                                   : UTF-88 _4 M% @& w. ~2 M
Codec ID                                 : S_TEXT/UTF86 l8 G1 U/ w0 ~* j3 E: x
Codec ID/Info                            : UTF-8 Plain Text
# G  [- ?  s; r$ }7 ITitle                                    : Chinese Simplified/ S7 z6 L5 W$ e% m& {. l3 ^% D; b8 K
Language                                 : Chinese7 X! W0 e' y" L& `( r8 f
Default                                  : No" E- x7 _! M+ o; P4 |
Forced                                   : No
. u, x; [! h8 Z4 ~, m- K& L0 `. O7 C% `2 m% b' L
Text #43 o9 F* F/ w4 K6 P$ l& P
ID                                       : 6
% f; [. Z$ r8 k$ _" JFormat                                   : UTF-8) c$ W4 o! e7 Y+ J
Codec ID                                 : S_TEXT/UTF8
" A! H  F; L. B' @3 D. |Codec ID/Info                            : UTF-8 Plain Text9 D( @2 ]9 z/ z0 J/ `3 _$ f( t
Title                                    : Chinese Traditional
" ^2 O$ e& V: L, C: ^5 E; ELanguage                                 : Chinese
2 o* P, }6 V) k+ Q3 a. U& |" nDefault                                  : No
- g# D, [, K; ~# FForced                                   : No9 p# N* B" d: H- [( w* S

6 [) @& i  ~  ~% y0 D' {Text #5) K  y# W( `) d2 r  g. b
ID                                       : 7
1 `: T8 P9 {* U5 JFormat                                   : UTF-80 [8 _5 b/ B, f5 z/ k1 X
Codec ID                                 : S_TEXT/UTF82 L% v% ], f4 V. ?6 A, W6 L( \
Codec ID/Info                            : UTF-8 Plain Text
+ u, T4 C# ~5 a7 iTitle                                    : Czech (Czechia)7 o8 w- D' z) F  X) [
Language                                 : Czech$ i" \* |8 \6 F& _: k
Default                                  : No
. K) o+ R' w' ?! [Forced                                   : No+ Z* I' b  A; G: }, i, s

7 M; b/ I0 n$ k/ s3 t3 E& f! N% b7 qText #6- |3 |/ o) i# y- q6 A+ J
ID                                       : 8
; D" p" b, L2 J6 eFormat                                   : UTF-82 b! T( }  f: U/ t
Codec ID                                 : S_TEXT/UTF8* P' H$ u4 l) e* f
Codec ID/Info                            : UTF-8 Plain Text/ j) }" p3 D* a4 R
Title                                    : Danish, R2 d$ V( \6 ?, D" C9 V
Language                                 : Danish
* t" W% b6 }8 N: y, z6 BDefault                                  : No
% c: O% A0 R  r0 u! sForced                                   : No
6 u- o9 n* r4 s& P, l* h4 o/ `6 l$ e- q, O$ `" A0 Z
Text #73 R% z. O/ N2 @; ~9 T6 [$ Q) ]$ d
ID                                       : 9
: m; d+ q6 J# o7 YFormat                                   : UTF-8
9 `9 T9 `( y( ]' C9 PCodec ID                                 : S_TEXT/UTF8- Y2 ~. i! [; W  M9 b- U
Codec ID/Info                            : UTF-8 Plain Text
) \" ~. u: J8 s8 y9 o7 t7 R4 \Title                                    : Dutch
4 E. f* p' _" ]6 FLanguage                                 : Dutch
- v) P8 B) G1 N) z6 rDefault                                  : No
" u) _8 X2 X" ~Forced                                   : No
) x; d4 P5 u3 a2 B6 b
! S+ t* b$ u5 E/ G: O) wText #8
1 h. J0 ]: G/ I5 q# k/ yID                                       : 10  h4 V1 M. r% [+ o1 J6 C
Format                                   : UTF-8% ^9 [' h' u% F
Codec ID                                 : S_TEXT/UTF8
2 `' d: z. l" qCodec ID/Info                            : UTF-8 Plain Text
: C, S# A* W# ~2 N0 O, yTitle                                    : European Spanish# k8 N/ N7 u+ g+ t
Language                                 : Spanish
" W% w  }6 n% l# ODefault                                  : No0 p3 d' z/ N5 {- B4 R1 j0 A
Forced                                   : No: e9 p$ g  R! j2 [6 J
4 I1 l% P0 k4 h/ E3 M5 J  F. ~! s; j
Text #9
( p' r, ]- o8 n6 {0 ~ID                                       : 11
# \2 t( u! P( I2 ]% d9 MFormat                                   : UTF-8
4 o3 n( g# \7 V0 FCodec ID                                 : S_TEXT/UTF8
5 ~. k3 |+ Y% n/ [0 r( bCodec ID/Info                            : UTF-8 Plain Text
% A7 }6 `% X$ P. [% n7 ~Title                                    : Filipino6 s+ `4 f5 |* s5 X: C
Language                                 : fil. N& F- K& B5 E6 e/ s  j' V" J( _
Default                                  : No
4 ^: f5 j$ w' A/ |; Q6 L2 d% UForced                                   : No
, [4 p' C1 U5 a6 F% [( E: F: p: O, q* U; k9 _& d7 L) _
Text #10
3 B1 U7 Y) B6 G2 ~: N6 A8 vID                                       : 12
( x" l! Y, S# t5 {3 {1 d, ^Format                                   : UTF-8  B& f5 n2 ]) i' a: A
Codec ID                                 : S_TEXT/UTF8
2 F( T8 u) f. X$ N' x; |0 Q4 w1 H. sCodec ID/Info                            : UTF-8 Plain Text
# g5 Q- e* `$ A7 ?7 RTitle                                    : Finnish
3 H1 w6 Z, T6 F( O" n: N! LLanguage                                 : Finnish2 E1 Q9 s" A& X  g+ p
Default                                  : No& M8 n* u- ]! A; Y
Forced                                   : No) s6 v3 s% N. u' K, G, G* Y
8 T8 V/ R8 T1 q. E
Text #11- e0 n. z+ M/ |8 m9 E5 h4 p7 j
ID                                       : 130 L6 W2 L( N; b0 q- d6 ]) J
Format                                   : UTF-8
" R2 U1 {! j, ^. S1 C( yCodec ID                                 : S_TEXT/UTF8
' K5 ~9 G8 X8 R8 @7 R: |/ b8 ?, fCodec ID/Info                            : UTF-8 Plain Text7 O0 g8 O4 V4 S5 e
Title                                    : French
% a+ `! ]: ?. h$ M1 WLanguage                                 : French! c# R) c. @) B$ X) @
Default                                  : No
( x8 y9 g& G7 E& W: c" WForced                                   : No# N, ?' C; D( m2 @9 B% }
" H0 G( l8 R: w$ z
Text #12. A- F/ H; Q7 E, ?: L
ID                                       : 14! A; q7 e3 Y6 G; W
Format                                   : UTF-8
) ^0 Q9 l/ v9 v# y' N& s8 FCodec ID                                 : S_TEXT/UTF82 L8 E. q" W- v6 C
Codec ID/Info                            : UTF-8 Plain Text
1 h4 x) ]- J5 S; LTitle                                    : French Canadian
5 l$ n$ k9 b! D) O( D0 SLanguage                                 : French
9 X! e, v. I8 RDefault                                  : No
$ x2 Z2 t+ F# ?0 H2 NForced                                   : No5 s$ f  L5 m1 x. ^: M  a" j$ \! n

5 \8 X9 h. w! ~Text #13
* I. x7 q9 M! x/ rID                                       : 15
  V2 I) ^% f1 y& p+ gFormat                                   : UTF-87 f7 o0 g; a/ T4 U+ V* I
Codec ID                                 : S_TEXT/UTF8. R1 S2 K3 o  X9 w- r2 I9 A" ?
Codec ID/Info                            : UTF-8 Plain Text
, f/ O6 |1 @) ^" e* G( V! m' \Title                                    : German0 \: m3 r! B2 H' N, }) Y# ^* m
Language                                 : German
3 ], ?: m" C- U  VDefault                                  : No
) S7 u5 ?# |( n# |  f" q" LForced                                   : No
# j. y1 }0 s6 R8 T( ^& s) l0 E/ L) x
Text #14* `1 Q8 `  G9 w+ `- G
ID                                       : 16% n* a, b+ ^  C7 ~) G) E
Format                                   : UTF-80 i) [& C+ C+ F
Codec ID                                 : S_TEXT/UTF8
/ ?: s  z2 G: Y# W% }3 hCodec ID/Info                            : UTF-8 Plain Text/ p; I7 v. |. j( a
Title                                    : Greek (Modern)1 \1 L' V% Q9 B" J
Language                                 : Greek
7 Q6 @- x* T) i8 _* `Default                                  : No
* ~0 ~3 u% C. A8 C  HForced                                   : No
9 t3 i) Q$ g: t0 e7 X- i" d! Y; j. D8 _& V' _% k
Text #15
4 W$ E" X% o+ w+ T9 j6 C( O6 jID                                       : 17
, S1 w. E0 V9 M& {- F- tFormat                                   : UTF-8! U" h" `6 D' \+ ~) U
Codec ID                                 : S_TEXT/UTF89 a7 H( ?/ `! ]  {& p; N4 H) g
Codec ID/Info                            : UTF-8 Plain Text9 ^  e% Y8 D! S
Title                                    : Hebrew
7 ~" B, G5 z1 C* |Language                                 : Hebrew! H( }7 v" a- w0 Z
Default                                  : No% ]7 y% R7 {1 M$ w+ {; o6 ^4 `
Forced                                   : No* U! {* b4 r/ u4 f, W
7 e- j! z. O7 Q  Q# B" F
Text #16
9 C; n5 w; {, y) [5 ?4 n% _2 @ID                                       : 18. N, d4 ]  v/ A0 k( {1 }5 U+ I
Format                                   : UTF-8$ E( y6 m* G+ O7 O
Codec ID                                 : S_TEXT/UTF8
# }: D8 y4 ?( n# m2 @9 xCodec ID/Info                            : UTF-8 Plain Text
1 ^9 E- T* R) _; VTitle                                    : Hindi: h7 b2 L( A( |( P
Language                                 : Hindi
3 X: i9 T+ f$ [- r- `' VDefault                                  : No
8 \$ o. @9 _' o, s9 RForced                                   : No: w2 M2 j2 d0 o' e5 u: k) a
2 k* a1 E3 s9 i8 I- }
Text #17/ s7 u! k% W. H
ID                                       : 19. A  H" T' t0 m
Format                                   : UTF-8/ A* h6 P) q7 V- I
Codec ID                                 : S_TEXT/UTF8
; g, e7 q0 ?9 t* ?' Q& GCodec ID/Info                            : UTF-8 Plain Text
1 o, A* ]9 a9 n! w5 X1 bTitle                                    : Hungarian
1 _- A9 s  j) O; ~! N1 e; Z9 u  VLanguage                                 : Hungarian* }/ n" k9 t3 u) \! b
Default                                  : No
3 ~3 V/ |1 b/ T% y4 s% z# LForced                                   : No
# p6 f2 p! ~3 t3 w# u4 H" u7 S7 |& k0 X3 Y# g0 G
Text #18- s6 e7 a7 K- X& z  b; h
ID                                       : 20
7 [- t3 d* j3 ]& nFormat                                   : UTF-8
, {$ g  M5 Q, K1 Y6 I- ?" c* ICodec ID                                 : S_TEXT/UTF8
+ k5 {* R' w, s+ o& @Codec ID/Info                            : UTF-8 Plain Text
8 t5 c: q( r5 f1 iTitle                                    : Indonesian9 r- u  e" J& `9 J% Y- k6 ]
Language                                 : Indonesian
  m+ n: b8 \2 d  JDefault                                  : No! b1 h! w3 P% n" k7 ^
Forced                                   : No
5 G% p2 X1 [2 v/ w( H% P/ l
/ E9 K' a, g% X9 TText #19! f1 c8 k9 x1 E! Z% z( D7 V. _
ID                                       : 21
- m, a$ M* e2 KFormat                                   : UTF-86 y! j9 R" u" V( h; e0 z
Codec ID                                 : S_TEXT/UTF8
, X, g; h: f. h' D3 eCodec ID/Info                            : UTF-8 Plain Text/ ~/ @; r7 J* Z* m2 X* D
Title                                    : Italian% N) g- r( Q+ @( Q2 ~1 n
Language                                 : Italian
" S2 h- \9 B0 d  @# ]9 uDefault                                  : No
3 U! E1 j! X) s8 q& Q+ mForced                                   : No9 W  Y/ m0 w7 \5 n
5 t1 ?7 U/ X# V$ y+ p1 {
Text #20
* p2 `/ C$ `. F6 T% L! {% h) sID                                       : 22) e3 p. B& C! \
Format                                   : UTF-82 o0 v8 |" r- D0 T4 f6 l* ?( R
Codec ID                                 : S_TEXT/UTF80 Z7 k( x- R6 N9 r
Codec ID/Info                            : UTF-8 Plain Text* T8 S3 l9 J7 ]; l# p* `
Title                                    : Japanese
& ?) \! c% m$ rLanguage                                 : Japanese
9 D) I! d( ~* C  X3 X- D% O$ WDefault                                  : No
+ V; w1 {0 B5 R/ q" V; JForced                                   : No
! V* a4 ?% A4 _3 L) T+ v
0 c; b! X1 b4 @& Q5 h; _% MText #215 a# j7 L/ y3 r
ID                                       : 23
' {2 y0 w* O3 t1 f9 {7 o3 n- jFormat                                   : UTF-8, ]0 f. J4 D: C3 c  v6 S3 S* S
Codec ID                                 : S_TEXT/UTF84 S  P+ l5 g: E) L1 ?* f" L
Codec ID/Info                            : UTF-8 Plain Text' b' G+ D/ w. }
Title                                    : Korean  r, o# s& [0 I% m6 W# y
Language                                 : Korean
' @( q( l, f. L5 v" O2 XDefault                                  : No
% n) o( X3 d  t1 {3 \' `Forced                                   : No
4 m: `+ h- C' y+ t4 f! P4 T+ s4 V% h& R+ G; L5 W) A
Text #228 H3 K+ ?' P- w' i3 X' S
ID                                       : 24/ n5 \8 b# Y) H) ~
Format                                   : UTF-8
$ x. P2 o, t* B6 P' Q8 \0 NCodec ID                                 : S_TEXT/UTF8
  W, O: i1 E' d, e7 a# wCodec ID/Info                            : UTF-8 Plain Text
* K8 X& M+ D) s7 NTitle                                    : Latin America Spanish9 z" g- h8 |. B! b( P% C' K
Language                                 : Spanish9 ^# T" s3 j1 o1 K  p' P
Default                                  : No% J# t7 o9 V. {9 l
Forced                                   : No% ]9 h" Q" u, H* y
2 Y- Z# a2 k1 R4 R6 G5 C* q
Text #23
8 z: D. O5 n. V6 J( oID                                       : 25
/ i/ \, a, Q4 n# ~. M+ {9 q. `Format                                   : UTF-8/ {& ]" W) G: ]9 s
Codec ID                                 : S_TEXT/UTF8% ^+ S7 M" k- g6 b
Codec ID/Info                            : UTF-8 Plain Text
* z1 O6 A2 U" Y0 N/ w  DTitle                                    : Malay' F7 P- l3 f5 q/ v$ Y# d
Language                                 : Malay
4 S4 K3 v0 c" M, DDefault                                  : No! f! {# }4 J0 O/ Y9 W" K6 b* B
Forced                                   : No' V* T4 V( \- a- w! W1 S( g: O

. `. O  K( c( v, u& ?Text #24) J+ U- S2 k/ V/ H4 o/ e" e+ ~4 ?
ID                                       : 26
6 c. t" ~0 t9 Q( t- \Format                                   : UTF-8
4 E# j- Q- V4 ?8 a' @! ^$ ECodec ID                                 : S_TEXT/UTF8
, `1 S- W- ^/ {" f( m5 F5 hCodec ID/Info                            : UTF-8 Plain Text8 |" x+ v& p5 `: P
Title                                    : Norwegian
: Q( q: {. I3 m8 U+ A- C' j2 lLanguage                                 : Norwegian: r/ O0 I, D3 c! b4 J; F
Default                                  : No
- y" s& i& B/ V3 R0 g: y& m% PForced                                   : No
5 |& \; f" v4 o8 u/ J6 p9 |/ W. u' X: Y7 f; A) [7 s% W
Text #25
0 W$ N) Y2 z3 D$ p# G9 Z2 }9 hID                                       : 27. k# |* V# i6 c; q
Format                                   : UTF-8$ g) |. V8 t# X
Codec ID                                 : S_TEXT/UTF8" f4 H- |  l6 c) u
Codec ID/Info                            : UTF-8 Plain Text
* _( ]: F" x4 Q8 n# q! `Title                                    : Polish6 f# l4 z- x$ K" K# A
Language                                 : Polish
5 X  X0 C# h1 E3 T* \Default                                  : No
" }& m" @6 _6 P2 a* D: Y9 G# mForced                                   : No$ b: C' [# ^+ |. g( p- k
) \. k' n& `) P0 Z# _& O
Text #26
( N; f) U$ N8 b/ t, \9 |* e) kID                                       : 285 P9 D, Y1 A) X9 u
Format                                   : UTF-8# k( x! p' @; O+ H' G8 u5 D+ a
Codec ID                                 : S_TEXT/UTF8
2 c  ]6 F8 R# }+ |' D, @Codec ID/Info                            : UTF-8 Plain Text' n8 ~8 e0 g* c3 }. z) A& x
Title                                    : Portuguese  _6 E* J2 e, w( i
Language                                 : Portuguese. P5 C0 t: p* t, @0 ]4 ^$ b$ S
Default                                  : No3 v8 z; |- _3 G- a
Forced                                   : No' N0 p( I* Y+ A* B4 s7 J
" D( P) `9 m' I
Text #27$ R. k, ]$ S( t( p/ f% d$ f6 e
ID                                       : 29& I( a, o4 {; y* E$ ~! z, V, g
Format                                   : UTF-8
1 H. {- x2 w" BCodec ID                                 : S_TEXT/UTF8$ T  d/ o% X' ?% f  \
Codec ID/Info                            : UTF-8 Plain Text- Q" f5 E& b8 J: ^% }5 b
Title                                    : Portuguese Brazilian
3 k' l4 X( u" }8 fLanguage                                 : Portuguese
) G% a  g6 F4 j7 h+ ?: h; wDefault                                  : No. W7 ?7 z% j6 U3 r
Forced                                   : No5 z1 }# p8 c2 p+ V$ p
) A2 l5 B, K+ N: E8 K( X
Text #28
2 c. P8 k  ~! v. l9 jID                                       : 30
5 Z, h, J7 S2 U# b( kFormat                                   : UTF-8
. e, b7 t1 w& g! D' WCodec ID                                 : S_TEXT/UTF8" `7 a$ u$ U! o% e) J, ^! r
Codec ID/Info                            : UTF-8 Plain Text
, R: a, t8 o6 M! M: g6 mTitle                                    : Romanian (Romania)0 m* v: }5 |# y- z5 q" _: M
Language                                 : Romanian! J. ^5 l8 s. ]7 M% N+ n; }
Default                                  : No
/ v# W2 C3 ^! dForced                                   : No) l. a1 N" m9 P5 R4 h, m- M
1 e* _* ?6 c# m2 M  \
Text #299 N: K, X0 z. `) E8 ?
ID                                       : 31
4 a. i' y5 q$ i0 e5 c. PFormat                                   : UTF-85 k: [# o* {% y, N2 ~* R. J
Codec ID                                 : S_TEXT/UTF8  @$ m0 O& ]( P0 \/ i
Codec ID/Info                            : UTF-8 Plain Text
; a0 }; i* s: d# Q$ W; ITitle                                    : Russian6 @2 O9 b5 x# m+ c
Language                                 : Russian3 K9 N  P+ t- {- ^
Default                                  : No' }, u5 y) Q& Y7 W' D
Forced                                   : No
. L1 k8 V1 w- |- ~0 m+ T
8 P! _0 J) O4 t$ N; ?2 H+ pText #30) G) H8 S, f/ ^
ID                                       : 32
3 {$ k; e2 r. J. s6 }4 w, e) S- h' O  tFormat                                   : UTF-8, |2 y# d( J' `# J
Codec ID                                 : S_TEXT/UTF8
# ~& i4 c8 m9 M8 _+ m: wCodec ID/Info                            : UTF-8 Plain Text
; e0 g3 B# E" d0 t9 dTitle                                    : Swedish
' t4 I, _. G9 |# E. g. HLanguage                                 : Swedish/ M7 d- ]1 ]6 y4 B
Default                                  : No
, W8 u, d) ?. u3 b2 x2 T& @3 m- tForced                                   : No  A* T& H+ \! ?( k2 B0 v
& J: z  V2 ^) z! Q% o( W
Text #31
8 u6 I) h: J: T; b. [4 d$ ?ID                                       : 336 t; s' r/ P2 z1 k7 K6 b! Z
Format                                   : UTF-8* M: |) p0 t1 _
Codec ID                                 : S_TEXT/UTF8, z9 t1 _" `9 X# M# Z
Codec ID/Info                            : UTF-8 Plain Text# [1 w+ ~9 M1 v7 M2 P7 S* {4 ?0 K8 l# T1 D
Title                                    : Tamil
# i& t0 @8 o" j0 \' ULanguage                                 : Tamil4 l/ x2 ^: K" S+ z3 T
Default                                  : No
! ~4 f/ |& p8 [, K. \Forced                                   : No
- R: `' P9 L; p4 L6 a
5 j' Y9 w- B/ `2 ]. u( ?Text #32
* }% I& D8 n3 I. f7 R+ HID                                       : 34
5 i( @0 F2 ]$ u5 y) PFormat                                   : UTF-83 {! T. I' B" B; S+ h5 K. _; d
Codec ID                                 : S_TEXT/UTF8
1 P7 q5 B6 E& }5 w* L3 tCodec ID/Info                            : UTF-8 Plain Text
2 i, F; e1 |+ t6 S, Z7 tTitle                                    : Telugu- l: w; r& y$ W; h
Language                                 : Telugu3 s3 N& W% {* k! d2 K) d4 ~. g
Default                                  : No
4 s  O% v( e3 g& R& C8 @" D, M; \Forced                                   : No5 `( e5 r- A, `( a- Q

8 Y5 j0 u, D  F9 h5 ]  L  g* fText #33
- @% l2 q+ O: _4 w: u, O2 f$ JID                                       : 35
& c3 f, D$ f% N/ V  ?Format                                   : UTF-89 y4 n0 M; I* @
Codec ID                                 : S_TEXT/UTF81 [! f7 \9 _$ U
Codec ID/Info                            : UTF-8 Plain Text# L- n  H' H- P2 w' H. J( T5 |
Title                                    : Thai
: P3 B# G/ D& W% fLanguage                                 : Thai
* ~- M' ~' z. h1 w" C# P3 U) jDefault                                  : No
5 @" z- D# z/ l7 v9 K. aForced                                   : No
9 }* r* l) b' y  }  O0 u0 G- ~3 i6 \: [3 H, @# w7 h
Text #34
" p% F1 S5 P; u' ~6 ]ID                                       : 36
  A. P2 s# Z- z: aFormat                                   : UTF-8
9 T! i! t! P) ~0 @3 ?* S8 zCodec ID                                 : S_TEXT/UTF8$ X: C3 U. i% h+ a( h0 b
Codec ID/Info                            : UTF-8 Plain Text# H" Y2 |, K7 N5 p1 F9 a7 I
Title                                    : Turkish. `4 H3 u7 J% F' a4 b1 @- z# `
Language                                 : Turkish& A; @) a4 D# u  E5 H9 h7 z) G
Default                                  : No
0 z/ W% h3 a3 J0 jForced                                   : No
Video; m" q3 ]# D6 A5 |; O; T5 B3 Q
ID                                       : 1
$ {1 L2 U7 w2 d2 iFormat                                   : HEVC
7 @5 a  G  t' J2 \Format/Info                              : High Efficiency Video Coding* P! M* H! ]0 G
Format profile                           : Main [email protected]@Main4 b/ p1 n4 S/ H/ Q
HDR format                               : SMPTE ST 2094 App 4, Version 1, HDR10+ Profile B compatible
6 c& M! y) ?) M: Y5 l" m' q! qCodec ID                                 : V_MPEGH/ISO/HEVC% x0 G$ T% `/ x* E( z/ K8 I% H
Duration                                 : 2 h 18 min
. v0 x( `% K: a5 G5 K" U: mBit rate                                 : 14.4 Mb/s
/ U4 U% u# j) Y  vWidth                                    : 3 840 pixels4 P2 W4 y; K& w* m2 _. i
Height                                   : 1 600 pixels5 \2 r( W5 u- V; ?$ Q
Display aspect ratio                     : 2.40:18 Y* `5 N- n+ c) K" P$ U5 ]
Frame rate mode                          : Constant, c& e' F% [4 X' b
Frame rate                               : 23.976 (24000/1001/189150) FPS8 G+ q) \% n" j$ w" B
Color space                              : YUV
0 X& q" @( N# t: d+ g3 o& pChroma subsampling                       : 4:2:0
" R/ c5 ?! ?3 s) x. x9 e# EBit depth                                : 10 bits7 f) \% A# v/ f( a" A+ ^, n
Bits/(Pixel*Frame)                       : 0.098
0 u' ^/ A0 A3 M& r! {5 f7 XStream size                              : 13.9 GiB (94%)
1 ?2 K  G7 p7 R: wDefault                                  : Yes
) J* l6 {9 P" C! GForced                                   : No
; `6 G- q4 R/ G2 W( PColor range                              : Limited5 d0 b# A9 M" W; v0 O
Color primaries                          : BT.2020
& M6 O$ M+ m1 G2 ITransfer characteristics                 : PQ! I' y) j7 Q* P! @
Matrix coefficients                      : BT.2020 non-constant/ k* j7 E* j: a1 W; m& U
Mastering display color primaries        : Display P39 t8 K  m; L0 J& V, v& i
Mastering display luminance              : min: 0.0001 cd/m2, max: 1000 cd/m2
5 l% h( Z" e! I( V3 l  QMaximum Content Light Level              : 956 cd/m2! Y" T( y  V- G% Q" S8 u8 q0 J; W
Maximum Frame-Average Light Level        : 570 cd/m26 C3 W& ^) x* V6 q3 G8 M" g3 y
8 ]4 Z; m) \2 ~1 |5 Z# @8 e$ f$ q: i' H
Audio. ]& }# S: B& k; f
ID                                       : 2
3 w$ m  V8 E0 s$ v; p% @/ WFormat                                   : E-AC-3( C5 F' r  d! B4 l- m
Format/Info                              : Enhanced AC-3
' h7 N2 h, |. E( I/ h" K* @7 iCommercial name                          : Dolby Digital Plus
0 ?: F- {" H7 ~1 q5 z, [Codec ID                                 : A_EAC3# }  }& W. @0 R/ ~8 n3 k3 u3 X6 s6 t- n3 |
Duration                                 : 2 h 18 min
4 [& f$ ^& g3 m9 Q7 T1 d9 ]8 DBit rate mode                            : Constant; f! V9 l1 T7 ]) N: Y% ~' K
Bit rate                                 : 640 kb/s
5 |" w0 g* c1 S/ f# O" v8 UChannel(s)                               : 6 channels4 d. ]; ]9 }" ^7 S/ o4 q
Channel layout                           : L R C LFE Ls Rs  C9 q8 {3 B1 b9 L4 Z
Sampling rate                            : 48.0 kHz) k7 Z: I1 A. n6 A
Frame rate                               : 31.250 FPS (1536 SPF); W$ D2 E# R1 \2 c% E
Compression mode                         : Lossy- K* T% t. ~1 t$ x' B; W/ i$ n: y/ {
Stream size                              : 632 MiB (4%)
, m) b9 P7 p9 j2 yLanguage                                 : English
$ {4 }+ N/ t# f2 `7 a- C) LService kind                             : Complete Main
/ D4 H6 C& u/ FDefault                                  : Yes: u& L& [! a( ~
Forced                                   : No# U) H/ @+ p, ]$ {

! J9 m# y* B: j. O* |0 M7 jText #1
: g8 q/ q" C5 }" n3 j) z, LID                                       : 3/ C+ z& D' d, T0 e) U: j
Format                                   : UTF-80 B$ S6 y% A6 ]* P5 \6 I. o3 D, M
Codec ID                                 : S_TEXT/UTF8: K& G8 U  g2 N  D' H0 }' ~& |
Codec ID/Info                            : UTF-8 Plain Text
' q+ }6 x& N: i4 _- ETitle                                    : English6 R$ f, X2 \8 [( x! n/ T$ I
Language                                 : English
9 h- O, n4 l( A( Q; X' N3 ]Default                                  : No2 T/ W: P- I4 {3 u, D( t
Forced                                   : No
8 d1 f, o& a. u( G3 V+ h) Z8 s" I
1 s: I  n! v# `1 C& r3 YText #2; r/ p$ G- g' w
ID                                       : 4
7 d( S' W: H; l8 w3 D4 fFormat                                   : UTF-8) D( s, c* J2 a- z4 b
Codec ID                                 : S_TEXT/UTF8
" f$ `' l% G7 K* {, A1 V3 @) yCodec ID/Info                            : UTF-8 Plain Text$ B+ f  v/ }& T* ]0 h" H  F6 ]
Title                                    : Arabic( A& q# `7 \! ]" t- w; Y+ s% ]
Language                                 : Arabic
/ q+ c* _/ j9 u& F# q- JDefault                                  : No7 C4 j# K3 L$ Z( y
Forced                                   : No9 i5 ?9 f7 A- v! W0 I

( ^5 C$ h8 E+ A/ e3 W# u2 N. MText #3
0 C, U2 i) [, @  hID                                       : 5, r+ |, J0 a1 _3 u1 o
Format                                   : UTF-8
4 k3 I4 F9 K- T: n  T2 WCodec ID                                 : S_TEXT/UTF8
- _8 O( v: Q  j( |& PCodec ID/Info                            : UTF-8 Plain Text. h5 G  U* {) [( B# _* w
Title                                    : Chinese Simplified$ X" @5 P  |( Q  \  G9 J
Language                                 : Chinese
$ t3 ?5 D/ P4 Y1 P. Y) s3 }' ~Default                                  : No" y2 |! t1 F  v& H4 G. r
Forced                                   : No
! p2 E7 i6 @5 H# `
7 `5 B, q* a/ v& b# KText #44 k% q7 y5 R" V
ID                                       : 6
) l! b" S4 Q2 e. ^8 t0 v+ RFormat                                   : UTF-8
$ }' t+ S# E" N8 X  m, L1 ICodec ID                                 : S_TEXT/UTF84 {  y% M; h) D" ^3 h
Codec ID/Info                            : UTF-8 Plain Text
" n9 N! d( T" ~5 o. \Title                                    : Chinese Traditional
. v7 Z1 r5 `1 {# QLanguage                                 : Chinese
. c  D; j+ ?& j* J4 nDefault                                  : No( p, l$ v. t2 T) X1 D5 o
Forced                                   : No
7 ?0 e: ^+ j9 [6 m% g' h$ I5 {5 M' U4 ]6 V
Text #5' r/ l# H3 M- g3 s! O/ Z* g
ID                                       : 71 r0 x( P1 K1 p" O# l, |. N6 v
Format                                   : UTF-8
1 B- G+ ?7 J7 uCodec ID                                 : S_TEXT/UTF8
0 Z3 z+ H, T7 D+ e. w& DCodec ID/Info                            : UTF-8 Plain Text
6 _- U% P5 m3 I8 i8 j- zTitle                                    : Czech (Czechia)
  t& {0 P& I. s, ?  ~$ qLanguage                                 : Czech
8 K  P* ~" M3 L( [8 X8 ?Default                                  : No
9 _) ~$ G$ G- o$ G. f' A& L( zForced                                   : No# v  f, _5 O& U" L
) }  T' Z  p& ]- t8 @: d$ ^
Text #6
( `6 j6 T! U: O9 N! G0 _ID                                       : 8
- s0 M6 g$ b/ j& rFormat                                   : UTF-8
/ L: g3 y3 n0 O+ r* p6 h& y+ HCodec ID                                 : S_TEXT/UTF8) h9 G  B! }! Z6 ?
Codec ID/Info                            : UTF-8 Plain Text1 g- v7 j4 v+ W! \
Title                                    : Danish
( d" Z  Z6 q! }( A3 YLanguage                                 : Danish
/ W( D4 i1 S  C  w, w! T1 P( FDefault                                  : No! w) Q5 c, X* |# e- u( t) k
Forced                                   : No+ ?! \2 {& }0 w2 i) y( N

" M+ m5 }" F; KText #7
3 Z9 i& i1 L/ M1 n7 {ID                                       : 9& f$ r* Z( S3 s' |' ~) P2 |
Format                                   : UTF-8
9 z/ E0 W: E) X# m( GCodec ID                                 : S_TEXT/UTF8$ i. _4 R) B, W1 }( L4 I. m
Codec ID/Info                            : UTF-8 Plain Text5 n- Z' l  V7 r
Title                                    : Dutch
: a. n0 W* J7 b/ R4 Z& f- ~Language                                 : Dutch
# L* ]- t' ?  h1 m" ?) LDefault                                  : No3 r7 J9 Z6 l8 y$ t5 L/ ^5 B' T
Forced                                   : No
8 Z0 Q7 _/ z3 ?/ x7 X' ]( D! l' M% }' {6 w+ U5 L9 e' x
Text #8
( g% E: a+ q6 d5 d, yID                                       : 10
7 F- C' e# J4 a2 x- Y$ _Format                                   : UTF-8; V$ @2 @# p* x6 @3 H9 `
Codec ID                                 : S_TEXT/UTF8
* w7 d8 y6 k- a. V- jCodec ID/Info                            : UTF-8 Plain Text0 i; ]0 Z. ]. V( y. g7 M) x+ b9 R
Title                                    : European Spanish% S$ j& p/ _+ t) F. h
Language                                 : Spanish) a6 K6 f3 p) e
Default                                  : No* B  j( R* @5 J! b0 U! q6 T
Forced                                   : No3 e6 k2 ^1 E! w( Q7 }( z
  N6 `- b# u6 n7 n9 u$ {* f% e. r( K
Text #9
. y% V$ c! E, B7 P) e5 i9 O  I. n6 HID                                       : 11
/ N: E7 c+ m- ^+ O' \2 R% TFormat                                   : UTF-8
, X: p  e2 y" Y7 b; Y% FCodec ID                                 : S_TEXT/UTF8
8 O; K8 F+ Z% q$ ~4 `! SCodec ID/Info                            : UTF-8 Plain Text/ b( D' z1 q9 Y6 ], I
Title                                    : Filipino
6 [( D: h2 y4 m. u0 mLanguage                                 : fil3 R2 U8 H3 Z' D' x
Default                                  : No" V0 ~( \' C. P' r
Forced                                   : No
6 h6 M9 z$ c+ R( }5 Y1 e! _' x3 n9 k. I7 r  T0 `3 K2 o3 D
Text #10- J6 J+ F) Y" a3 a+ q9 D2 ^( y
ID                                       : 12
  s3 P6 z0 S: O+ q0 s1 YFormat                                   : UTF-8. l& M! J; J( q, S( ]/ q
Codec ID                                 : S_TEXT/UTF8
. x! ?& v. E1 G9 j* f) NCodec ID/Info                            : UTF-8 Plain Text7 ~( a" V9 n* T, Z3 r! b
Title                                    : Finnish
6 I' @) ~, I) MLanguage                                 : Finnish
; }1 N5 i: J( O3 x' R, I4 VDefault                                  : No, s0 x* ~9 z9 `( @  W
Forced                                   : No
3 ~9 Q; O: I' o# y; v) f, L1 D  F- h( d, J; {9 q, @
Text #11! W# x) h  M2 x  M% c3 f% u7 F  V
ID                                       : 13
% \5 j. J, u8 a* a" x$ E! oFormat                                   : UTF-8
7 o0 A5 k2 `8 xCodec ID                                 : S_TEXT/UTF8) m0 _; |. W0 @1 F3 E9 x
Codec ID/Info                            : UTF-8 Plain Text9 l0 s+ Z& @2 ]1 T) w1 @
Title                                    : French
8 p8 Q( H, i7 J3 p* ]1 }7 @! MLanguage                                 : French) e7 c+ L# L1 J
Default                                  : No0 B8 m! \, p: S9 O# w
Forced                                   : No, ]* [& v7 j+ }+ C, J

1 \0 @& o' g. o( U: XText #121 C6 L8 N- o# [+ Q  H. w# x' @" o
ID                                       : 14
3 u5 O/ n2 o( h  HFormat                                   : UTF-8- j  _6 u5 v8 i( a5 V; [. l8 N
Codec ID                                 : S_TEXT/UTF8" j5 F* m+ q, c
Codec ID/Info                            : UTF-8 Plain Text
1 a" p( W; t1 M+ F1 O. I' LTitle                                    : French Canadian- A' q* p7 V4 @. Z+ I/ Z7 @% g
Language                                 : French
- t: S4 z/ t" x2 v" {Default                                  : No% [4 E, [8 U" K3 O! [* ^
Forced                                   : No8 t+ r; a3 H: m+ X+ ]1 K9 P/ `
( {0 {+ m( r" s  o, L# Z  O
Text #13( n# b7 v* g2 {# I* c) J
ID                                       : 15
2 w. n6 g& z7 {% j5 s* XFormat                                   : UTF-8
* {" O/ ]% t4 ~6 WCodec ID                                 : S_TEXT/UTF85 f# g7 f5 @+ h( o3 h
Codec ID/Info                            : UTF-8 Plain Text. H8 ]( x- u* P% O
Title                                    : German
- H/ K4 c6 {) H- f! ZLanguage                                 : German
. {: i# O; s/ k  X8 j# l+ uDefault                                  : No
, ^, I) x% C. ^Forced                                   : No; A9 D  u4 V! p+ O

0 Y' c( I9 M/ ]4 B! O: J- NText #14
6 o( x7 p9 O$ I2 c" R1 H/ CID                                       : 163 N+ V3 l: G' B0 \# L& `# |
Format                                   : UTF-8
4 N& ^3 H" s" s$ d: R. K/ }Codec ID                                 : S_TEXT/UTF8
- K- j8 |5 T0 Y$ ACodec ID/Info                            : UTF-8 Plain Text& s9 C0 Q) T' ~7 F
Title                                    : Greek (Modern)( O3 p# |7 u$ g. m
Language                                 : Greek
& v# k  y1 E; u# D+ K  [3 sDefault                                  : No4 s. n3 C$ g( q
Forced                                   : No
& \6 v, P0 o4 Z6 C1 @9 n/ S* @8 f1 S
Text #15
4 Y4 y% L: L- T2 O# |ID                                       : 17: y, \: j1 \0 c5 m# W) a
Format                                   : UTF-8
1 |# X4 p) _) ^0 m9 rCodec ID                                 : S_TEXT/UTF85 O; b! k% O% B; p3 s& a
Codec ID/Info                            : UTF-8 Plain Text
; n2 X" j9 {( g; bTitle                                    : Hebrew4 T% o: b& d6 q+ f3 F- o1 D
Language                                 : Hebrew# t7 Z. y9 S' H/ i% W" ~
Default                                  : No
' V# z5 d( A1 i! x4 eForced                                   : No
+ ~/ R) l" n8 O7 O7 W! `- `& u/ V, K. [2 m
Text #16' ^. }- |0 C- H7 G
ID                                       : 18) y6 \, L* W  i) g% {
Format                                   : UTF-88 c# Y7 A/ b9 a& v3 u
Codec ID                                 : S_TEXT/UTF8$ p% v( ?7 d4 O1 q! S+ `0 a: c& Y
Codec ID/Info                            : UTF-8 Plain Text$ N1 ^) L1 Z9 ]0 O; Z
Title                                    : Hindi
1 d3 L( q  b2 P( n. o$ `8 ~! JLanguage                                 : Hindi
7 M, U" F5 n4 Z, T, `& y! ?5 W3 dDefault                                  : No
& J$ P* U- h( b6 I" J9 l$ WForced                                   : No
/ A6 N) |, ~  l$ a2 A7 w! l% u# _) b+ k9 s5 C2 l4 H
Text #17
. x; [7 _+ W6 A. T' s' ~ID                                       : 19" `: T6 I4 D3 i. P" v* Y4 v
Format                                   : UTF-8
9 X3 Y& I( E. O6 BCodec ID                                 : S_TEXT/UTF8! ]* i8 Q5 k9 d. G) c" I
Codec ID/Info                            : UTF-8 Plain Text7 c( }2 I$ `8 f# v1 V' M; W- `
Title                                    : Hungarian
/ u) I+ n/ o# F9 p4 F0 s) t, y+ G- xLanguage                                 : Hungarian
3 a) S4 Z: Z) `. Z5 @* lDefault                                  : No
  G' Z, Y  F( u, T  wForced                                   : No& h7 X+ R3 J! k5 V9 d

( V' W! n7 k/ F* m- YText #18
" Y: }0 Z& T$ G3 _ID                                       : 20
, k/ Q& P0 b1 O4 O+ F% oFormat                                   : UTF-8
  n0 R. e& C/ j0 ]: O2 V- M/ vCodec ID                                 : S_TEXT/UTF8
2 h+ p+ v  {: u, P8 y2 h0 w. cCodec ID/Info                            : UTF-8 Plain Text
" `1 g! i& _! ~# STitle                                    : Indonesian" L2 r! h, A0 x
Language                                 : Indonesian
3 t- H* Q7 C% N& YDefault                                  : No
, G) d/ j% d5 ~) p* \% y* N7 ]Forced                                   : No
7 C* u4 z, Y% |3 V. q- ?# J1 Y* a& n: [0 T
Text #194 ^' ^5 X. U5 Q8 O  v4 j+ W
ID                                       : 21
" U7 e# P1 p' @& K2 v  YFormat                                   : UTF-8: @$ P6 X1 W3 M$ u8 l
Codec ID                                 : S_TEXT/UTF8- @# O; Q0 {7 g& u* k
Codec ID/Info                            : UTF-8 Plain Text. O& `9 ^, z' m5 e
Title                                    : Italian& B: o; p9 a  ?
Language                                 : Italian. a2 |, j7 v0 o, x* U$ O8 V3 E  e
Default                                  : No
6 h0 R0 Q  \; W8 a! q, RForced                                   : No5 O, d+ b) S. ^3 D* v

4 A3 U7 \( z3 U, c6 FText #20
, A: R9 K0 @% d4 ?% D5 UID                                       : 22
2 x( R' u9 Q" y) A# {$ s. f* KFormat                                   : UTF-84 A3 h) d! E0 T. j7 Z) M
Codec ID                                 : S_TEXT/UTF8
& r9 C- P, a' F+ o% G$ m' R( [2 p0 BCodec ID/Info                            : UTF-8 Plain Text
, ?# S% E* u" \) jTitle                                    : Japanese
: b: w. v$ q' H: ILanguage                                 : Japanese
% d) k# j/ g! {# B4 p$ gDefault                                  : No
7 _) a$ x0 R- UForced                                   : No# ^" n! `/ y6 F% a* W! n
. N$ Z" d& C$ J' h) J; i" ~& u
Text #21
) O# G% H* x# X/ N- V$ TID                                       : 23
0 r# Z. J2 A. a- R" `" ]7 o$ e5 {. lFormat                                   : UTF-8
8 U5 ]$ V+ e0 }- G& ~Codec ID                                 : S_TEXT/UTF8+ c5 D# ^  Q9 T: E6 L, F
Codec ID/Info                            : UTF-8 Plain Text5 J! K) z; r3 t" [3 e
Title                                    : Korean& g7 L  w; y& \& U/ z8 M
Language                                 : Korean
$ X* d: L# s. z8 mDefault                                  : No
9 J, d% m. v8 X; rForced                                   : No
" R/ W, ]1 P4 _9 Q( B7 H# V- Y
  E8 d3 K2 O' G7 ^Text #22
% @/ Y- S8 m. d, q3 @! i9 S* PID                                       : 24
7 J6 |' t6 D$ z5 l& u1 s. gFormat                                   : UTF-8! \' I- V% \4 V! f6 B  n2 F2 Y* P
Codec ID                                 : S_TEXT/UTF8
. q( G- p: M1 ?* ?Codec ID/Info                            : UTF-8 Plain Text5 w6 i/ e& o) l. ?) y0 G: l
Title                                    : Latin America Spanish! h( [* ~6 b( Z2 N; m* \6 Z
Language                                 : Spanish2 I+ o: b- ^# J; `9 Q# W
Default                                  : No8 e% u; i, m; G# D" Q8 J9 U* \
Forced                                   : No9 Z6 K& k# W2 J0 m0 c* a

6 {3 Z* s. a# r, DText #23$ S" J! r* s$ {! a) H) q$ W
ID                                       : 25, Z" x: s9 O& m9 H  i
Format                                   : UTF-8
- ]4 W/ U! g; v0 x% y- YCodec ID                                 : S_TEXT/UTF82 F/ Y6 H- n- U7 E. C! Z
Codec ID/Info                            : UTF-8 Plain Text
% v4 ?$ _* C0 \' w) CTitle                                    : Malay
, \* |5 v. p$ }% y" r: `Language                                 : Malay  S9 X1 W1 Z& r  w( Z/ ]1 t
Default                                  : No) D' d; ^- E; m' n% x' `1 a
Forced                                   : No; Z% X, \1 A2 u# x7 a0 O

5 \) O% p0 H$ `3 ?0 IText #24
$ F: y2 m9 l1 _0 J/ |) H  u; @$ mID                                       : 26) M5 S' K' ?) R% ?
Format                                   : UTF-8, g5 p  k- [7 U- ^( ?* |. ^7 @
Codec ID                                 : S_TEXT/UTF8
  v1 E: B4 r; K5 VCodec ID/Info                            : UTF-8 Plain Text# q* w2 R2 y" N; P; M
Title                                    : Norwegian
6 F# s: F7 ?, ~Language                                 : Norwegian
4 F; H: S8 f' H2 {  V4 p0 }1 CDefault                                  : No
" G: \9 W4 y# s3 @8 N% a: sForced                                   : No
+ M% R3 P+ S  s' A# A8 Z: _  z) i: {2 L6 Q2 I" e
Text #25  I- F5 a' e/ `* E
ID                                       : 27. `$ O$ m& g2 R% i
Format                                   : UTF-81 _: H4 \. r5 X" R2 D$ M
Codec ID                                 : S_TEXT/UTF8
0 Z& v+ z, }8 `% k" r* D" QCodec ID/Info                            : UTF-8 Plain Text  F  G1 e  N9 C, n0 ]1 Y
Title                                    : Polish  X8 H5 a: s  ]' @/ v8 X
Language                                 : Polish- }8 Y/ Q2 T+ B" h+ ]4 L5 d* o
Default                                  : No
5 t. X( d/ Y8 b8 f, t# A4 ]Forced                                   : No
" l( V9 s& k7 ^/ G$ K. v* P, ~% Q
Text #264 H9 a7 t& |3 j) B& ]! H" O7 e  F# P6 U
ID                                       : 28
5 d* z# j; z5 \7 {& s: r* e2 Z$ AFormat                                   : UTF-8& `! E/ j8 b. l6 L
Codec ID                                 : S_TEXT/UTF8+ S6 V2 x( l: u( p# ^
Codec ID/Info                            : UTF-8 Plain Text, S4 Z- n/ ?/ O/ q
Title                                    : Portuguese! l2 u4 A- F6 [; O
Language                                 : Portuguese
7 D/ U- s8 J& n5 ?9 `( _& EDefault                                  : No* j) j# J6 g! [+ C5 X0 o- H9 C
Forced                                   : No
, |5 J9 y8 `( r# W7 b9 ~+ ?: m: d
Text #27/ q8 h4 q4 M5 E5 w
ID                                       : 29
+ W8 l7 [) Q9 `+ S( H! f6 Y: @Format                                   : UTF-8
& j, v  M* W# _Codec ID                                 : S_TEXT/UTF8
. b8 n+ j6 \" d5 _* ^2 X3 x4 |Codec ID/Info                            : UTF-8 Plain Text) g1 I& l* X! `
Title                                    : Portuguese Brazilian
! o4 a  V- j3 U& ULanguage                                 : Portuguese
" g  G7 b6 E5 k3 |8 K: k4 l6 U1 i6 rDefault                                  : No
$ q- b+ e! F( }5 d( X! _% y9 E/ \Forced                                   : No8 T  G; _2 P4 o/ _- a
0 [. P: p- W. C# F
Text #28
" o6 |) T/ `3 W! O1 o, dID                                       : 307 L; d- X0 l9 `+ m# J
Format                                   : UTF-8! _# ~( h% D5 |) K. C2 L! d% L
Codec ID                                 : S_TEXT/UTF89 I! o! t: l; Z6 V! [# }
Codec ID/Info                            : UTF-8 Plain Text1 m) ^. \* B% m& B/ J
Title                                    : Romanian (Romania)4 @5 C: J! ~4 [8 V  i8 @( ^4 B
Language                                 : Romanian$ K/ t4 i" {& W/ n6 U3 H
Default                                  : No/ {7 v! e' L" p8 N. X, X  K
Forced                                   : No$ B7 q5 l7 Q3 R8 r3 ?  [: R

1 W5 S! B  X) [) w; X; ?3 \Text #29. f; s% |( y3 F; O4 j
ID                                       : 318 O/ M' _& T3 W! R
Format                                   : UTF-8
7 C3 }+ E$ W  `: LCodec ID                                 : S_TEXT/UTF8/ ~  G5 H5 F# W% L: z; p( L! v" j
Codec ID/Info                            : UTF-8 Plain Text
  T' h9 I8 W  V8 A$ RTitle                                    : Russian
$ m6 W; D' Z# X* w* GLanguage                                 : Russian
  E( Z4 `" V) m$ R1 k& \- QDefault                                  : No
- D, O9 l0 @; D) l, G( C* o# IForced                                   : No0 k' j% {' L  _% x) i$ M$ l2 p

, g8 j& q% t4 L- z' d) CText #30
1 |0 n7 t( E% iID                                       : 32
5 f4 C: {1 j4 x+ d3 V3 P- p+ ^- v( dFormat                                   : UTF-8
5 r+ [* B/ K7 ~. L) t; LCodec ID                                 : S_TEXT/UTF8* c, E: _& q% X+ v) V. Z7 e1 ~
Codec ID/Info                            : UTF-8 Plain Text
, H( r, F$ Q7 k0 @: d: [5 uTitle                                    : Swedish
9 ^9 @) g0 M2 u& k) j/ tLanguage                                 : Swedish0 {! Z. a7 A  w9 y4 h& m. j
Default                                  : No& L* D; U# Q( p6 x9 V. Z
Forced                                   : No
8 m" X1 V4 d! F+ u
8 E* n6 u' ^# M  ^Text #31
' g* r- Q" p0 tID                                       : 33; a  f) Z, _8 z* F
Format                                   : UTF-8
6 f1 X4 N. U3 c3 T* F8 wCodec ID                                 : S_TEXT/UTF8
/ e2 ^. k" V* R5 p1 n1 W7 g) HCodec ID/Info                            : UTF-8 Plain Text7 |, U$ K" h1 r! k/ x
Title                                    : Tamil; X% o! ~4 l  L9 o$ k
Language                                 : Tamil
4 S9 a, g: P& P& w: X5 C' i; t  mDefault                                  : No7 d6 H. V1 m" {$ a+ F3 d+ T3 D
Forced                                   : No; H2 Z3 n7 L/ X3 B! B) x

0 x8 y) e& S/ E5 uText #327 n4 K$ }1 C7 i6 `  b5 ]+ d) w4 p
ID                                       : 34
3 {, i3 f2 T4 L! ?Format                                   : UTF-8( y8 ~, M2 v5 i$ p
Codec ID                                 : S_TEXT/UTF8
( v. @$ s9 d* K7 B; t- ^Codec ID/Info                            : UTF-8 Plain Text& R$ z! j6 b- V
Title                                    : Telugu4 [+ A7 U  R3 E
Language                                 : Telugu# {9 R$ Y4 |% ^1 s9 m1 Y
Default                                  : No! i% t6 y7 l& i; [' t
Forced                                   : No
9 W# f* N" y6 F- ~. O. U* y; o# X9 W+ q* p% d, }' j
Text #33
! d5 k0 X) D0 F- A; EID                                       : 35
- C1 P% I& z1 |) B/ kFormat                                   : UTF-8- C9 ]0 j) ~$ f$ P) O
Codec ID                                 : S_TEXT/UTF8
: |) k4 X7 ?* u5 m9 mCodec ID/Info                            : UTF-8 Plain Text+ w0 `# ^# @" U" Y  u9 j  [
Title                                    : Thai! e1 H) g( j+ f* T3 h& @
Language                                 : Thai( |9 F2 H1 ~9 b3 U
Default                                  : No
6 x: {# c* M' p6 _Forced                                   : No( R  G/ h! h- X0 C: m1 N
- |. S+ w+ L' j# _
Text #34
5 M; J% x1 [1 @) D! c" G* G) e/ p2 dID                                       : 369 x/ P9 Z' G* p2 G; G; J" @, [
Format                                   : UTF-8; K& V  t6 T, p
Codec ID                                 : S_TEXT/UTF8
# a1 D1 w; K+ |, r% H' e0 D+ FCodec ID/Info                            : UTF-8 Plain Text  `, w2 {& O7 x: j3 C. a8 t
Title                                    : Turkish
2 K8 O) h, M4 x- U9 e- U% pLanguage                                 : Turkish4 H' v: w7 V( W
Default                                  : No$ V7 |; ^) h, u9 o! j- I$ i& ]
Forced                                   : No

4 F" i' o/ ~+ J( W& V" d  Q8 E
游客,查看本帖隐藏内容请回复 | 加入VIP贵宾可免积分免回复 了解详情 | 还不是会员:点击获取邀请码 Invitation Code

0

主题

121

帖子

652

积分

Sponsor

金币
2 枚
体力
403 点
splj100200 发表于 2021-7-7 21:46:05 | 显示全部楼层
30年过去了,虫洞都能造出来了,武器装备还跟30年前一样,以现代科技发展的速度,如此不科学也好意思叫科幻片。PS.灵感来源是不是游戏厅的射击游戏?

0

主题

127

帖子

681

积分

Sponsor

金币
5 枚
体力
415 点
kdavid 发表于 2021-7-11 21:25:24 | 显示全部楼层
楼主发贴辛苦了,I*老*虎*U!
6 i* |0 k9 n, a1 A$ WBluraycd.com movie updates really fast, also did not release issued, whether you believe it or not, anyway, I believed!

4

主题

1077

帖子

3374

积分

Sponsor

金币
1 枚
体力
1224 点
QQ
davidqin 发表于 2021-7-11 09:40:20 | 显示全部楼层
每天都来蓝光论坛看看,我爱蓝光电影。: _) |, e7 x4 x: j) F: ^1 W% c
Thank you for sharing such a good resource polite reply, very sorry for myself!
3 D. F+ l& Z5 M- E+ b

0

主题

3

帖子

175

积分

Sponsor

金币
147 枚
体力
17 点
lingdianjiouba 发表于 2021-7-7 19:54:49 | 显示全部楼层
啥也不说了,楼主就是给力!

2

主题

253

帖子

1390

积分

Sponsor

金币
291 枚
体力
641 点
QQ
ccfys888 发表于 2021-7-7 21:41:59 | 显示全部楼层
其实我一直觉得楼主的品味不错!呵呵!! C* q$ h$ J* k4 i8 Z, t4 J
Blu-ray movies Community: my favorite!
: v2 X2 Z5 ~# S5 n" T% R, l

0

主题

121

帖子

652

积分

Sponsor

金币
2 枚
体力
403 点
splj100200 发表于 2021-7-7 21:53:16 | 显示全部楼层
温情下的英雄电影。这么多年了,一直有这样的电影是不是为了洗钱啊

0

主题

121

帖子

652

积分

Sponsor

金币
2 枚
体力
403 点
splj100200 发表于 2021-7-7 21:56:57 | 显示全部楼层
其实我一直觉得楼主的品味不错!呵呵!
& S9 i: N& Z& N% P6 M* t+ f& qbluraycd forum, a lot of Blu-ray movies!
! n! e' f9 {+ T  ?- j. W

0

主题

68

帖子

449

积分

Sponsor

金币
36 枚
体力
270 点
138092291 发表于 2021-7-7 22:39:07 | 显示全部楼层
谢谢楼主分享!

0

主题

22

帖子

193

积分

Sponsor

金币
104 枚
体力
41 点
QQ
lichen8566 发表于 2021-7-8 21:02:32 | 显示全部楼层
Bluraycd又有新电影发布了,激动中……!, e/ `6 w/ r+ O3 ~, K$ U
Blu-ray Film Forum: I will always support you!( T: M7 l- V7 ?  f; O

0

主题

406

帖子

1553

积分

Sponsor

金币
17 枚
体力
718 点
指环王170406 发表于 2021-7-8 21:50:04 | 显示全部楼层
楼主发贴辛苦了,I*老*虎*U!
) D! _& I8 z9 U% m: w9 R) aI love your Blu-ray movies Forum!2 c7 u9 [  U/ h3 f- e

0

主题

37

帖子

1万

积分

蓝光评委

金币
4602 枚
体力
6398 点
icatang 发表于 2021-7-10 11:44:43 | 显示全部楼层
谢谢楼主分享!
哈哈哈哈哈 ...

本版积分规则

小黑屋|Archiver|蓝光电影资源网

GMT+8, 2021-8-5 22:48

快速回复 返回顶部 返回列表