BluRayCD Forum

 找回密码
 立即注册【分享大片】
查看: 10|回复: 1
收起左侧

[蓝光原盘] 电锯惊魂9:漩涡 [REMUX无损版] Spiral From the Book of Saw 2021 1080p BluRaycd REMUX AVC DTS-HD MA TrueHD 7.1 Atmos-FGT 29.12GB

[复制链接]

8213

主题

8407

帖子

6万

积分

Forum Moderator

金币
11998 枚
体力
10677 点

卓越贡献勋章

24小时 发表于 2021-7-22 08:32:23 | 显示全部楼层 |阅读模式
A criminal mastermind unleashes a twisted form of justice in Spiral, the terrifying new chapter from the book of Saw.8 D; o/ X$ d0 d1 q7 X

) P" L" F$ I' Q3 V8 d& H0 b
% x6 l. z$ L' D9 i/ |9 a
% k0 z, z( _0 A3 x% {◎译  名 电锯惊魂9:漩涡/死亡漩涡:夺魂锯新游戏(台)/漩涡:恐惧斗室新游戏(港)/新电锯惊魂: E; k3 C$ N6 ?2 S6 P" p
◎片  名 Spiral: From the Book of Saw / Spiral / SAW: The Organ Donor / The Organ Donor1 Z6 [1 G% j8 r: M1 c1 B3 n
◎年  代 2021- T7 L4 E) N7 b( V" @1 d$ r
◎产  地 美国/加拿大; D0 H6 T8 q% q# \0 B
◎类  别 悬疑/惊悚/恐怖
# V* p: W( g1 Y# A% a3 a◎语  言 英语" d1 ^7 a' }  }, K3 B
◎上映日期 2021-05-14(美国)
5 @; x0 B' B1 @4 g$ T◎IMDb评分  5.3/10 from 27,854 users
0 b5 c2 {  J6 ]0 r, F* p. m+ f◎IMDb链接  https://www.imdb.com/title/tt10342730/
" ~9 \$ w& Q. c! t9 T7 o1 s2 e◎豆瓣评分 5.2/10 from 20,135 users
1 u! M- s$ {2 {# o1 q- O: U◎豆瓣链接 https://movie.douban.com/subject/33450426/& N. e! H' M0 Y* U! i
◎文件格式 x264 + DTS + TrueHD ( A: ~; h2 Y: ^: i& h* o3 T
◎视频尺寸 1920 x 1080, ^& s# Q2 }6 O7 Z! l
◎文件大小 1DVD 29.12 GiB2 m6 S( L$ ?9 X& n6 R( w
◎片  长 1 h 33 min
6 A1 d/ u& n/ K5 g  l0 Z◎导  演 达伦·林恩·鲍斯曼 Darren Lynn Bousman/ S0 K+ A' K) o8 U
◎编  剧 乔什·斯托博格 Josh Stolberg$ C7 o. {+ P* v( a0 a
       皮特·古德芬格 Pete Goldfinger
( d# v  c( O) F& x9 S0 q% T       克里斯·洛克 Chris Rock
4 e# L# B# p2 ^◎主  演 克里斯·洛克 Chris Rock7 m3 O: y. |6 q+ C  U
       塞缪尔·杰克逊 Samuel L. Jackson" g5 H% l& P$ l! g/ W
       麦克思·明格拉 Max Minghella( y9 Y, ]: `& I
       马利索·妮可 Marisol Nichols" Y- K. |: O& M& s% B1 B5 v( E3 Q
       摩根·大卫·琼斯 Morgan David Jones0 U7 m8 R" n+ F( b
       阿莉·约翰逊 Ali Johnson+ C+ E7 ?2 \0 q( h1 @
       弗兰克·利卡里 Frank Licari# M0 M6 a4 J1 b4 L/ t
       约翰·托卡特利迪斯 John Tokatlidis
1 E+ t- v9 V' ?/ V, b       佐伊·帕尔默 Zoie Palmer6 P" E% Y1 j! N3 B
       丹·皮特隆杰维奇 Dan Petronijevic
" k9 _% c$ Y) j/ X/ \5 X9 i' G       理查德·泽皮里 Richard Zeppieri2 n5 l9 i; q/ g0 Q6 ^3 l. e
       伊迪·英克斯特 Edie Inksetter
. }: U( Q- j0 U% ?5 Q+ p7 I       莱拉·丽 Leila Leigh
$ i4 X2 O8 Z& E       克里斯托弗·泰 Christopher Tai
  z! ]  |' P0 r9 {: b       盖内尔·威廉姆斯 Genelle Williams
9 S5 S$ f: ?" Y       莱昂尼达斯·卡斯特罗尼斯 Leonidas Castrounis0 e! t( ?  i8 B$ S' f% S9 v
       克里斯·柯林斯 K.C. Collins
; f9 M2 L9 D# H- |3 [( z       纳齐恩·康特拉科特 Nazneen Contractor
4 {8 ^6 n4 ]  z! n" ]  c       卢克·加洛 Luke Gallo
$ ~$ o- ^6 n1 j0 ~! ?/ X       乔什·斯托博格 Josh Stolberg' k6 B  C0 |" [) e) W  G; L

# u* T9 t" L( Y1 u; Y◎标  签 电锯惊魂 | 恐怖 | 惊悚 | 美国 | 犯罪 | 系列 | 血腥 | 悬疑% n- U% K5 Q2 [* G$ i

9 {" d! y0 t2 c( j* r) \( F3 _◎简  介     ) S9 V* @7 Q* m7 x2 m, M, r* L

% W* E0 n( D: ~( X5 {" i8 P) [  老鸟警探(塞缪尔·杰克逊 Samuel L. Jackson 饰)带领警探(克里斯·洛克 Chris Rock 饰)调查惨绝人寰的连环杀警案,“拼图杀人魔”重出江湖的传言,再度勾起所有人心中的恐惧。这次新的游戏规则,似乎直冲警察而来。每个命案现场留下的“死亡漩涡”,将把他们卷进难以抽身的血腥深渊之中……; s8 u- X3 `9 M8 q

* `7 g" L8 i' D* K5 T  《电锯惊魂》第九部由第8部的两位编剧皮特·古德芬格和乔什·斯托伯格撰写剧本。执导了《电锯惊魂234》的达伦·林恩·鲍斯曼此番回归执导。
4 r# U- R5 z7 D$ x3 K, D  n3 R! D3 {, Y
  Working in the shadow of an esteemed police veteran, brash Detective Ezekiel “Zeke” Banks and his rookie partner take charge of a grisly investigation into murders that are eerily reminiscent of the city’s gruesome past. Unwittingly entrapped in a deepening mystery, Zeke finds himself at the center of the killer’s morbid game.
  ?5 |0 h( n. b
Video
8 t  n, V/ A- |* q* VID                                       : 1
: M% o9 V( b* e2 m) e$ aID in the original source medium         : 4113 (0x1011)
+ n' E# _9 o; w% u& `) JFormat                                   : AVC
! ]8 B$ w" P5 ?2 y/ QFormat/Info                              : Advanced Video Codec* a8 x/ @$ l2 ?& u
Format profile                           : [email protected]
# j* ~: v4 t2 s. r' ZFormat settings                          : CABAC / 4 Ref Frames7 z$ N# {0 X6 u/ b1 z
Format settings, CABAC                   : Yes
4 U7 Q/ u4 [0 b" eFormat settings, Reference frames        : 4 frames! d& ?" k$ A9 J
Codec ID                                 : V_MPEG4/ISO/AVC
. H! O5 ~# D  C5 DDuration                                 : 1 h 33 min
6 Y$ n1 J, C7 e# E( m6 b& bBit rate mode                            : Variable5 p1 j/ C! ?0 e$ j9 I# H- n( O
Bit rate                                 : 33.8 Mb/s
! [  O5 c$ F" I8 E# ]' N% P% UMaximum bit rate                         : 35.5 Mb/s
( d4 m, G  D7 j. Y6 ~Width                                    : 1 920 pixels
% E* t$ S& _$ E  HHeight                                   : 1 080 pixels
9 Z3 T- v- t. h2 A( ~% D7 r7 c& YDisplay aspect ratio                     : 16:9
- m! `) G6 d$ [Frame rate mode                          : Constant
! p- |: |* r8 P( x3 iFrame rate                               : 23.976 (24000/1001/189150) FPS1 d7 T* S, j2 w! p: t; h% m' {
Color space                              : YUV; F7 i' _1 B( Q' d+ a
Chroma subsampling                       : 4:2:0
) p) B7 b5 c) i4 iBit depth                                : 8 bits5 a! d$ z" K" o8 F! F7 O. T7 ?
Scan type                                : Progressive8 g9 s- _3 n& z6 p5 E
Bits/(Pixel*Frame)                       : 0.679
) z/ q$ l# k" J7 J1 w% {# FStream size                              : 22.0 GiB (75%)& T8 R, z2 r$ l% q. t
Title                                    : Spiral.From.the.Book.of.Saw.2021.1080p.BluRayCD.REMUX.AVC.DTS-HD.MA.TrueHD.7.1.Atmos-FGT7 }" D% j8 n4 y# Y4 O! P
Language                                 : English  P+ i  `, A/ m; ?6 v2 S
Default                                  : No+ w, K9 f* p& B
Forced                                   : No* K7 M( A1 ~5 L/ x
Original source medium                   : Blu-ray
1 ?3 R6 \5 C1 }; A7 o$ C" W) m7 p* m9 v# V8 P2 n( \& ~* O7 \
Audio #1  f& g, U# A2 }* w+ ]
ID                                       : 2
9 o$ A: p6 F  ~$ X1 wID in the original source medium         : 4352 (0x1100)9 `1 ]) T2 h2 f6 j
Format                                   : MLP FBA 16-ch- ~9 ~* Z7 O+ h5 p1 y. h$ ~
Format/Info                              : Meridian Lossless Packing FBA with 16-channel presentation0 E( T0 i2 P3 N- U. p
Commercial name                          : Dolby TrueHD with Dolby Atmos0 ?  l+ [" S/ k/ Y& ~0 P  Z
Codec ID                                 : A_TRUEHD
. D9 O: Y' M" F$ k, V7 ~: XDuration                                 : 1 h 33 min
/ [  ?) w$ ]( X9 fBit rate mode                            : Variable
1 }+ A& t, w9 }' C2 iBit rate                                 : 4 299 kb/s- l9 V2 p( l- l2 L
Maximum bit rate                         : 9 057 kb/s; u  q; l  F% R
Channel(s)                               : 8 channels
2 o, D9 m2 K- q( z( a0 PChannel layout                           : L R C LFE Ls Rs Lb Rb
/ U* H( j7 a. w, GSampling rate                            : 48.0 kHz: B4 P/ o$ V1 I4 s. @: n
Frame rate                               : 1 200.000 FPS (40 SPF): b& J0 |* R3 T
Bit depth                                : 24 bits
7 i( T8 C' G& J  H" VCompression mode                         : Lossless. s; ]2 B1 X0 T, L
Stream size                              : 2.80 GiB (10%)1 p& y9 N* w. N7 z0 v5 b/ }
Title                                    : Spiral.From.the.Book.of.Saw.2021.1080p.BluRaycd.REMUX.AVC.DTS-HD.MA.TrueHD.7.1.Atmos-FGT6 P$ O  q, {: i3 R( n# Z' j
Language                                 : English
8 ?/ {% ~8 v* rDefault                                  : Yes) V! K7 b: B$ _  r9 w
Forced                                   : No7 T. g! D: n3 K0 _
Original source medium                   : Blu-ray
' S4 s" M: ^9 `5 SNumber of dynamic objects                : 11$ l( o# ^4 F$ f& S
Bed channel count                        : 1 channel
- T- o( g! C: D0 ^Bed channel configuration                : LFE
. u4 l2 s- v; ^/ C( @9 V. l7 M5 @) p6 F
Audio #2
( F# r( n  t8 C6 C- H( @9 {+ JID                                       : 3, z" x1 f' i- j9 H& J! h
Format                                   : DTS XLL
) _# \8 s1 b2 K* Y. _0 wFormat/Info                              : Digital Theater Systems
% I$ K+ J  M( y8 ]1 jCommercial name                          : DTS-HD Master Audio
8 A7 J3 s% q# ~$ {/ Y& i5 VCodec ID                                 : A_DTS
4 I8 ?+ w# P; g  s; J  s) tDuration                                 : 1 h 33 min4 f! f/ F  }6 A9 D9 G* G9 w" U* p
Bit rate mode                            : Variable
0 ~4 h: L7 f$ w; c% A+ ZBit rate                                 : 4 067 kb/s
- U4 y6 w1 e  `Channel(s)                               : 8 channels
$ k. w1 A; ~: T) S5 M0 mChannel layout                           : C L R LFE Lb Rb Lss Rss  P9 c9 a/ X/ w% g+ {1 d# X6 N
Sampling rate                            : 48.0 kHz& e7 x6 M" J  b+ C0 y7 ~+ t
Frame rate                               : 93.750 FPS (512 SPF)
0 v8 G2 M, V- @, B/ k% YBit depth                                : 24 bits
) R% o$ k) J5 ~, D7 N1 v0 I+ RCompression mode                         : Lossless
0 x: N1 r  L& T4 W# zStream size                              : 2.64 GiB (9%)
5 y+ ^. j# Y$ m9 OTitle                                    : Spiral.From.the.Book.of.Saw.2021.1080p.BluRaycd.REMUX.AVC.DTS-HD.MA.TrueHD.7.1.Atmos-FGT( n; x# Z1 d# q6 @/ q
Language                                 : English
5 ?6 b* |, O- F1 d; E9 CDefault                                  : No
& e9 R5 Q, Y" g2 YForced                                   : No& O$ A! s# Y/ I# B

3 {7 l2 Q' a+ o) ^3 F% [Audio #3/ w8 U: l8 O1 n8 a' ]( T4 O
ID                                       : 4
( y: [! w) {1 CID in the original source medium         : 4352 (0x1100)5 M, L' O  i  x1 q5 t
Format                                   : AC-3! H& s2 B0 |$ x
Format/Info                              : Audio Coding 3: G, C) N3 K4 [
Commercial name                          : Dolby Digital
# h  B  Z" N+ }8 b4 JFormat settings                          : Dolby Surround EX
! d7 q  h7 \* j4 E0 ~0 ?Codec ID                                 : A_AC3
& e: O( N& m! B1 _3 `Duration                                 : 1 h 33 min& @- c& Z+ b& q
Bit rate mode                            : Constant
0 L8 H. T! z/ A0 LBit rate                                 : 640 kb/s
& Y% ~- ~7 h2 r1 ]Channel(s)                               : 6 channels9 t& y8 L) I: I0 z( c( Z7 f) X
Channel layout                           : L R C LFE Ls Rs
4 H& ]4 G' w- I: l" Y9 g( TSampling rate                            : 48.0 kHz- ]* e, a8 @! l5 j' ^
Frame rate                               : 31.250 FPS (1536 SPF)
4 u7 C/ L3 ~5 \' o! J  OCompression mode                         : Lossy
6 L* F" V& f- L. j$ H, t$ j7 FStream size                              : 426 MiB (1%)/ R* a$ v' r6 ?7 h! D. L
Title                                    : Spiral.From.the.Book.of.Saw.2021.1080p.BluRaycd.REMUX.AVC.DTS-HD.MA.TrueHD.7.1.Atmos-FGT
& a# x* q" \. vLanguage                                 : English
( ^6 k  u' d( @% O3 q' L4 a; }) g) eService kind                             : Complete Main
0 D% o$ I$ w# K% a$ c. KDefault                                  : No
, Y' @1 X# y% q/ }) o" d4 [+ `Forced                                   : No  l+ z0 b  |! f0 [9 P! ^
Original source medium                   : Blu-ray
$ j2 H3 ^1 ~6 ]. N$ l, U" V2 L1 L
Audio #4
; W& c- F% d& D0 S) u2 z& RID                                       : 50 Z4 C0 l8 y' G  {4 ~
ID in the original source medium         : 4353 (0x1101)
5 Y9 t  A6 m& b+ U, a, B  bFormat                                   : AC-36 g9 ~' E  U7 o# |& @: @
Format/Info                              : Audio Coding 3
8 @' d5 _! I1 p8 _9 I+ bCommercial name                          : Dolby Digital
, L# C; m& o9 j' ACodec ID                                 : A_AC3" f+ `: g# e& l
Duration                                 : 1 h 33 min
3 C7 c5 O8 }' S- J! \' cBit rate mode                            : Constant* U* @* c+ z: I% Q8 G- h
Bit rate                                 : 192 kb/s
* R! Z5 S$ l3 I7 ]5 L: ^Channel(s)                               : 2 channels7 a" X- C: x9 u' f; e
Channel layout                           : L R
6 M' A" F/ q' t4 ?& v7 \& e8 l; YSampling rate                            : 48.0 kHz
* K1 J1 Y! S* g; ?+ Y: l5 v2 lFrame rate                               : 31.250 FPS (1536 SPF)
4 R8 o, C4 n3 B! W. C5 W2 eCompression mode                         : Lossy
' [* a, ?% n) n! d$ [$ G8 I  YStream size                              : 128 MiB (0%)! Y6 W! m8 n) S. a- R
Title                                    : Spiral.From.the.Book.of.Saw.2021.1080p.BluRaycd.REMUX.AVC.DTS-HD.MA.TrueHD.7.1.Atmos-FGT
( T; k1 e8 ^. H% [  a. WLanguage                                 : English
8 C6 \  X1 J: y7 |9 J% C+ JService kind                             : Complete Main4 t2 Y+ w+ X8 O/ E2 L4 q
Default                                  : No+ M* p& v! v3 D1 n% D
Forced                                   : No
: Q& p, ~& g; C0 _Original source medium                   : Blu-ray
% q: `- @+ {! s6 b/ i9 l0 B3 ]! o  Q3 B& K9 G  Z0 r4 @4 P
Audio #5" t& e: @; V% q
ID                                       : 67 O8 t# Q! n3 C3 p; n
ID in the original source medium         : 4354 (0x1102)
4 u& N8 K. i' q3 \  @4 v2 x$ E1 zFormat                                   : AC-34 K6 h$ T3 k& H% r" o" J
Format/Info                              : Audio Coding 3
  w" V# g8 j0 |( zCommercial name                          : Dolby Digital3 A0 ^6 P" e/ O5 G! R3 e6 X5 u" d* c
Codec ID                                 : A_AC3
4 b. Y; K' H' s  O; l6 [' vDuration                                 : 1 h 33 min& g* b. n; U: @2 S! I
Bit rate mode                            : Constant' a0 t1 Z( `9 W% f4 A$ _0 l) v
Bit rate                                 : 640 kb/s
% P6 l) w& z: F4 P& zChannel(s)                               : 6 channels
/ t- m- K9 X9 g2 C! oChannel layout                           : L R C LFE Ls Rs4 p* ]6 g9 u7 ~$ P. C, L; ^' }
Sampling rate                            : 48.0 kHz0 h$ R1 W1 U  o# G9 k
Frame rate                               : 31.250 FPS (1536 SPF)& z2 u; L' O! @
Compression mode                         : Lossy$ e4 f# v7 H; t0 E
Stream size                              : 426 MiB (1%)
- F3 D2 P7 A' x" e% E1 t( `Title                                    : Spiral.From.the.Book.of.Saw.2021.1080p.BluRaycd.REMUX.AVC.DTS-HD.MA.TrueHD.7.1.Atmos-FGT" J8 i, i0 j8 y) |
Language                                 : Spanish# l% |5 L9 e$ Q/ y5 A
Service kind                             : Complete Main
( g+ Z8 s. P" k/ YDefault                                  : No3 c8 C6 @! @( q2 E' H
Forced                                   : No
9 z6 u6 t% n8 U! f+ N  UOriginal source medium                   : Blu-ray
) W6 z7 p. {" F* r+ u" A1 ~) i, |
) L) |8 K0 q$ `  R- `Audio #6& {6 ?# V  R: U5 g$ O; b
ID                                       : 7
3 w7 @, j! E& }; ]+ p: D# `7 a! ~' KID in the original source medium         : 4355 (0x1103)
4 v% g- j6 B7 H- s& EFormat                                   : AC-3
' y5 I8 o# h- {- rFormat/Info                              : Audio Coding 31 h3 r9 G7 M& H/ ?! ?9 o! w
Commercial name                          : Dolby Digital. N6 m% t1 w# \- [( U. ?& L
Codec ID                                 : A_AC3* T- p1 i6 g; `. ?0 ^( e
Duration                                 : 1 h 33 min
6 H& i! G/ H6 E# r4 l/ rBit rate mode                            : Constant9 j2 ^& m% z2 M( S) a  {  d( q1 _1 X- D
Bit rate                                 : 192 kb/s
+ o$ N% t/ f7 k9 b5 l! w& G, W+ NChannel(s)                               : 2 channels
9 k2 {: \/ U# u* i0 v3 ~% r9 }Channel layout                           : L R6 u( e8 H. R. ~2 I2 }0 b
Sampling rate                            : 48.0 kHz
7 L% t% o$ W; Y: X. ?Frame rate                               : 31.250 FPS (1536 SPF)6 ^! o( T5 U, B2 z/ t7 u4 q! f/ B
Compression mode                         : Lossy
* P' S4 ~: X% h4 }Stream size                              : 128 MiB (0%)$ E3 a# Y4 Z( K5 r$ o% o% U9 w
Title                                    : Spiral.From.the.Book.of.Saw.2021.1080p.BluRaycd.REMUX.AVC.DTS-HD.MA.TrueHD.7.1.Atmos-FGT" T+ M* V# E* ~6 p( E" f" `
Language                                 : English
! M, i9 D' g% R1 h3 v" r' IService kind                             : Complete Main
# o9 w) I" t2 SDefault                                  : No3 T+ o) @8 I2 y0 C1 l; L$ O4 O
Forced                                   : No
4 \9 j/ B8 ?. @( r7 N" I5 g) ^0 Y' p8 MOriginal source medium                   : Blu-ray
3 k+ Z# w% M6 H: z
1 B# V& e. Z/ E" |# k" [Audio #7
: l: z/ o' r% j  dID                                       : 8
! Q! ~+ Q& o5 v: ?7 R4 VID in the original source medium         : 4356 (0x1104)6 n- n! K: c% B7 |9 H3 D
Format                                   : AC-3
( Q9 c/ u- x% O/ O! dFormat/Info                              : Audio Coding 3, ?9 H0 K- r9 H* u$ i
Commercial name                          : Dolby Digital3 f4 {: E3 r+ b3 g3 u/ G
Codec ID                                 : A_AC3! c( K) l+ o& Z, t
Duration                                 : 1 h 33 min$ Z7 R' Q& x( H/ y! ?
Bit rate mode                            : Constant
% ?) {+ Z3 x# F  J1 |5 D( K# iBit rate                                 : 192 kb/s5 T2 Y2 A' `# l/ W' b3 D
Channel(s)                               : 2 channels
4 r0 o1 G$ R" U- o* U2 tChannel layout                           : L R
2 ^7 Y% p+ l/ s9 d1 X7 jSampling rate                            : 48.0 kHz
: T3 u6 O+ U. u/ CFrame rate                               : 31.250 FPS (1536 SPF)
/ H  C9 D* _* K# dCompression mode                         : Lossy' d" x$ ~2 O  ?# b3 e$ B, W# S
Stream size                              : 128 MiB (0%)
) N; M# k% s& X. |7 d6 }7 a! ?# PTitle                                    : Spiral.From.the.Book.of.Saw.2021.1080p.BluRaycd.REMUX.AVC.DTS-HD.MA.TrueHD.7.1.Atmos-FGT
4 f( n. w% x5 ?6 E+ y! x* S/ Q1 m* XLanguage                                 : English
* v9 {0 i8 B0 d3 Q- eService kind                             : Complete Main9 F% V1 M) q/ i4 _! `% O" u
Default                                  : No8 C( m$ c/ @3 p. h" V; q4 z! S4 w) R9 [
Forced                                   : No
8 \6 O1 U" d* [) }. V8 R) tOriginal source medium                   : Blu-ray
. ~$ V# Y2 W/ Z5 ~* G7 Y& q  p: K0 ^2 b
Audio #8) P5 M4 Y2 b+ _
ID                                       : 9
' S6 h  z1 R# NID in the original source medium         : 4357 (0x1105)3 l$ S' w# W0 T3 O- Z5 U
Format                                   : AC-38 D. c1 d* L* n0 l. m$ M
Format/Info                              : Audio Coding 3
4 ~& L$ F' `8 L* S6 t- K  M! Z+ CCommercial name                          : Dolby Digital
% A( j" t5 a* s0 jCodec ID                                 : A_AC3, Y" J; y/ m9 s4 E7 C4 d
Duration                                 : 1 h 33 min
1 |, j' R6 t2 fBit rate mode                            : Constant0 U6 D# j7 X' r5 o% x
Bit rate                                 : 640 kb/s& M3 l4 L3 ?# R9 f+ l
Channel(s)                               : 6 channels
1 c: v/ ^, M' p% ]: OChannel layout                           : L R C LFE Ls Rs
* o' J# @) G- `Sampling rate                            : 48.0 kHz/ m7 T" m8 i6 F$ S7 J0 F
Frame rate                               : 31.250 FPS (1536 SPF)
2 j4 q- K( o6 R) rCompression mode                         : Lossy- L+ [' e( M5 O& ]: v
Stream size                              : 426 MiB (1%)  d& M9 g$ [" e
Title                                    : Spiral.From.the.Book.of.Saw.2021.1080p.BluRaycd.REMUX.AVC.DTS-HD.MA.TrueHD.7.1.Atmos-FGT
% O% j% g% a8 M6 Z+ BLanguage                                 : French  i. v- b$ T3 D$ \' o4 v
Service kind                             : Complete Main
5 z5 e& U" }5 t. ~' wDefault                                  : No1 J' [& X& S- ^( ^' S4 l: _- n/ s0 G
Forced                                   : No, Z, N$ b: G5 X/ X; y1 ~2 L
Original source medium                   : Blu-ray$ O- N7 L* P$ Q; O; o% {, _

, U0 A6 a6 P; k9 J8 {: |  sText #14 h: |- J# i8 ^+ D: u
ID                                       : 10
( p( Q; s$ f  `Format                                   : UTF-8- I0 v$ D8 d2 J8 \
Codec ID                                 : S_TEXT/UTF81 i+ e2 f2 H! K" V4 X7 J  y# W4 O
Codec ID/Info                            : UTF-8 Plain Text
" t" W  S. Y8 |5 B0 GDuration                                 : 1 h 25 min
% `9 F7 d6 o& l( ^" c8 CBit rate                                 : 59 b/s
1 L8 t+ L2 T6 F% kCount of elements                        : 1149% `8 _0 L: x5 E6 M4 |
Stream size                              : 37.1 KiB (0%)
/ v7 n+ `# ]# h; H. T) q9 c1 lTitle                                    : SRT0 n% W! M* s' Y
Language                                 : English
' ?6 s% D( E# ?5 v. cDefault                                  : Yes
6 ^2 y+ h5 O4 ~9 mForced                                   : No6 R/ U8 ^6 f) D; }1 }; l

8 M4 b  E  M. P1 I5 x9 g* wText #2& q( ^( \! \. n3 n0 o* A7 W' W
ID                                       : 11
" A% ~: H5 b5 Y% d8 NID in the original source medium         : 4608 (0x1200)4 p/ j# z- F  h
Format                                   : PGS
$ [2 d" ]6 M) i2 j7 Q* e  q0 Z- hMuxing mode                              : zlib  R: w( f; M3 C/ D
Codec ID                                 : S_HDMV/PGS+ u7 w2 }2 ?2 D% L  n
Codec ID/Info                            : Picture based subtitle format used on BDs/HD-DVDs9 i8 i+ p' Q% x& B& Q9 Y/ J
Duration                                 : 1 h 25 min# ~, p- w  ~* A5 d7 ^# Y
Bit rate                                 : 37.0 kb/s6 p8 y# J. |  D
Count of elements                        : 2304$ a; E( b" j8 a+ s% Z; W$ S1 H2 b
Stream size                              : 22.7 MiB (0%)
3 {/ P2 {" c4 l% xLanguage                                 : English* P; _# w  h5 _" N$ k
Default                                  : No
! b1 `2 m/ J# jForced                                   : No
' ?0 H* f# R) q6 q% DOriginal source medium                   : Blu-ray
2 v( K& _: s; m2 W7 l* ~' J& Q
Text #3
# v8 V2 D  S. |) Y) [% p& }ID                                       : 12/ M  d" G3 E+ B* n
ID in the original source medium         : 4609 (0x1201)/ Y% x; T5 k: C$ f# N6 h2 T
Format                                   : PGS* q' j+ K5 Y% A1 d  c& X
Muxing mode                              : zlib2 ]7 U  }# ]. N
Codec ID                                 : S_HDMV/PGS
7 v1 V& j, G' D. @Codec ID/Info                            : Picture based subtitle format used on BDs/HD-DVDs+ F0 C" {7 U; I0 Q: v6 {) O2 Y
Duration                                 : 1 h 26 min
) {3 B" K& [, T" l3 u+ L; @% P9 {Bit rate                                 : 42.9 kb/s3 c8 e/ v  G8 v' b8 W
Count of elements                        : 2686
) W# V6 v7 o8 c2 |* t' lStream size                              : 26.5 MiB (0%)
0 `4 G5 L  _. ^/ P! U' SLanguage                                 : English7 ]5 t2 S$ B1 t- o1 D- N
Default                                  : No7 }# F% [! e7 _/ Q5 ~
Forced                                   : No
6 E( f; P* e! L! ]7 LOriginal source medium                   : Blu-ray2 K( F9 t8 p- i: V3 t) v1 v0 U
$ F( V1 x# A' c1 }( H5 X1 f- |7 {
Text #4
5 T6 `% g. \) [. @2 iID                                       : 13
6 c' S# i2 Q  c" k' C8 h/ OID in the original source medium         : 4610 (0x1202)
- D! f2 ]& h; bFormat                                   : PGS$ t/ F- a; r$ y- Q, r, }
Muxing mode                              : zlib
4 @, ^. j1 g9 U8 h4 v" ]4 qCodec ID                                 : S_HDMV/PGS
" ?* G! e7 r2 ICodec ID/Info                            : Picture based subtitle format used on BDs/HD-DVDs: W) T& _  O# ]* `) Q1 D: Y' W
Duration                                 : 1 h 25 min
4 |. E3 H* `, O5 xBit rate                                 : 34.3 kb/s: c$ {- z* z1 D5 M( [9 O# k
Count of elements                        : 2174
" n4 G# b8 q6 _  s0 X7 hStream size                              : 21.0 MiB (0%)
& z9 H0 g; |1 n' jLanguage                                 : Spanish
2 @$ F+ P# b4 P: k4 v) Z  e6 ?Default                                  : No; I6 J; `# l: j, |
Forced                                   : No" w. I3 Z6 e4 U- I* b4 j
Original source medium                   : Blu-ray! K& Q; r4 i  `2 o% f
9 H/ ~5 l3 Z. w  ]& p) U
Text #5
) o& ]; }' w6 g: h6 ~ID                                       : 14
" n9 M- U) N- e9 [4 J5 WID in the original source medium         : 4611 (0x1203)2 t3 h: W$ H/ e5 o; J
Format                                   : PGS% j6 F; p) @7 g7 ]: v7 ^
Muxing mode                              : zlib
  @7 U6 {3 m% b; ]6 |; ?/ _Codec ID                                 : S_HDMV/PGS8 d3 o, ~0 X& t/ `
Codec ID/Info                            : Picture based subtitle format used on BDs/HD-DVDs2 {/ y7 \  h9 D0 S7 ~, y
Duration                                 : 1 h 25 min
" Y+ m$ j# a  IBit rate                                 : 27.7 kb/s/ s% K( q: k* b" i0 ]& f+ W
Count of elements                        : 2332
7 V' X- X7 S2 PStream size                              : 16.9 MiB (0%). h* C# u" w. m5 ?
Language                                 : French
4 m, w/ d7 Q) H, TDefault                                  : No; q5 ~. R* X' D8 {; N! x
Forced                                   : No$ p* z& `/ a# t2 O3 S( L0 P
Original source medium                   : Blu-ray* o( e% x7 \  Q& x3 ]

6 U4 U; G; J# J* gMenu
# H/ V, R1 m% S4 j& s! w/ w7 c00:00:00.000                             : Chapter 01% ~+ a# r1 u/ V; \3 l* k
00:05:45.428                             : Chapter 02& |" C! |8 t3 M5 x2 [0 M
00:11:25.476                             : Chapter 03
4 `5 \9 `) `, g00:16:56.598                             : Chapter 04
1 Y9 D1 C# l0 J) P! B00:23:20.190                             : Chapter 051 M: b/ m3 S+ F% A9 Y4 `* B
00:27:47.415                             : Chapter 06; P+ p5 {+ a" n1 a
00:34:08.212                             : Chapter 07, k0 W( T: R" v0 w  R4 Z
00:38:44.655                             : Chapter 08
( p' R5 j8 s! V# x6 R: Q00:45:15.170                             : Chapter 09/ z( z* G6 R3 T2 y9 P+ [! c
00:49:44.314                             : Chapter 10
: }2 T6 E1 p- X0 N00:55:25.488                             : Chapter 11* t" f) x% r8 g3 u
00:59:14.217                             : Chapter 12
+ q9 E, C# }  F8 S+ j( g3 H. H0 U01:06:47.294                             : Chapter 138 B& h7 l- Q( ?) E6 u, T4 E9 a9 N
01:09:19.071                             : Chapter 14
$ z5 ^+ F- b5 ]- v4 r; W01:15:18.722                             : Chapter 15/ G# a" w) F& \* |7 p. w1 `
01:20:22.818                             : Chapter 16

2 a9 U+ D- O9 n, Q* r
游客,查看本帖隐藏内容请回复 | 加入VIP贵宾可免积分免回复 了解详情 | 还不是会员:点击获取邀请码 Invitation Code

76

主题

2994

帖子

1万

积分

Sponsor

金币
1440 枚
体力
4226 点
lanpanshuma 发表于 2021-7-22 09:26:30 | 显示全部楼层
Bluraycd又有新电影发布了,激动中……!& D: e- i6 h( e9 v: L1 L/ @
Blu-ray Film Forum: I will always support you!
8 q6 ~/ o& @" p: |# {5 o! S' _8 o

本版积分规则

小黑屋|Archiver|蓝光电影资源网

GMT+8, 2021-8-5 21:20

快速回复 返回顶部 返回列表