BluRayCD Forum

 找回密码
 立即注册【分享大片】
查看: 133|回复: 5
收起左侧

[蓝光原盘] 正义骑士/正义的骑手 [REMUX无损美版] Riders of Justice 2020 DANISH 1080p US BluRaycd REMUX AVC DTS-HD MA 5.1-FGT 19.10GB

[复制链接]

8298

主题

8492

帖子

6万

积分

Forum Moderator

金币
12261 枚
体力
10880 点

卓越贡献勋章

24小时 发表于 2021-8-26 05:32:15 | 显示全部楼层 |阅读模式
01.jpg ! O$ O# ~" U+ }" U+ A1 t" e7 R

4 g' G2 S/ ^" @8 }9 A◎译  名 正义骑士/正义的骑手0 e9 T. @% T2 y8 K% o
◎片  名 Retfærdighedens ryttere / Riders of Justice
' P6 c: v; S0 W: N◎年  代 2020
2 s0 _9 G9 c0 @' |0 u- ]& ~' U◎产  地 丹麦/瑞典/芬兰
8 T" E5 I& t- t; ^7 d1 {$ Y◎类  别 剧情/动作
$ f2 G0 I6 B" ~! y* I◎语  言 丹麦语/阿拉伯! M+ q. [( a8 U+ s& f$ h' X' M3 M
◎上映日期 2020-12-25(丹麦)$ Y- `! ?; J$ h8 D9 E6 E
◎IMDb评分  7.6/10 from 23,280 users# h) u& Q. d! I" W
◎IMDb链接  https://www.imdb.com/title/tt11655202/
8 [9 l2 Y  a+ c# I◎豆瓣评分 7.2/10 from 4,475 users8 X" x$ E. n+ Z1 X. \+ M, M
◎豆瓣链接 https://movie.douban.com/subject/34925383/
: \( k+ t& R8 h( ^◎文件格式 x264 + DTS7 |$ \2 x1 k5 ^- ~+ q( s- ^
◎视频尺寸 1920 x 1080
# r* C( G. y  @) t) E◎文件大小 1DVD 19.10 GiB
/ A4 m  U' B, |" A/ P- k◎片  长 1 h 56 min) N7 H# \, h2 L  G0 q" X: q
◎导  演 安诺斯·托马斯·延森 Anders Thomas Jensen
* I+ E; Z/ T. n* [  N◎编  剧 尼科莱·阿尔赛 Nikolaj Arcel* h. D/ j5 L4 R# b! \6 K0 B" ^
       安诺斯·托马斯·延森 Anders Thomas Jensen) G  ]$ e' I& @# j) J/ Z
◎主  演 麦斯·米科尔森 Mads Mikkelsen# z4 d$ W2 m2 U. c
       尼古拉·雷·卡斯 Nikolaj Lie Kaas
3 n$ L$ d3 P0 M3 J' f3 [  ~* s       罗兰·默勒 Roland Møller
* w0 |. D$ f/ ^* Q- g7 c) k       古斯塔夫·林德 Gustav Lindh/ v  f1 y: W+ \7 B3 I
       尼可拉斯·布若 Nicolas Bro
2 t. B/ v+ h9 q% C, o       拉尔斯·博格曼 Lars Brygmann
/ o' }1 o3 E( ~9 V: ~& E" W       雅各布·乌尔里克·罗曼 Jakob Ulrik Lohmann6 s8 G/ k, F/ v/ y
       艾伯特·鲁德贝克·林哈特 Albert Rudbeck Lindhardt
- e2 Z1 l# d# \       蒙坦·瑟贝尔 Morten Suurballe
0 ^5 i! C6 R5 o# ]; Y& u% @8 H       Jesper Groth& k6 W7 }0 b# S8 B9 Y6 ~
       丽克·路易丝·安德森 Rikke Louise Andersson
4 l  N% h9 b) s       Jesper Ole Feit Andersen
8 X  I- Q+ q1 `+ t       古斯塔夫·代克尔吉塞 Gustav Dyekjær Giese
7 Q! Q1 R! z8 U" _       Andrea Heick Gadeberg6 O. u8 d  R3 s9 f) n6 w' j
       Rigmor Ranthe' V1 Y+ n& Z$ @- A1 j+ E# F
       Henrik Noël Olesen9 H) z0 V. H/ y' ?
       卡斯帕·威尔伯格 Kaspar Velberg
) t% P" g7 K7 X+ g# U# B       克劳斯·赫朱勒 Klaus Hjuler
  K0 i6 z: z6 N1 ^+ f6 K7 W       赖沃·特拉斯 Raivo Trass/ y' \/ D8 Z& W  @: X/ n  O
       Anne Fletting
( Q. d0 c. B  [% K* l
1 B: i; V' M) v. P) A5 I: w◎简  介   / I9 v$ {) i! [; S1 R- k. {

& q8 {0 O) z9 e8 Z+ T  故事讲述马库斯的妻子在一场悲剧的火车事故中身亡,马库斯要赶回家陪女儿玛蒂尔德。这场事故似乎是一场意外,但一位数学极客,也是火车中的一位乘客,与他的两个同事现身,说出他们确信这场事故背后另有隐情。
6 W1 d0 }- R# u: D6 P: J
$ q5 e+ a8 L8 ^+ }/ F  Markus, who has to go home to his teenage daughter, Mathilde, when his wife dies in a tragic train accident. It seems like an accident until a mathematics geek, who was also a fellow passenger on the train, and his two colleagues show up.
% X( t+ {, C+ L" e3 J# N
Video
) o( s% c% F( c: \+ i2 \ID                                       : 1
9 _& K. n8 r" CID in the original source medium         : 4113 (0x1011)
# O% t8 y& ?1 N" k$ E+ k. NFormat                                   : AVC
$ m& a7 O% e# p* d! ?Format/Info                              : Advanced Video Codec
8 L9 z0 _4 W; P. v* ?% ?Format profile                           : [email protected]. i: S4 H2 O" m
Format settings                          : CABAC / 4 Ref Frames% f' F; L! l7 X/ a$ E
Format settings, CABAC                   : Yes
; m, {- Q- Y# S& V. _% VFormat settings, Reference frames        : 4 frames
9 h0 i) W& y% R& k4 mCodec ID                                 : V_MPEG4/ISO/AVC( T$ M; h  r: q' i" i
Duration                                 : 1 h 56 min2 u8 L0 V; W  s5 {, N; j" ]6 w& i
Bit rate mode                            : Variable- M. \- X+ ]( _7 R( `! M
Bit rate                                 : 19.9 Mb/s9 [- I5 j. L. g3 Z" ]3 Z6 z' M0 _! ~
Maximum bit rate                         : 35.0 Mb/s
9 l% r# Z! ], d7 tWidth                                    : 1 920 pixels; Q0 B9 c7 ?$ |6 R7 K0 i
Height                                   : 1 080 pixels
+ `; }3 c# b/ uDisplay aspect ratio                     : 16:91 [9 V, ?6 ]- @2 Y7 R2 m& W
Frame rate mode                          : Constant4 ?( z9 X" [, E
Frame rate                               : 23.976 (24000/1001/189150) FPS
' z4 R) _( l4 G* p; oStandard                                 : NTSC/ M, R) w5 [' `3 k& ]' l! g6 W
Color space                              : YUV" ]/ l" l( R3 f1 ?" O
Chroma subsampling                       : 4:2:0
% F  u3 f. u% IBit depth                                : 8 bits
# l6 C! \" L: R" }4 ~Scan type                                : Progressive) M5 N1 L7 i# L! t% f# y! Y! Y
Bits/(Pixel*Frame)                       : 0.401  ~9 D( G* _# r; p7 A  D3 H! S
Stream size                              : 16.2 GiB (85%). Y) E& _1 e. ~6 c) K
Title                                    : Riders.of.Justice.2020.DANISH.1080p.US.BluRayCD.REMUX.AVC.DTS-HD.MA.5.1-FGT
" D" o1 l; a/ v8 `$ VLanguage                                 : English5 H/ s: p  e* t# p
Default                                  : No
9 \% l- }" S; c9 ^! mForced                                   : No
' G0 ^- F6 z( ?/ ~) \Color range                              : Limited; x4 I) N: O5 ~+ _2 h$ S$ E1 j0 C5 q
Color primaries                          : BT.709' ~8 b% u5 e# I2 }* ?9 D  A
Transfer characteristics                 : BT.709
; [, Z) F" T# w. b! {Matrix coefficients                      : BT.709  f0 ]1 \% O; `$ Y0 w9 s
Original source medium                   : Blu-ray
9 v' ?1 f6 I4 b2 @' g- M0 y8 C0 \/ ?8 [3 i* J
Audio #1" r- k* n7 e) a& e4 |
ID                                       : 2
  W& G4 O. q: j  kID in the original source medium         : 4352 (0x1100)9 G& l) o$ N2 x# H# k
Format                                   : DTS XLL! P( I" Y  u! n
Format/Info                              : Digital Theater Systems
& L3 p2 v, h7 s; k+ W' ?Commercial name                          : DTS-HD Master Audio
4 Z, u6 n$ q; }* N  e$ \- D) {Codec ID                                 : A_DTS
( o: W) l6 C9 \, j9 vDuration                                 : 1 h 56 min8 Q3 ?. r# r+ w" j) l: F6 u7 l
Bit rate mode                            : Variable$ \- z2 s# r& _' P8 K- r% K$ l
Bit rate                                 : 1 772 kb/s( Q4 {& A4 U" t
Channel(s)                               : 6 channels" l2 ]7 |# E2 X& V
Channel layout                           : C L R Ls Rs LFE" D; w0 a4 m* q
Sampling rate                            : 48.0 kHz( b3 O& z* f8 A: |8 B3 g4 v
Frame rate                               : 93.750 FPS (512 SPF)
7 s5 }( T5 e+ t0 K! bBit depth                                : 16 bits7 {! t; [1 ?- W$ F
Compression mode                         : Lossless6 }- R- E5 _6 Z* M2 C
Stream size                              : 1.44 GiB (8%)
- Y' A3 v" `  E* C* n# oTitle                                    : Riders.of.Justice.2020.DANISH.1080p.US.BluRaycd.REMUX.AVC.DTS-HD.MA.5.1-FGT8 I6 _) ^+ C3 H5 ]: E( A9 i$ f
Language                                 : Danish
, S! w0 s4 B7 {: [- C1 xDefault                                  : Yes( p- [3 H) p6 X( M, l
Forced                                   : No% a/ O8 h7 F# d2 t: A' ~  q
Original source medium                   : Blu-ray
/ {5 }0 u! f& Z8 C) C* ]8 m0 C4 C. T8 _, g( q2 k# o' E$ c
Audio #2
! q) {' m* v& Q+ N! ?6 {ID                                       : 3( z* I; V( n$ s  O% L2 P
ID in the original source medium         : 4353 (0x1101)* i5 X" A) F( ^: |! E
Format                                   : DTS XLL
3 b( q9 R6 M) x0 ]& f* m5 hFormat/Info                              : Digital Theater Systems
+ A0 y2 T* p6 D: k+ V6 JCommercial name                          : DTS-HD Master Audio
) ], i" j$ W/ _( B2 l( t$ Z0 ~Codec ID                                 : A_DTS2 Z( B" P& F( y) B9 k( M" o* f. Z
Duration                                 : 1 h 56 min
: a; m; p  L, `4 D/ ?Bit rate mode                            : Variable) ]/ I  ]5 o, w1 `
Bit rate                                 : 1 761 kb/s
1 O/ z+ @/ E& U0 r7 @" NChannel(s)                               : 6 channels
. ~- k# ?3 W: k+ b; N' \4 sChannel layout                           : C L R Ls Rs LFE  U  E( l% d, H$ }+ l( Z
Sampling rate                            : 48.0 kHz
$ T9 S1 |* G  H5 z! }' yFrame rate                               : 93.750 FPS (512 SPF)1 q# _$ V3 x5 V% U/ s  y' N" I( K
Bit depth                                : 16 bits
' |9 r% g9 z' B! z7 v' t& E& ?Compression mode                         : Lossless2 r6 _+ C* r& ~; a
Stream size                              : 1.43 GiB (7%)  q6 [) P( A; R3 S5 W$ r* Q" a
Title                                    : Riders.of.Justice.2020.DANISH.1080p.US.BluRaycd.REMUX.AVC.DTS-HD.MA.5.1-FGT- _4 ~9 Y& W2 _4 F
Language                                 : English5 l5 R8 g7 Z* \% J9 ]1 x+ X9 g
Default                                  : No
5 B: t0 W: M, i3 V$ l; LForced                                   : No
6 j! D" k/ ?0 z! Q# m$ G& X+ uOriginal source medium                   : Blu-ray
2 i& q9 t) ~' s3 r/ s, A  W! m. D. \& k6 B8 c5 C
Text #1
* u7 e4 c; P8 G0 w6 H2 yID                                       : 48 n9 f: c+ L/ |  G$ h# t
Format                                   : UTF-8
/ f  N  @+ t3 _9 k" ECodec ID                                 : S_TEXT/UTF89 u" m1 A, j+ b6 S5 `7 @
Codec ID/Info                            : UTF-8 Plain Text. Q$ P: y* }1 B* r: m! ]% O, T0 `
Duration                                 : 1 h 55 min
) ?. o. S& q. J4 Z) MBit rate                                 : 55 b/s8 r' s3 w; J# f9 `/ S
Count of elements                        : 1217
3 Y: ^" a) v+ Z$ UStream size                              : 46.8 KiB (0%)% v# s+ {1 W1 t8 Q
Title                                    : SRT
) k( P& d0 K  ~' ^3 W- Z7 _" c: {Language                                 : English
( @7 j3 ?. n& YDefault                                  : Yes0 C" V. R! G4 ^1 u* q, d
Forced                                   : No
* q+ |7 L0 o5 X/ B) I3 M5 z- W
7 O9 Q0 M* d# i; M$ S7 lText #2, ?4 Z9 L! @6 Y4 s! Q7 ?  F
ID                                       : 59 n6 |; w1 d- g0 k
ID in the original source medium         : 4608 (0x1200)
& k5 B4 C2 x7 qFormat                                   : PGS4 p; [3 V& A* I7 S
Muxing mode                              : zlib% j3 a# N( y" g7 ^  I5 s( Y
Codec ID                                 : S_HDMV/PGS1 D- Z3 G1 v3 a( y
Codec ID/Info                            : Picture based subtitle format used on BDs/HD-DVDs
6 i7 J$ U$ q# l3 d1 {0 l+ eDuration                                 : 1 h 55 min
0 [, _! R- x8 s- M: PBit rate                                 : 61.5 kb/s
) X5 C9 J' E$ ?- e) f4 _. _Count of elements                        : 2440  ^3 B. z# y! x0 \* G7 X
Stream size                              : 50.7 MiB (0%)
5 V1 d/ W7 \  `2 Q* j# ]& cTitle                                    : FORCED
8 b  a( q3 w" s0 P+ u' c4 p) k1 E3 K: NLanguage                                 : English
/ o; e( ^; }9 ]Default                                  : No
/ c- x, V# S; W% ?7 sForced                                   : No
. p- e2 b$ y9 o6 L4 COriginal source medium                   : Blu-ray
6 H1 {; D/ G0 {7 a7 j' F7 F5 G3 ?, @4 |( ]  P, G
Text #3
$ a5 m! d! {" z( `' R: r- F! z! ]ID                                       : 6$ Q; c% W% @1 j( J% m) L$ v5 W
ID in the original source medium         : 4609 (0x1201)
0 _" _# u7 y) Q! l5 s$ _+ dFormat                                   : PGS
# s8 t7 J6 j; QMuxing mode                              : zlib* z! @( N$ H3 y  }
Codec ID                                 : S_HDMV/PGS
  z3 x. q8 C+ U+ |4 r. I4 k; vCodec ID/Info                            : Picture based subtitle format used on BDs/HD-DVDs
; c' Q. n8 y" }  q# D+ oDuration                                 : 1 h 55 min" v2 o$ _0 D/ l! M: `  o9 d
Bit rate                                 : 394 b/s
% A* D' _7 m3 H( pCount of elements                        : 24
* f% F2 Z) |- N8 F4 m, [, G* T- cStream size                              : 333 KiB (0%): A2 Z% I: `- ?7 [7 v2 s+ {
Language                                 : English
1 f" t) w1 X4 K6 n7 G. P8 uDefault                                  : No0 l( N2 L; A* H
Forced                                   : No. x% A# s* a8 I3 x  y4 g
Original source medium                   : Blu-ray- w5 ^8 N% r8 a

( U& `2 t+ H  U2 aText #4$ d! T7 X+ R7 z% C' Q; A
ID                                       : 7
! o7 e. K! L0 [" ?8 e2 MID in the original source medium         : 4609 (0x1201). H) U* ~# X+ M  C7 N. k  B
Format                                   : PGS
4 }- m2 n9 J: I( X" DMuxing mode                              : zlib3 Y6 @  y! R) f1 b9 w+ k8 @
Codec ID                                 : S_HDMV/PGS
; [# L: A3 x8 z0 E! oCodec ID/Info                            : Picture based subtitle format used on BDs/HD-DVDs
/ b9 _5 Q- d9 P% YDuration                                 : 1 h 55 min2 S& v! C* D% r# I2 O# l; M! L7 X
Bit rate                                 : 394 b/s
3 d( P8 C) V. X1 E+ sCount of elements                        : 24
% `. m3 I4 L6 a4 RStream size                              : 333 KiB (0%)
, Q% u6 e+ [0 b5 @Language                                 : English
9 `: l, e! f7 O4 DDefault                                  : No/ p' u7 A0 c. ^4 E, X
Forced                                   : No
2 Q! W  N( n( M) J' j2 V; NOriginal source medium                   : Blu-ray: _% c. r5 q: Y! I- ?+ j
  O: E/ L' O& L2 \, V/ j
Text #5
" S, s/ X7 Q4 g, KID                                       : 8; c& K  {  L" T. X& d
ID in the original source medium         : 4610 (0x1202), q4 ^. N8 j1 z  v
Format                                   : PGS3 o' r9 s6 G$ S4 ]' O  \9 M
Muxing mode                              : zlib
- ]5 K* j2 n6 zCodec ID                                 : S_HDMV/PGS
# f5 A$ [8 R" {. v* z: _. _Codec ID/Info                            : Picture based subtitle format used on BDs/HD-DVDs9 b, [+ e5 Y# d' C) E
Duration                                 : 1 h 55 min. x9 s7 R" r( a) L. |7 Q3 ]
Bit rate                                 : 67.8 kb/s
) H! H( g7 V- e7 X7 r9 s2 TCount of elements                        : 3202: o2 g8 `* v3 ^8 |9 J8 t( {2 l8 \
Stream size                              : 56.1 MiB (0%)
: r3 X. f5 d9 V" q; `0 k$ f2 jLanguage                                 : English
5 M0 ~& u( v# aDefault                                  : No# X6 W) S# {- f+ T/ x5 i7 y9 i: K
Forced                                   : No( y8 X1 Y. v7 E0 `
Original source medium                   : Blu-ray+ M/ ]# \  H! L: g/ x+ @

2 |  b8 }' d* I8 t+ i0 |6 AMenu
( b/ o! B4 j; i( a5 o* `00:00:00.000                             : Chapter 01
0 x# n. D, n: P! \00:09:45.334                             : Chapter 022 R3 @& d$ O" x) m; X/ e
00:18:34.822                             : Chapter 03
) q4 Y3 O+ A( z00:26:40.599                             : Chapter 04
) z9 f% N5 o2 O, M00:34:23.061                             : Chapter 05- x% f/ G) P# E* W& n0 f0 }
00:42:15.533                             : Chapter 06
5 y* K/ o6 ]3 n( N00:49:59.705                             : Chapter 07
& W" m" c$ t( A3 k- {- p01:00:23.494                             : Chapter 08
9 F$ t3 M/ L7 f7 A2 {- \# d01:08:38.739                             : Chapter 09+ H1 V5 @8 U& Z# _5 F6 S( a, _
01:17:56.672                             : Chapter 10
7 x( s! N6 W3 ^01:27:16.147                             : Chapter 11  d+ V& N& F/ a7 x. \
01:35:01.696                             : Chapter 12
6 y4 T! K) B: g01:39:50.901                             : Chapter 13
0 X# G0 a5 `; e9 J01:48:01.391                             : Chapter 14
# I/ L. L2 U& C5 _5 ]* B7 s01:51:50.328                             : Chapter 15
" w0 i6 H& L' Z5 u* `6 V* R' `01:56:09.963                             : Chapter 16
) |( d1 q8 l' Y: z, o; y; E# I2 q
游客,查看本帖隐藏内容请回复 | 加入VIP贵宾可免积分免回复 了解详情 | 还不是会员:点击获取邀请码 Invitation Code

76

主题

3281

帖子

1万

积分

Sponsor

金币
1631 枚
体力
4666 点
lanpanshuma 发表于 2021-8-26 09:29:07 | 显示全部楼层
看了LZ的帖子,我只想说一句很好很强大!""5 f, l' ]8 E$ |# j4 J
至少是现在,我一天没有访问蓝光电影论坛就不爽!At least now, my day did not visit the Blu-ray Film Forum on unhappy!
- j" ]- Q' y* T0 o+ I! m4 w

0

主题

454

帖子

1875

积分

Sponsor

金币
33 枚
体力
975 点
luyife 发表于 2021-8-27 17:13:15 | 显示全部楼层
谢谢楼主的分享

0

主题

43

帖子

462

积分

Sponsor

金币
65 枚
体力
294 点
笨啦蹲 发表于 2021-8-28 22:44:56 | 显示全部楼层
很好很强大

0

主题

573

帖子

2659

积分

Sponsor

金币
26 枚
体力
1537 点
QQ
sunday_119 发表于 2021-9-2 15:14:25 | 显示全部楼层
每天都来蓝光论坛看看,我爱蓝光电影。
0 ~; C/ ~- d1 z6 Z  x  h至少是现在,我一天没有访问蓝光电影论坛就不爽!At least now, my day did not visit the Blu-ray Film Forum on unhappy!
, T7 d) t# Q- K% ~

0

主题

709

帖子

3305

积分

Sponsor

金币
9 枚
体力
1815 点
sclzywxl 发表于 2021-9-15 14:50:21 | 显示全部楼层
谢谢楼主分享

本版积分规则

小黑屋|Archiver|蓝光电影资源网

GMT+8, 2021-9-25 23:28

Copyright © 2001-2022, Tencent Cloud.

快速回复 返回顶部 返回列表