BluRayCD Forum

 找回密码
 立即注册【分享大片】
查看: 60|回复: 0
收起左侧

[剧情悬疑] 通道/舞者 The Gateway 2021 720p BluRaycd x264 DTS-MT 4.41GB & 3.95GB

[复制链接]

1万

主题

384

回帖

10万

积分

Post Share

金币
321 枚
体力
26902 点

卓越贡献勋章VIP蓝光勋章诚信会员勋章

mvods 发表于 2021-8-31 20:11:37 | 显示全部楼层 |阅读模式
01.jpg
, q! b1 ?8 Q3 l  T; f8 j" Y+ @$ H* |+ W) a) E
◎译  名 通道/舞者
& p5 R; W. ?8 \0 }" t( c' B◎片  名 The Gateway) o0 ]* o7 s/ ]- {. m
◎年  代 20218 I9 T5 ]7 X7 \
◎产  地 美国% h- Q& M* d. {" c
◎类  别 剧情/惊悚- F0 F$ I  S! S9 [/ Y& @
◎语  言 英语
  I1 x1 u+ V* V! I& I' W) W; R◎上映日期 2021-09-03(美国)5 P2 y9 S+ A- g
◎IMDb评分  0/10 from 0 users
: M" H0 ^4 r- [% p◎IMDb链接  https://www.imdb.com/title/tt10207710/
: D5 N& L% L% @! a4 ]. }: V◎豆瓣评分 0/10 from 0 users
6 |7 L. T. x3 _" m$ ]1 l◎豆瓣链接 https://movie.douban.com/subject/33431979/* m: a+ H2 A$ H  o6 v
◎片  长 1 h 31 min
2 S+ ?# Z& [/ n/ w% ~, E& s$ |◎导  演 Michele Civetta % G- I' ^* {  C& ~7 z
◎编  剧 安德鲁·莱维塔斯 Andrew Levitas : @/ c& D& ~  M7 Z# o
       Michele Civetta
/ e- F. c$ b! f  H6 M* |+ }  T1 n◎主  演 奥立薇娅·玛恩 Olivia Munn
* v5 u$ S. a* w: c9 m: j       弗兰克·格里罗 Frank Grillo
; W9 q2 ~& V9 U, K" f, }" |       凯斯·大卫 Keith David
  D) C9 S% J* f2 g" s# }/ k       塔恩·曼宁 Taryn Manning% j3 O4 \9 R+ \2 Q
       谢伊·惠格姆 Shea Whigham
3 ^6 D$ m1 c9 o& ]- p       小马克·布恩 Mark Boone Junior
7 h# O% Y( r& {. F' c) w       布鲁斯·邓恩 Bruce Dern
+ E% s6 _3 l+ i6 w# X* U1 w       塔根·伯恩斯 Taegen Burns
. c& M! B/ g# ~2 t       亚历山大·瑞斯 Alexander Wraith
6 n; I; {9 \# D" y! D       扎克·艾弗里 Zach Avery! a% |; r( ~; e6 L7 `9 B
       杰伊·赫农 Jay Hieron
. _! z/ u% I1 N7 ~+ c
( v; y: q* R3 ?0 l1 z◎标  签 SheaWhigham
0 ]6 R/ j! N4 H) R8 k* F9 ~" u& T, o. E8 |  t: `
◎简  介   
+ x" J7 o' Z+ x! U- G
' x8 w7 n/ b6 N+ {6 z  弗兰克·格里罗、凯斯·大卫([耐撕侦探])、塔恩·曼宁([女子监狱])、小马克·布恩([混乱之子])加盟谢伊·惠格姆、奥立薇娅·玛恩、布鲁斯·邓恩主演新片[通道](The Gateway,暂译)。米歇尔·西梅塔执导。影片围绕一名热情、严肃的社会工作者展开,他负责照顾一名单身母亲的女儿。
2 D% D0 y  t6 V7 \0 r+ @4 |' Z9 R$ ~5 r; }
  A social worker assigned to the care of the daughter of a single mother intervenes when the dad returns from prison and lures them into a life of crime.
8 k3 k6 s$ |; ~! V4 J. f8 @8 j9 P
Video
3 ^: }! J! F  W4 M/ c/ y; Q9 V- S$ mID                                       : 17 W5 A+ t6 n* t; M6 `- S5 w6 C( H
Format                                   : AVC: A7 K! L+ h5 X# J' D" ^
Format/Info                              : Advanced Video Codec, K2 g9 m$ y$ w! V9 s6 Z
Format profile                           : [email protected]
/ }2 E7 s, Y# P- s1 O# [Format settings                          : CABAC / 9 Ref Frames2 K7 G% O* j+ G; @' ~
Format settings, CABAC                   : Yes( Y( K. r8 M3 A3 b# L
Format settings, Reference frames        : 9 frames1 j% J. b, h& w, v& n& P, I
Codec ID                                 : V_MPEG4/ISO/AVC
( F; G, p' U5 }' aDuration                                 : 1 h 31 min7 h3 {# r- n6 q0 R. v+ t" a) p
Bit rate                                 : 5 403 kb/s
" \) Z/ p! F, W0 f5 O0 b1 y$ tWidth                                    : 1 280 pixels0 C$ a8 w) \) v
Height                                   : 642 pixels" `( s1 ?( Z( O) R) z7 D3 ]
Display aspect ratio                     : 1.994
+ Z# m4 ]5 e5 Y/ ^7 ~4 k, FFrame rate mode                          : Constant
9 X0 r! Z- H# U, O" @Frame rate                               : 23.976 (24000/1001/189150) FPS9 \* a. Z9 {9 X3 J! }* @
Color space                              : YUV# u7 n. [7 S& k  g
Chroma subsampling                       : 4:2:0, U' X0 R+ X- U0 L" I! Z
Bit depth                                : 8 bits- p8 b  I; O6 {! J* Q, \, D1 K
Scan type                                : Progressive
# m2 \. M2 x' i/ M& p8 f1 F; s. ~Bits/(Pixel*Frame)                       : 0.274
# c! A: G/ b) uStream size                              : 3.44 GiB (78%)
$ L7 n& X4 y/ O% v7 n; FWriting library                          : x264 core 157 r2938 2b00a84 [email protected] Mod
$ z2 a6 f- P- {  R4 D  [Encoding settings                        : cabac=1 / ref=9 / deblock=1:-3:-3 / analyse=0x3:0x133 / me=umh / subme=10 / psy=1 / psy_rd=1.05:0.00 / mixed_ref=1 / me_range=32 / chroma_me=1 / trellis=2 / 8x8dct=1 / cqm=0 / deadzone=21,11 / fast_pskip=0 / chroma_qp_offset=-2 / threads=12 / lookahead_threads=2 / sliced_threads=0 / nr=0 / decimate=0 / interlaced=0 / bluray_compat=0 / constrained_intra=0 / bframes=8 / b_pyramid=2 / b_adapt=2 / b_bias=0 / direct=3 / weightb=1 / open_gop=0 / weightp=2 / keyint=250 / keyint_min=24 / scenecut=40 / intra_refresh=0 / rc_lookahead=250 / rc=crf / mbtree=0 / crf=16.8 / qcomp=0.60 / qpmin=0 / qpmax=69 / qpstep=4 / vbv_maxrate=62500 / vbv_bufsize=78125 / crf_max=0.0 / nal_hrd=none / filler=0 / ip_ratio=1.30 / pb_ratio=1.20 / aq=3:0.80
; m# c* U2 Q1 n- s# L  _7 ~Language                                 : English0 T, E3 |; `$ e. W9 h2 p/ X
Default                                  : Yes/ N8 d0 r3 C: D% E1 w; y$ L
Forced                                   : No1 E+ s9 S- U% t  O7 ?# _
Color range                              : Limited3 o2 |* x/ G# l4 ~! _+ K1 j; \
Color primaries                          : BT.7091 d  C+ h5 {& b# t
Matrix coefficients                      : BT.709: g& m. u) Z* s( z6 ]* [
! h/ d9 X1 H% I* U1 Y/ ]2 s
Audio% ]# y7 h9 B. Z+ Z4 ~( D: T
ID                                       : 2
2 D; F# }( H( E  ?) p- W( y- W: IFormat                                   : DTS
2 M4 ]0 a. c; d, vFormat/Info                              : Digital Theater Systems4 Y$ m+ f1 a7 P7 I% a
Codec ID                                 : A_DTS, T7 k4 N# W; h+ f- M, |- p
Duration                                 : 1 h 31 min5 \/ g  M/ G+ }' t
Bit rate mode                            : Constant
' M" `0 E% h( n6 V! N" ~4 cBit rate                                 : 1 509 kb/s
, e+ F4 t- c* D; ~( UChannel(s)                               : 6 channels7 G/ o: H" C0 a  T, ^9 I2 u- X
Channel layout                           : C L R Ls Rs LFE
. L% o  {* G/ q0 iSampling rate                            : 48.0 kHz5 b9 i, h/ S% N/ \; ?. E+ X
Frame rate                               : 93.750 FPS (512 SPF)' A4 z. i; Y3 n1 C
Bit depth                                : 24 bits
+ D( Q# j0 o0 m5 x: y7 ^Compression mode                         : Lossy
& H! M6 L* e- v& NStream size                              : 985 MiB (22%)- x. d0 h, |4 E
Language                                 : English
$ J( V+ `+ D7 {2 t7 sDefault                                  : Yes% r' f* d0 y9 l3 E  C  X
Forced                                   : No& f* l2 X6 ]* v0 f% j# a
. R; A( [& i. i' o. v6 G
Text5 Q' p* Z6 p+ E& K+ R2 z
ID                                       : 3$ y3 f5 ?! Q3 V- u9 V
Format                                   : UTF-8( s1 s# I; M, x$ k6 \
Codec ID                                 : S_TEXT/UTF8, b2 ]2 X- p6 U; ?: C; Y
Codec ID/Info                            : UTF-8 Plain Text
. |4 t5 L. k1 u7 r" U" Y5 TDuration                                 : 1 h 26 min
) e/ k5 {; l  S$ i( WBit rate                                 : 60 b/s: \: ?- K# A+ T/ n: U* D, R6 a1 e
Count of elements                        : 11291 G2 d- j9 }6 T3 k% n, h+ N  u0 m
Stream size                              : 38.4 KiB (0%)
: O; b. G& b* I* a* f" WTitle                                    : SRT4 w/ L  e8 P. m6 O8 p
Language                                 : English
5 s6 O' D& d: X; xDefault                                  : Yes" e, g0 S) W7 b6 _$ D% \/ M, s
Forced                                   : No2 f' c  l3 D# U# S

1 L& h$ x: t% i/ XMenu
0 Y: j0 O- |" g9 }/ \  [00:00:00.000                             : Chapter 01* [1 L+ @8 ?4 O/ M- F' X
00:05:06.806                             : Chapter 02$ W% [& a6 g2 E; }, S% c9 r( R6 W4 w
00:10:32.549                             : Chapter 03
! ?9 ^2 Y- |! U- P8 N* U- k5 j00:15:58.291                             : Chapter 045 @; n5 [* |1 m. t% ?
00:21:08.350                             : Chapter 05
" l. z5 [1 I& P! z00:26:30.672                             : Chapter 06
( F) J/ O) t) v+ t6 L$ X7 \: m00:32:06.716                             : Chapter 07" O  ]: `2 d  ^$ z+ i$ E
00:38:28.848                             : Chapter 088 H) J% W7 g7 A% u0 t3 g; ]
00:44:24.203                             : Chapter 09' _" [; M: J1 d" k
00:49:47.860                             : Chapter 105 o2 D5 R, ?7 J! ?7 S9 Y' c
00:55:15.646                             : Chapter 117 U& R! q, o4 t
01:01:26.141                             : Chapter 12
  R' x! j1 Q# z2 m" j  r01:06:26.608                             : Chapter 13
0 t' T6 R+ t# r# q- ^( s6 V01:12:10.910                             : Chapter 14- K- v7 B8 U7 h8 i# c/ R
01:20:53.932                             : Chapter 15! \$ ]+ l  _6 j8 S' H4 b9 b: A( G/ R/ n
01:24:00.327                             : Chapter 16
Video/ _( e9 N# e" d& G: X, g2 P
ID                                       : 1
/ |$ P3 e' E9 n$ kFormat                                   : AVC; A0 v1 E+ @2 H* t/ x* @" f# |
Format/Info                              : Advanced Video Codec
0 R* t! O+ R9 k! b7 u8 t2 o7 a( [Format profile                           : [email protected]
5 I/ l; e# ]6 |2 A: _1 N5 Z: kFormat settings                          : CABAC / 8 Ref Frames, V6 T3 ?0 c; z8 f8 e
Format settings, CABAC                   : Yes
; Q2 n' X  V; ?; B: v  \+ ?+ \9 B. t; BFormat settings, Reference frames        : 8 frames
3 q1 a; s( c+ b8 e7 K- F7 P/ o! QCodec ID                                 : V_MPEG4/ISO/AVC4 S' W$ B: T- A, K4 @* [" x/ b
Duration                                 : 1 h 31 min
4 V% X% A/ s8 R+ Z/ y3 }6 eBit rate                                 : 5 511 kb/s5 O' B; i% I2 m- h
Width                                    : 1 280 pixels: N, y) n5 Z2 P+ {5 M( ]6 U& _
Height                                   : 640 pixels
2 e) N# ?" A- K0 R' `2 k4 {Display aspect ratio                     : 2.000
3 M+ }/ ~) t0 W6 `# T4 h2 {7 Z& RFrame rate mode                          : Constant
0 t* A  d& m1 g1 \# w, m6 d) lFrame rate                               : 23.976 (24000/1001/189150) FPS
% }# X$ M: T5 G: I6 @9 m1 eColor space                              : YUV
2 k2 c% t0 @! A0 ?& h) |Chroma subsampling                       : 4:2:09 q# _; N5 E' F6 z; N1 i
Bit depth                                : 8 bits' [/ E6 X* E: u- n
Scan type                                : Progressive1 q# n4 \/ n/ R; s1 s( K
Bits/(Pixel*Frame)                       : 0.281
0 z/ h0 R3 T+ @6 D. c8 @Stream size                              : 3.51 GiB (89%)
: P! w( Z$ B% B* n9 N7 LWriting library                          : x264 core 164 r3065 ae03d92. t5 b6 v" f3 g) K$ O( {5 f
Encoding settings                        : cabac=1 / ref=8 / deblock=1:-3:-3 / analyse=0x3:0x133 / me=umh / subme=9 / psy=1 / psy_rd=1.00:0.00 / mixed_ref=1 / me_range=16 / chroma_me=1 / trellis=2 / 8x8dct=1 / cqm=0 / deadzone=21,11 / fast_pskip=1 / chroma_qp_offset=-2 / threads=20 / lookahead_threads=1 / sliced_threads=0 / nr=0 / decimate=1 / interlaced=0 / bluray_compat=0 / constrained_intra=0 / bframes=3 / b_pyramid=2 / b_adapt=2 / b_bias=0 / direct=3 / weightb=1 / open_gop=0 / weightp=2 / keyint=250 / keyint_min=23 / scenecut=40 / intra_refresh=0 / rc_lookahead=60 / rc=crf / mbtree=1 / crf=15.0 / qcomp=0.60 / qpmin=0 / qpmax=69 / qpstep=4 / ip_ratio=1.40 / aq=1:1.009 Z3 B6 ~3 L7 v6 @- ?" L
Default                                  : Yes. @2 a/ {* s4 C0 ]( L: N' ^
Forced                                   : No# A' u# S, A2 ]" k: l, i

* \  V, f- j) W+ L5 I6 w+ {1 B3 DAudio
% v1 d% U! q% ?3 t. M$ \ID                                       : 2  B+ A+ o! }3 B6 Q6 h7 I- z
Format                                   : AC-3: Q5 q7 w6 V; g, A# ^5 Z
Format/Info                              : Audio Coding 3
% X2 {) r5 l8 P3 }Commercial name                          : Dolby Digital
# y+ D; A  R) ?( H: `4 GCodec ID                                 : A_AC3: B* i: k: w$ o
Duration                                 : 1 h 31 min
: n7 W! _* d' g% s  H1 zBit rate mode                            : Constant9 o( x4 e* K5 {* p  _7 d  P
Bit rate                                 : 640 kb/s, @7 [" Q. S' G( H' a
Channel(s)                               : 6 channels# `; ^5 h1 Z7 _' V- s4 l0 E- o' O
Channel layout                           : L R C LFE Ls Rs% H, [" T0 O' a  H% u
Sampling rate                            : 48.0 kHz
8 \# D0 J% m9 l, o5 {. jFrame rate                               : 31.250 FPS (1536 SPF)
) W8 z1 V" L$ U! |9 yCompression mode                         : Lossy9 f, |: d5 ~4 L" u1 l  }
Stream size                              : 418 MiB (10%)
! a5 ^: d3 \9 o# jLanguage                                 : English
) O2 ~# ^) l% H( i& PService kind                             : Complete Main
7 V3 Q; H3 q' J/ N; V5 z8 L5 PDefault                                  : Yes
% ^$ j9 E" J! x8 \Forced                                   : No; Q1 `# h* c3 [" Z( E, P

9 S* N( b0 I' `+ X: CText #1
" v+ ?" q  d' V% w2 lID                                       : 3
/ r1 t0 e- f6 ?4 S/ AFormat                                   : PGS
& O/ F5 h7 _& TMuxing mode                              : zlib
8 m& f4 o% K% k* S$ F, r0 C5 [Codec ID                                 : S_HDMV/PGS
; P; B; a* l* I+ g7 R% jCodec ID/Info                            : Picture based subtitle format used on BDs/HD-DVDs8 d/ v( N5 K  h: Y% `2 B" a! i
Duration                                 : 1 h 27 min
2 P- ^9 d  f6 ~# vBit rate                                 : 39.4 kb/s
8 w2 h3 T! D- S6 l( f& Y. b! mCount of elements                        : 24569 B4 u5 I/ {' T! i3 B
Stream size                              : 24.7 MiB (1%)3 c- i  G' |/ {6 R
Title                                    : English SDH1 ^/ r3 Y4 @; g" m) J/ \) t
Language                                 : English; n. H9 K( i- h, |; r1 N) l; x2 g
Default                                  : No
4 k* @( \& J/ Q% J9 a" a: F& J/ IForced                                   : No# L: y) e8 e* e! V
; x4 f# B7 j1 I: |% C/ H9 N
Text #2" T4 K# E. }( U7 w# |: y# ^
ID                                       : 4* d. L9 t" }1 q/ ?
Format                                   : PGS9 b' V0 ~$ x7 W" D0 [) y
Muxing mode                              : zlib
. [2 h' Y# r: VCodec ID                                 : S_HDMV/PGS
/ R* K: }2 X+ O5 B6 W: fCodec ID/Info                            : Picture based subtitle format used on BDs/HD-DVDs
0 u0 m& U8 l) H) ~Duration                                 : 1 h 29 min
1 U) H/ C( y. ~9 z1 L+ ~Bit rate                                 : 30.7 kb/s* m% N  j2 {- p
Count of elements                        : 2084
  @7 s, s- b; O7 M: o9 O# i9 _  B; ^Stream size                              : 19.7 MiB (0%)0 [3 o, k( {+ U$ S% g
Title                                    : Spanish! Q0 e6 f0 `5 p, Y% [# f& p& K
Language                                 : Spanish0 g- K' X- x5 [2 @- Y
Default                                  : No' r; F' @! [5 p& D2 y
Forced                                   : No
8 I4 s! J6 q$ j6 f' E# d# P% D3 E' k7 Z8 b+ C( X( ?( [
Text #3
" }* l2 O' p2 u4 L* H- h3 Z1 rID                                       : 5
& b0 z: E% |2 G8 k9 R5 nFormat                                   : PGS
. N- G( c1 E/ l$ x- rMuxing mode                              : zlib
: D! o# B* S2 }# }/ ]Codec ID                                 : S_HDMV/PGS
, t( m* c3 f5 H9 @- ^  ICodec ID/Info                            : Picture based subtitle format used on BDs/HD-DVDs3 n: D. D0 D+ |5 p1 T/ _
Duration                                 : 1 h 26 min$ T! |5 m% |/ J; Y, H. q% t+ t
Bit rate                                 : 28.2 kb/s
/ n! P2 n$ j6 F) s/ O. k5 uCount of elements                        : 2116. @  v: Y+ Q: c4 i; ^
Stream size                              : 17.5 MiB (0%)
3 U( b4 L, B! S1 R, kTitle                                    : French5 e0 B( O/ F6 \  F" u. c7 q
Language                                 : French
8 A8 e0 n$ r; l# P% K. O& Y- |Default                                  : No5 A# G. u$ y/ p+ Z
Forced                                   : No7 F: n! z% N+ f* N' s

# P( e, u0 d! E4 `* `, W1 AMenu
3 K5 m9 j6 c& |1 b0 {00:00:00.000                             : Chapter 01
6 p1 R8 E5 M: J" N  Z; |8 H00:05:06.806                             : Chapter 02+ ]: L0 _+ y* c) |7 }0 u
00:10:32.549                             : Chapter 03+ \! {- o+ V0 H
00:15:58.291                             : Chapter 04
3 l7 P8 F1 I4 Q! O* c00:21:08.350                             : Chapter 05
+ n9 r0 y1 K" B00:26:30.672                             : Chapter 068 |9 b6 Q+ n, w' ?) N
00:32:06.716                             : Chapter 07
; E5 P& r& x4 N# O4 N$ o/ k* r# `. g00:38:28.848                             : Chapter 088 G( b# U) J  `7 x! c* ], t
00:44:24.203                             : Chapter 09" h8 X' j% `' k
00:49:47.860                             : Chapter 103 J/ K: C0 W9 l: `. R
00:55:15.646                             : Chapter 11% }# Z3 _; f: H) |) }- W
01:01:26.141                             : Chapter 12
" N/ I; q( s2 Z01:06:26.608                             : Chapter 13( v. J8 k$ M7 N7 X3 s) K$ L
01:12:10.910                             : Chapter 14
! U; X" G% M9 T/ E* {: M0 M01:20:53.932                             : Chapter 15: Z4 O$ t9 y* c( b
01:24:00.327                             : Chapter 16
: s4 ^) |) P1 \$ `* ~9 E# a2 b01:31:15.261                             : Chapter 179 @% v6 t. u0 y/ f% T" ]

+ `$ T/ E; U! r7 }( f8 l, oName: The.Gateway.2021.720p.BluRayCD.x264-PiGNUS 3.95 GB
) M! ^0 q) X* Q' I( _8 F/ L  C4 q7 e/ [; G
Release date: 12-09-2021
! o$ @; }0 j2 P1 m! V" f3 _  Z
) o, B$ V9 u8 w9 |IMDB link: https://www.imdb.com/title/tt10207710
+ X; q6 n. r! q3 i6 V! m6 q3 z8 Y2 Z% g! Q! |
Resolution: 1280x640, v; Q4 z& U* h2 @6 f. Z6 [2 \/ c4 n
Audio: English AC3 6ch 640 kbps& T; e8 l# R6 T8 r; F( W
Video: 5511 kbps, CRF 15
8 W2 T. W. g% D8 Z$ uSource: 27424 kbps
  d3 P  G7 I8 c0 [* L* B! D! i. N$ H0 I6 H
Subtitles: English SDH, Spanish, French
1 n' S: J' B! V  L1 O
游客,查看本帖隐藏内容请回复 | 加入VIP可免积分免回复 了解详情 | 还不是会员:点击获取邀请码 Invitation Code

本版积分规则

小黑屋|Archiver|4K蓝光论坛

GMT+8, 2023-1-31 23:57

Copyright © 2001-2021, Gadaddy Cloud.

快速回复 返回顶部 返回列表