BluRayCD Forum

 找回密码
 立即注册【分享大片】
查看: 53|回复: 3
收起左侧

[蓝光原盘] D日刺客 [REMUX无损版] The Filthy Thirteen 2019 1080p BluRaycd REMUX AVC DTS-HD MA 5.1-FGT 11.18GB

[复制链接]

6194

主题

6368

帖子

7万

积分

Post Share

金币
14594 枚
体力
20624 点

卓越贡献勋章

黄金嫖客 发表于 2021-9-18 01:33:10 | 显示全部楼层 |阅读模式
In 1944, group of rebellious American soldiers known as "The Filthy Thirteen" parachute into Normandy to carry out a deadly mission.
% n/ N- ]2 O" p" l* J) P6 o- Y1 |1 p  ~, u! k
01.jpg 8 X/ Q) w& N* T
0 }8 z. C8 W7 Z+ o
◎译  名 D日刺客
1 n/ o; \: {4 e. ]◎片  名 D-Day Assassins / The Filthy Thirteen
. i5 G! `+ `' U: U) F% `◎年  代 2019: B, F" e7 B( n& z1 T* O
◎产  地 美国6 L# w5 _. Z0 ~
◎类  别 剧情/战争
$ w! T+ o  P7 o# L5 |◎语  言 英语1 j- ]4 A; K6 g. h
◎上映日期 2019-05-28(美国)
1 W' I  k" ?) a6 n+ a8 K2 \' i◎IMDb评分  3.0/10 from 393 users* F7 R' a+ t& H6 Q$ a4 s, G3 |
◎IMDb链接  https://www.imdb.com/title/tt5220602/
0 R2 X* D4 L0 o- B$ |◎豆瓣评分 0/10 from 0 users
9 d% t; U: X( v8 q: n: ~◎豆瓣链接 https://movie.douban.com/subject/30437899/
( J5 R: ^+ a# z  I; A( G◎文件格式 x264 + DTS7 x3 i3 N1 }, n) @, l
◎视频尺寸 1920 x 1080; Z0 e0 H" f6 R3 d  m/ l
◎文件大小 1DVD 11.18 GiB" z+ U' x: g. I* v; ]
◎片  长 1 h 20 min
, L  v0 p8 K; Q0 k' F◎导  演 安德鲁·琼斯 Andrew Jones+ O$ b; G1 l" B% ^
◎编  剧 安德鲁·琼斯 Andrew Jones7 M! g" c( {8 S, ]1 H
◎主  演 李·贝恩 Lee Bane: M1 H% {2 B- q" Q  J, u# ~
       马克·霍姆斯 Mark Homes5 y' Q1 @( R* `) [6 K9 K
       德里克·尼尔森 Derek Nelson
( v- }8 e, X) J$ D( v       帕里斯·斯坦格 Paris Stangl; G# U7 ]1 N' u. _: |$ H
       Vicki Glover
* r# Q" T) t$ B       亚伦·杰夫科特 Aaron Jeffcoate
6 r9 u9 r# |! Y, C2 @6 ^/ v+ R       西亚伦·戴维斯 Ciaron Davies$ a( P5 d$ w, E' L3 D
$ M9 [# r( u: q5 }$ m" f% t
◎标  签 战争 | 二战 | 美国电影 | 美国 | 2019 | 敌后 | 特种行动 | 二战典范6 N+ P! Y& p1 L" s- [
3 z4 w1 p0 }  R3 C# J* p0 F
◎简  介   4 m0 P* d" r% o3 t. e
1 }- q9 y; O2 p
  1944年,一群被称为“肮脏十三号”的反叛美国士兵跳伞进入诺曼底执行一项非常任务.0 v' w7 l- }' P& H
8 _2 b$ W" A* Y- L
  In 1944, a group of American soldiers known as "The Filthy Thirteen" are becoming an increasing problem for their superiors - disobeying orders, bathing infrequently and often going AWOL from their barracks. But the rebellious men are given an opportunity to atone for their behavior when they are selected to be the first unit to parachute behind German lines during the invasion of Normandy. Their goal is to move through enemy territory on foot and destroy Nazi supply lines and escape routes. Some call it a suicide mission. But they haven't counted on the ferocity and determination of this ragtag group of D-Day Assassins who will stop at nothing to take down the enemy.# x" ^7 D* p0 ?$ D' b, {

! M7 z* E" \; J2 D
Video: U' C/ ~- N6 i% [
ID                                       : 1
0 `1 j" Y" O) Y1 u) mID in the original source medium         : 4113 (0x1011)
' O* {+ z0 J  [( Y' V6 cFormat                                   : AVC+ v1 V0 P6 w! b9 O
Format/Info                              : Advanced Video Codec
6 x* K: a. H  a" E/ M! k0 O2 qFormat profile                           : [email protected]8 Q: _# X! W7 ~0 {) h  D
Format settings                          : CABAC / 4 Ref Frames
! L- f0 y( z& c' s3 vFormat settings, CABAC                   : Yes9 ]7 V8 A. w/ Q+ Y% r/ G% |
Format settings, Reference frames        : 4 frames/ U& s, \& e$ l8 z9 U0 F6 {4 w. e( d
Codec ID                                 : V_MPEG4/ISO/AVC
0 Z, \. g# Q, Q& x1 ~* YDuration                                 : 1 h 20 min
+ O" ^# ], d, _$ W2 k/ GBit rate mode                            : Variable* w" j6 G) L; M9 J8 m5 `9 T
Bit rate                                 : 18.0 Mb/s: x  C) e- u3 Y  K# @' u
Maximum bit rate                         : 38.0 Mb/s
3 W, ?7 E7 B: ]7 a) S! \- @/ MWidth                                    : 1 920 pixels& s  l3 m# w* N
Height                                   : 1 080 pixels" D" ]5 u" z; N, X( s- q
Display aspect ratio                     : 16:9% B0 P* }/ @( [" f7 q
Frame rate mode                          : Constant
7 A7 Z/ F1 [+ y/ H0 x, HFrame rate                               : 23.976 (24000/1001/189150) FPS4 z5 s) n- h4 O7 r6 K2 K' O; g
Standard                                 : Component8 T: D! T$ Y6 j5 i1 }; F
Color space                              : YUV
1 n/ W# m: e) b' oChroma subsampling                       : 4:2:0
! X' D. _! q: W8 q  p$ P. `Bit depth                                : 8 bits+ l% r) |* d- a7 [  p8 N
Scan type                                : Progressive% U3 J" X: j8 b  V, l2 {
Bits/(Pixel*Frame)                       : 0.362
$ i) g4 _/ e0 e! }: _; Z: J$ c( Q+ wStream size                              : 10.1 GiB (90%)% d# w9 G4 q8 r$ f% r
Title                                    : The.Filthy.Thirteen.2019.1080p.BluRayCD.REMUX.AVC.DTS-HD.MA.5.1-FGT
/ J8 e3 M0 `7 n) ]Writing library                          : x264 core 155
0 j. C0 j9 o& `% lEncoding settings                        : cabac=1 / ref=4 / deblock=1:0:0 / analyse=0x3:0x113 / me=hex / subme=7 / psy=1 / psy_rd=1.00:0.00 / mixed_ref=1 / me_range=16 / chroma_me=1 / trellis=1 / 8x8dct=1 / cqm=1 / deadzone=21,11 / fast_pskip=1 / chroma_qp_offset=-2 / threads=34 / lookahead_threads=5 / sliced_threads=0 / slices=4 / nr=0 / decimate=1 / interlaced=0 / minigop=1 / stitchable=1 / constrained_intra=0 / bframes=3 / b_pyramid=0 / b_adapt=1 / b_bias=0 / direct=1 / weightb=1 / open_gop=1 / weightp=1 / keyint=24 / keyint_min=1 / scenecut=40 / intra_refresh=0 / rc_lookahead=24 / rc=2pass / mbtree=1 / bitrate=18000 / ratetol=1.0 / qcomp=0.60 / qpmin=3 / qpmax=69 / qpstep=4 / cplxblur=20.0 / qblur=0.5 / vbv_maxrate=38000 / vbv_bufsize=30000 / nal_hrd=vbr / filler=0 / ip_ratio=1.40 / aq=1:1.007 U  e- M2 g) n" c# S0 f2 I
Language                                 : English& k( ^& D6 P4 M# ^  U
Default                                  : No8 w* f: E/ }1 u% b8 }
Forced                                   : No
- }/ D# d5 a* l) bColor range                              : Limited
8 ~) g) J! b) I5 NColor primaries                          : BT.7097 B* V: u( z; ?3 z4 l
Transfer characteristics                 : BT.709% _- \3 \" E1 }( G! X$ N! V5 ^
Matrix coefficients                      : BT.709
% P, k( C. F- _+ g0 hOriginal source medium                   : Blu-ray5 [. A- g9 \# h! R. e& [! q% l

0 ~* L7 d& }% o9 HAudio+ R8 [& {) e4 @  U  p7 Q6 |" `
ID                                       : 2
( Q3 g4 g' l/ e/ H7 MID in the original source medium         : 4353 (0x1101). N$ Y3 `9 _/ X6 a
Format                                   : DTS XLL
2 M; |2 P' P2 @( [4 v3 IFormat/Info                              : Digital Theater Systems2 }& m8 C7 L/ \
Commercial name                          : DTS-HD Master Audio
7 {: t# ^  i$ ~* U( fCodec ID                                 : A_DTS
- m1 u4 t3 X: m# Z8 zDuration                                 : 1 h 20 min& n8 j2 N9 m. b3 ?: w. P) e
Bit rate mode                            : Variable
4 f0 I' B) i( D: y. f1 rBit rate                                 : 1 893 kb/s2 {+ E- v# P$ @; f8 |# O
Channel(s)                               : 6 channels
, e+ o3 t0 c. D* ^8 WChannel layout                           : C L R Ls Rs LFE0 Q& {7 N5 _# \/ p! y7 h5 ?1 E% U
Sampling rate                            : 48.0 kHz
4 [3 g# I4 T! _" c# D4 fFrame rate                               : 93.750 FPS (512 SPF)
. B6 e- _6 A7 Q. XBit depth                                : 24 bits
5 v: E+ i4 e# p% M" p/ q, JCompression mode                         : Lossless
+ C# e# O, d! v$ f) kStream size                              : 1.06 GiB (10%)) r5 a% m' `: v7 P% E& H- C* r
Title                                    : The.Filthy.Thirteen.2019.1080p.BluRaycd.REMUX.AVC.DTS-HD.MA.5.1-FGT
8 N0 P& f( {/ hLanguage                                 : English
5 c# ?8 d; p! A) `; q+ JDefault                                  : Yes
( D8 z" J3 _! qForced                                   : No, I1 V1 ~. r. k9 f7 c2 X
Original source medium                   : Blu-ray  _; V( z, M6 o9 B' `
9 R2 s2 K5 k9 \4 b/ x
Text #1
" t% b* p, J5 o# b7 O& L2 MID                                       : 3  ~! E6 Q/ F4 L$ ^" X- e' \; B
Format                                   : UTF-8* g3 e7 {, ~! o2 S
Codec ID                                 : S_TEXT/UTF8
3 v8 x( e. }8 @& \5 c0 tCodec ID/Info                            : UTF-8 Plain Text' J6 c! r; R2 i- a! ?/ Z
Duration                                 : 17 min 25 s& C, L3 k4 f% g) R$ `! r
Bit rate                                 : 2 b/s6 o3 U1 \# j. w/ l
Count of elements                        : 10
8 C% a4 X2 s9 s+ F: Z# }& ^Stream size                              : 289 Bytes (0%)
, _1 C$ j0 s* _3 i; ]7 [Title                                    : FORCED
7 Y3 e  \! L0 TLanguage                                 : English2 J3 B& x- N0 v" h
Default                                  : Yes2 {. {% F- N2 s, X5 P  ]: Y
Forced                                   : Yes
9 |9 h$ x# L6 }9 I, n6 j7 b  l8 c1 f  I0 d  N/ X! t# a, D1 d& F
Text #2: }1 S7 ]% {0 |) d6 V
ID                                       : 4, N! X% n. l3 c5 F! N, r
Format                                   : UTF-8& k+ q* z& z4 P% p) i. Z5 g
Codec ID                                 : S_TEXT/UTF8- u5 ^6 H! h, y  V. @  t- @( x) @
Codec ID/Info                            : UTF-8 Plain Text
" P/ O4 M9 ?) ^7 I) ]# EDuration                                 : 1 h 12 min
3 j1 K0 D8 p4 G- W# z, s" YBit rate                                 : 56 b/s
8 {- b$ W, q, m- b+ U1 @: rCount of elements                        : 957
, X( P4 r- S/ |" z2 q' O0 P/ bStream size                              : 29.7 KiB (0%)5 ~1 v& Z3 c: [+ p
Language                                 : English! F! S8 Y9 J% G/ o2 x' W+ n
Default                                  : No9 e( p% _1 K# u; z. y
Forced                                   : No7 }& t4 T  ^9 L  O0 I" t$ l* t

: w& T8 g# \1 uText #32 w9 s) X: p5 k
ID                                       : 5! c; t: ]0 L( J" N, H: b
ID in the original source medium         : 4609 (0x1201)0 G6 e* G, B: [( W0 N6 X
Format                                   : PGS
6 O% h& K( e2 m1 dMuxing mode                              : zlib
+ R  F' `  C9 D( s% _Codec ID                                 : S_HDMV/PGS+ [  q+ [# B( Z5 {: v1 P6 g
Codec ID/Info                            : Picture based subtitle format used on BDs/HD-DVDs
2 D8 ~( L9 D( V/ U4 i7 PDuration                                 : 17 min 25 s! c( n, }% v" H8 {
Bit rate                                 : 1 310 b/s, }9 Y( H; l3 y, B- ~. p
Count of elements                        : 20
& B  p3 Z3 `" B9 wStream size                              : 167 KiB (0%)
  D. C" U9 E' C$ n$ a' mLanguage                                 : English
+ H: @3 U- S" ODefault                                  : No$ E* n+ E1 U) B! U0 {& X/ Z
Forced                                   : No# t% ^( \, G' f
Original source medium                   : Blu-ray
% y0 u3 r* y" u, h! Z' s0 z8 l' x) G& u
Menu2 v7 A+ }: R9 T7 @% N
00:00:00.000                             : Chapter 01
# m- R4 X3 _% j2 m00:06:37.480                             : Chapter 02* L) `( Q% N0 S! B+ f3 i
00:12:52.188                             : Chapter 03# }5 _; X4 v3 R+ u6 s  E8 e# S
00:18:10.964                             : Chapter 04
3 G" Q" P* ]- A3 E& W7 h8 @! ~5 Z9 Q00:23:50.387                             : Chapter 05% H. c: o1 z. y) T2 o4 h
00:31:19.294                             : Chapter 067 u: h! L- s+ q3 s& ~
00:37:22.365                             : Chapter 07
% t0 S7 _. U9 u3 B! n3 p00:43:00.536                             : Chapter 08
6 V2 s8 o( o$ D00:48:17.227                             : Chapter 094 y3 E- g: ~; M5 S1 V
00:54:25.053                             : Chapter 109 U; ]! y. g. S
01:00:00.847                             : Chapter 11- m0 R% a9 i* n. d0 s* l8 v
01:06:41.831                             : Chapter 129 J1 O- b: h& i: ?! m
01:12:30.304                             : Chapter 13, c% b3 h& S! b# }% D
01:20:22.859                             : Chapter 14

+ N! R. {9 @2 B. W! l
游客,查看本帖隐藏内容请回复 | 加入VIP贵宾可免积分免回复 了解详情 | 还不是会员:点击获取邀请码 Invitation Code

76

主题

3394

帖子

1万

积分

Sponsor

金币
1710 枚
体力
4854 点
lanpanshuma 发表于 2021-9-18 09:11:04 | 显示全部楼层
楼主发贴辛苦了,I*老*虎*U!( O9 ^) P$ M0 H5 l- R3 H
祝愿蓝光社区越办越好!I wish Blu-ray communities better and better!
0 L. Z! P, k+ m0 f; i- X

0

主题

717

帖子

3341

积分

Sponsor

金币
9 枚
体力
1835 点
sclzywxl 发表于 2021-9-18 10:37:30 | 显示全部楼层
谢谢楼主分享

0

主题

142

帖子

1148

积分

Sponsor

金币
86 枚
体力
718 点
QQ
dxymp 发表于 2021-9-18 19:14:01 | 显示全部楼层
祝愿蓝光社区越办越好!

本版积分规则

小黑屋|Archiver|蓝光电影资源网

GMT+8, 2021-10-21 21:40

Copyright © 2001-2022, Tencent Cloud.

快速回复 返回顶部 返回列表