BluRayCD Forum

 找回密码
 立即注册【分享大片】
查看: 79|回复: 8
收起左侧

[蓝光原盘] 恶人传/极恶对决 [REMUX无损版] The Gangster the Cop the Devil 2019 KOREAN 1080p BluRaycd REMUX AVC DTS-HD MA 5.1-FGT 16.77GB

[复制链接]

6202

主题

6376

帖子

7万

积分

Post Share

金币
14618 枚
体力
20640 点

卓越贡献勋章

黄金嫖客 发表于 2021-9-22 03:55:25 | 显示全部楼层 |阅读模式
A crime boss teams up with a cop to track down a serial killer.8 Y8 W/ s2 r2 o6 F0 ?5 W2 g

) R( Y( ^; E% ` 01.jpg 7 H8 M! L" C4 j* M6 Z
) s+ O3 ]* u7 {
◎译  名 恶人传/恶霸‧魔警‧杀人狂(港)/极恶对决(台)
( h; M. E8 _7 {- s◎片  名 악인전 / The Gangster, The Cop, The Devil1 B. P1 J0 k, }7 m
◎年  代 2019
4 o; s6 l- O0 r4 T, Q◎产  地 韩国! s5 _( M+ L9 {% d
◎类  别 剧情/动作/犯罪
: c. G9 }5 f3 x- C( b◎语  言 韩语
1 v' F1 ^+ q& l+ n7 S+ G# h1 T2 Y6 ?◎上映日期 2019-05-15(韩国)' W6 t7 D- S4 ^+ T" V. S6 x
◎IMDb评分  6.9/10 from 10,437 users
( I8 s8 t* n' q* \& _◎IMDb链接  https://www.imdb.com/title/tt10208198/9 S$ n- @9 m) R9 n/ w6 X- d! q% K: ?
◎豆瓣评分 7.8/10 from 235,097 users$ y0 E7 ]/ U( @5 P$ |
◎豆瓣链接 https://movie.douban.com/subject/30211551/% w5 s0 Y( Z' w& m
◎文件格式 x264 + DTS' s7 E4 D7 A& D5 J* f% L8 R, ]
◎视频尺寸 1920 x 1080  D3 `: i: h* j( w7 Q$ V  w
◎文件大小 1DVD 16.77 GiB; a, V6 I' @$ b! n- N* e: l- F/ k
◎片  长 1 h 49 min
4 X$ ~& S! H' e9 |5 U◎导  演 李元泰 Won-tae Lee
9 U: H9 i! k: Y. D& x9 ~◎编  剧 李元泰 Won-tae Lee
8 C8 T* Y) L( l) f◎主  演 马东锡 Tong-Seok Ma
1 l" j3 J) Z, E/ D4 y+ H       金武烈 Moo-yeol Kim
7 }3 N  X0 g, O1 d1 J4 j       金成圭 Seong-gyoo Kim4 I* z, ^4 [3 |* r
       刘承睦 Yoo Seung-Mok" l9 u2 j7 F2 ]2 r& f8 U& h, {
       崔民哲 Min-cheol Choi
# Y5 {& P; K) ?! p; Z       金胤成 Kim Yoon-seong
7 b! J. @% a/ B! A+ {6 m       许栋元 Heo Dong-won4 n0 C$ T6 D9 |& A$ I% U
       吴熙俊 Hee-joon Oh# b' s/ [1 Z( E$ @  w1 J6 t$ T5 a
       杨志洙 Ji-soo Yang
: k' X3 r; H4 M1 w7 `6 l       金桀 Kim Kyoul0 J7 [5 S1 Z/ J; _
       李恩泉 Eun-saem Lee
1 b. Y+ w, o+ i! y/ C       刘在明 Jae-myung Yoo/ y% ]6 v8 s0 C! M# {% L

" h& a( R# O2 N! O4 J+ n! N9 {◎标  签 韩国 | 犯罪 | 暴力 | 动作 | 警匪 | 人性 | 悬疑 | 20193 W( r; L; P! X( c0 d6 O
, l: ~/ {7 w0 R
◎简  介   * c) e  }/ N: ?, y

2 a, Z$ z2 _' P% |1 N  一个雨夜里,凶狠的宙斯帮老大张东秀正开车回家,路上突然被人撞了一下。他刚下车就遭到了毫无预警的袭击,身负重伤的他迅速回击才勉强捡回一条命,但是作为黑帮老大的名声却受到了重创。唯一修复自己名声的办法,就是找到攻击自己的凶手再狠狠地报复回去。张东秀决定和警探郑泰锡合作,郑警探相信这个攻击者正是自己追踪中的连环杀手。郑警探的上司对他的推理不屑一顾,表示并没有任何证据可以支撑他的猜想。因为这个杀手没有留下过任何证据,别无他法的郑警探只能用张东秀的资源来收集关于连环凶手的信息,试图通过相似的作案手段来找到凶手。各自拥有才能和资源的两人联手,开始找寻这个代号为“K”的连环杀手。追寻同一个“猎物”的两人也立下了一条规则:谁先找到,谁就能凭自己的意愿处置他!
: y. k& K9 `( S! x- v' I( |
8 J4 o" v3 A; _  A gangster and a cop teamed up to chase a serial killer for their own reasons.
6 W: y. P4 C! c" Y
6 Y0 X; M: K; E( Z! ]$ h1 e) _
Video8 v( P, v$ [2 y* m) ^2 h0 @
ID                                       : 1
- Y: \8 f, [! c% R9 f/ [( v+ ]& O* EFormat                                   : AVC1 w1 n+ @  h/ H8 F6 P/ s% B9 U
Format/Info                              : Advanced Video Codec
, H1 W! G  v2 w; b2 U2 pFormat profile                           : [email protected]0 c1 i& n/ Q: B5 P8 Z  D
Format settings                          : CABAC / 4 Ref Frames
) K4 g5 T0 q7 c% c, P, S# S/ vFormat settings, CABAC                   : Yes5 E5 k3 K. E8 Z' T. @4 m
Format settings, Reference frames        : 4 frames* r: Q; \8 n! A, h6 C
Codec ID                                 : V_MPEG4/ISO/AVC
7 H# G. p' x6 t8 H0 ^Duration                                 : 1 h 49 min
9 j  b3 ]6 K, _1 ^Bit rate mode                            : Variable
" j% y3 A' ?$ h% j- MBit rate                                 : 19.2 Mb/s
: s  ]5 Y7 q, e: b! I' i; NMaximum bit rate                         : 20.0 Mb/s( Q3 S, i* x8 V2 `' x% R
Width                                    : 1 920 pixels- n- L: P* M8 e0 _/ D4 j
Height                                   : 1 080 pixels
, V6 H/ p% r  @Display aspect ratio                     : 16:9
: \2 ~% _7 V; d0 R9 c, b/ tFrame rate mode                          : Constant
  K7 E# G; C& A! R. i0 u. W; ^1 `) pFrame rate                               : 24.000 FPS
% ~6 T" a. i& m; Y$ e/ XColor space                              : YUV* J( d, ]7 [* k  k, J# N
Chroma subsampling                       : 4:2:0
& `# q: C7 F/ w, n8 v- _& FBit depth                                : 8 bits4 v3 i5 }5 }# |, d& p
Scan type                                : Progressive
5 G3 l: ^0 m' Y) k) u! _Bits/(Pixel*Frame)                       : 0.3858 E9 q8 P, A4 S  ^/ c; S
Stream size                              : 14.7 GiB (88%)3 T1 n$ B/ N# N. L
Title                                    : The.Gangster.the.Cop.the.Devil.2019.KOREAN.1080p.BluRayCD.REMUX.AVC.DTS-HD.MA.5.1-FGT' U% i/ ~9 G, e8 R4 K9 Z
Language                                 : English
' ~9 ]! s+ r, ^3 x. Q) R$ e  O' ODefault                                  : No8 o% s- e4 [% c
Forced                                   : No
* \& Y5 o7 w6 F9 A& O; `- I5 X. D4 Q& Y  q6 s( }  N$ |
Audio #1! ?( W. q' N0 @2 \7 g; t" @+ m
ID                                       : 2( c' ]) A, `" v0 m2 u, K
Format                                   : DTS XLL
# ~) ~7 M* Q- F  E" [5 @Format/Info                              : Digital Theater Systems
! V) k' z& F' E/ h4 c3 j2 JCommercial name                          : DTS-HD Master Audio
% z# i. Q. n% i, q0 V' s+ zCodec ID                                 : A_DTS8 ?. p, f* X4 s: u
Duration                                 : 1 h 49 min
3 S6 ^& J8 {- q  K  u' HBit rate mode                            : Variable3 X8 _$ B3 p3 y3 A4 G. J
Bit rate                                 : 2 260 kb/s
* z8 k0 A* i' _Channel(s)                               : 6 channels4 G- A- A0 U5 A, p, G" Y2 s
Channel layout                           : C L R Ls Rs LFE
2 f; w3 _1 P( G, `* P4 ~8 jSampling rate                            : 48.0 kHz7 V$ d- F6 J4 [9 u
Frame rate                               : 93.750 FPS (512 SPF)
$ Y! X4 P; q; i% p' OBit depth                                : 16 bits% E7 y3 x4 R  r- G/ h
Compression mode                         : Lossless
/ k" {; E" `! j- v  G0 E1 l1 `$ RStream size                              : 1.74 GiB (10%)) R( b7 A( u) I: W2 s7 a( y( d
Title                                    : The.Gangster.the.Cop.the.Devil.2019.KOREAN.1080p.BluRaycd.REMUX.AVC.DTS-HD.MA.5.1-FGT
% s* S8 n7 n: X4 pLanguage                                 : Korean
( _) [) l6 g. ]/ T5 U5 F7 ADefault                                  : Yes
# \9 `* i0 }* f2 ^/ p0 F4 }Forced                                   : No; x$ y- _/ g/ b2 w3 h8 Z9 K
6 N$ X7 T* J4 [" g4 r
Audio #2# o% K- j. |* [9 O' h$ ]$ M& ], w
ID                                       : 3
* M% J- i. _0 ?8 u( t# ^Format                                   : AC-37 c4 P/ K0 d' ~4 l9 b: |' A' H
Format/Info                              : Audio Coding 3
! i& u  J. V+ S3 B; SCommercial name                          : Dolby Digital: u' J9 ~5 {9 x* w4 y4 k
Codec ID                                 : A_AC3- a9 m6 s: d2 e  U9 |. ^
Duration                                 : 1 h 49 min
  g. b4 S" b" R3 a  YBit rate mode                            : Constant" ?. w1 Y8 P2 e$ z2 d$ t) Y
Bit rate                                 : 384 kb/s
! r2 ]6 C5 |: V! u* @) ^9 E: NChannel(s)                               : 2 channels
# P2 }" o, t$ J) H$ WChannel layout                           : L R
& r; W5 U& R9 j+ TSampling rate                            : 48.0 kHz
( \( O1 x& p, wFrame rate                               : 31.250 FPS (1536 SPF)
" k  ]+ s9 d4 s4 c4 C+ d. ~7 LBit depth                                : 16 bits
! X) b# O' X4 J' sCompression mode                         : Lossy& `2 Q9 G* r# a0 D+ `& P
Stream size                              : 302 MiB (2%)& a" r! c1 w1 D0 A3 Y7 P
Title                                    : The.Gangster.the.Cop.the.Devil.2019.KOREAN.1080p.BluRaycd.REMUX.AVC.DTS-HD.MA.5.1-FGT  e9 K/ V& N3 f
Language                                 : Korean* g# H+ F6 l2 u7 X* R, C* L/ i
Service kind                             : Complete Main
& y7 \2 N/ h$ FDefault                                  : No
- R) \% Y$ Y* ^" x4 e1 o# T% G8 {Forced                                   : No: R% I4 m2 {& x3 G  n# x" G9 U9 r0 @

) U0 z) `: q4 [Text #1
0 O7 z, }: ~% q  A& rID                                       : 4, [* [7 C! Z: T/ f* }5 a
Format                                   : UTF-8& u& N! ^" w* a9 z( M  K* A
Codec ID                                 : S_TEXT/UTF8
, {7 W$ p+ E, fCodec ID/Info                            : UTF-8 Plain Text
! H3 R+ t- t6 o4 Y& JDuration                                 : 1 h 44 min: r, ^0 Q- _6 K- i0 Q$ F
Bit rate                                 : 52 b/s% R6 V( P. @/ |" T
Count of elements                        : 1323
- E2 X! G5 y8 B8 E' }$ j: iStream size                              : 40.4 KiB (0%)$ g5 u7 T; U/ R; b! {
Title                                    : English-SRT! U) ^! i; ~& I$ u; S
Language                                 : English
# B+ n, r. ]# b* G# _% IDefault                                  : Yes7 H# ^7 e, N6 i
Forced                                   : No% c6 h7 Q! X" o- \
) t8 n& L. o" M8 k3 F1 w& d' ]
Text #2
% R* V( ?5 T' C. X" KID                                       : 5
* j) Z! G! H2 ?! E1 N+ PFormat                                   : PGS; X/ J2 `% Q1 ^$ B/ O3 G% [
Muxing mode                              : zlib
  ~% ?4 U) N, v9 E6 c; dCodec ID                                 : S_HDMV/PGS
/ m6 o  i) x# w9 N. D' H( vCodec ID/Info                            : Picture based subtitle format used on BDs/HD-DVDs
4 d" s3 E  I5 t3 w: P; [0 O& uDuration                                 : 1 h 44 min( R  u; C- \, m$ X
Bit rate                                 : 34.1 kb/s! ^# p: T0 l7 R) G  A& w( `7 h
Count of elements                        : 26522 M# L7 c7 p5 I* @+ |" v
Stream size                              : 25.6 MiB (0%)& I. M5 a: d9 n9 k7 W+ O
Title                                    : English-PGS+ F# g! w0 y, ]7 F, r
Language                                 : English# [2 L$ `6 ~( A/ [$ M: A' m3 R. z) P
Default                                  : No0 r/ E6 H1 G7 D9 }. p, T
Forced                                   : No9 W4 h" d9 Q3 v4 M" h$ ]& k/ N  c

+ \3 A6 ~8 m3 ^: gMenu
6 [. w# C. Q5 [* A: v: G00:00:00.000                             : en:Chapter 01
- a1 v7 _. n! a8 e8 S- @00:09:32.875                             : en:Chapter 02
! l+ k7 [8 T) f3 f+ r4 |% `* g$ I00:18:25.750                             : en:Chapter 03  M3 j9 R3 ^# ]/ \1 |
00:26:37.458                             : en:Chapter 040 I4 V4 D1 V9 p, i3 J, w
00:37:36.625                             : en:Chapter 05$ [+ U2 u6 \2 I; ^0 w! m
00:47:04.458                             : en:Chapter 064 P& |( g8 p! \! P  A* ~2 v
01:01:17.083                             : en:Chapter 07$ V/ {4 M6 f) Z( Q7 m0 N
01:11:17.125                             : en:Chapter 082 V5 s2 R, D2 Q. G; |! R/ P  n
01:20:57.583                             : en:Chapter 09
# v: [9 m# U. r9 W  z# T2 g6 m01:32:52.833                             : en:Chapter 10# W7 o6 k  E( q& ]8 D
01:45:46.500                             : en:Chapter 11, m& S2 j/ k) M( ]
01:49:53.916                             : en:Chapter 12
The Gangster, the Cop, the Devil Blu-ray, Video Quality   
4 R, R& U) P3 Y' F' e' O6 L
' i& J5 z1 k6 J3 ]
$ S0 H1 Y1 u" L/ z( p; WThe Gangster, The Cop, The Devil is presented on Blu-ray courtesy of Well Go USA with an AVC encoded 1080p transfer in 2.39:1. There's very little technical data online that I could find (the film's cinematographer Park Se-Seung isn't even credited on the IMDb), but a French site detailing some of the out of competition offerings at Cannes (which this film was) suggests Arri Alexas were used to digitally capture the imagery, and as usual I'm assuming everything was finished at a 2K DI. This is a rather sumptuous looking transfer, considering its down and dirty characters and some of its less than seemly plot mechanics. Some of the cityscapes are bathed in really alluring teal and purple hues that kind of reminded me of the John Wick franchise, and there are other moments that have been graded alternately toward almost sickly green-yellows, and some cooler blues as well. Despite these wide variances in general frame color, detail levels remain strong throughout the presentation. A number of skewed framings tend to place faces and bodies at odd angles, and often not even entirely within the frame, but in close-ups, fine detail is often excellent, offering precise looks at some gruesome injuries and the fineries of fabrics on costumes and other elements like furniture. Some quick editing and generally peripatetic camera moves can give the impression of softness in some of the action set pieces, simply because nothing is stationary within any given frame, and even the frame itself is often in motion.
+ p. G3 k$ Q+ [% @. R- I: O
5 k- Y$ F8 b8 iThe Gangster, the Cop, the Devil Blu-ray, Audio Quality   1 l. c9 R  J$ s/ r3 X  V' |* P
2 }! C; }6 U  E2 H
$ e# Y& @/ A" K8 w9 m5 e7 O
The Gangster, The Cop, The Devil features a nicely boisterous DTS-HD Master Audio 5.1 track in the original Korean (a Dolby Digital 2.0 track is also offered, as tends to be the case with Well Go USA Blu-ray releases). Surround activity is quite noticeable throughout this presentation, aided by a number of outdoor scenes where ambient environmental sounds dot the side and rear channels. But things really burst into impressive life in some of the hand to hand combat scenes, where bone crunching and other sounds of impact surround the listener with some lifelike (if appropriately goofy at times) sound effects. Dialogue is always rendered cleanly and clearly throughout, and a propulsive score by Jo Yeong-wook also sounds clear and full bodied throughout.
5 x) a8 O: N* O3 n  g; Q/ }
游客,查看本帖隐藏内容请回复 | 加入VIP贵宾可免积分免回复 了解详情 | 还不是会员:点击获取邀请码 Invitation Code

76

主题

3394

帖子

1万

积分

Sponsor

金币
1710 枚
体力
4854 点
lanpanshuma 发表于 2021-9-22 10:10:05 | 显示全部楼层
哥顶的不是帖子,是孤独!2 l0 ^/ O2 @/ X
要想蓝光电影论坛发展好,资源多,就靠你我他!To the development of Blu-ray movies forum, resources and more depend on you and me!
1 G' M1 D$ P% f0 m+ ~3 s* d- X5 n+ @

283

主题

578

帖子

3414

积分

Sponsor

金币
597 枚
体力
1618 点
zhangwenbin 发表于 2021-9-25 08:02:58 | 显示全部楼层
恶人传/极恶对决 [REMUX无损版] The Gangster the Cop the Devil 2019 KOREAN 1080p BluRaycd REMUX AVC DTS-HD MA 5.1-FGT 16.77GB
" {# e: m$ c+ p( V/ hhttps://forum.bluraycd.com/thread-51196-1-1.html
8 I# f1 j  _3 b/ e1 Q: g4 b$ E(出处: BluRayCD Forum)- [/ c+ R# L" N" T9 O! O7 _9 R, D
蓝光论坛里

0

主题

459

帖子

1904

积分

Sponsor

金币
35 枚
体力
992 点
luyife 发表于 2021-9-26 11:43:34 | 显示全部楼层
谢谢楼主的分享

0

主题

328

帖子

1306

积分

Sponsor

金币
67 枚
体力
576 点
sebarstean 发表于 2021-9-26 18:45:48 | 显示全部楼层
啥也不说了,楼主就是给力!2 e8 n4 r% y  O2 e/ u. r
Bluraycd.com movie updates really fast, also did not release issued, whether you believe it or not, anyway, I believed!

0

主题

101

帖子

863

积分

Sponsor

金币
434 枚
体力
227 点
defend 发表于 2021-9-26 22:13:39 | 显示全部楼层
很好的资源!谢谢!

0

主题

24

帖子

231

积分

Sponsor

金币
110 枚
体力
71 点
kccylhh 发表于 2021-9-29 00:24:03 | 显示全部楼层
超棒的片子,谢谢楼主分享精彩片子

0

主题

193

帖子

913

积分

Sponsor

金币
168 枚
体力
330 点
lfvvzc 发表于 2021-10-12 22:17:21 | 显示全部楼层
其实我一直觉得楼主的品味不错!呵呵!
# J/ m; R3 ~  d% Z+ yThank you for sharing such a good resource polite reply, very sorry for myself!
1 V5 |4 z, `. h' I6 y

0

主题

47

帖子

315

积分

Sponsor

金币
66 枚
体力
145 点
mofokun 发表于 前天 12:36 | 显示全部楼层
每天都来蓝光论坛看看,我爱蓝光电影。1 t9 A& d0 Z& e# u" |* ~
In fact, I have always felt that the landlord of good taste! Ha ha!5 e( H: C  a9 K

本版积分规则

小黑屋|Archiver|蓝光电影资源网

GMT+8, 2021-10-21 23:35

Copyright © 2001-2022, Tencent Cloud.

快速回复 返回顶部 返回列表