BluRayCD Forum

 找回密码
 立即注册【分享大片】
查看: 88|回复: 5
收起左侧

[2160P极清] 门徒/复仇杀姬 [4K高清版] The Protege 2021 2160p WEB-DL x265 10bit HDR & SDR DDP5.1 Atmos-NOGRP 11.45GB & 16.11GB

[复制链接]

7010

主题

7389

帖子

7万

积分

Post Share

金币
17296 枚
体力
13703 点

卓越贡献勋章

mvods 发表于 2021-9-23 08:00:05 | 显示全部楼层 |阅读模式
01.jpg + {! v- @/ B% u2 y

8 V& y, W' \6 O& ~: L5 [/ T◎译  名 门徒/复仇杀姬(港)/有价之人/资产: z1 K& P/ K5 K/ X
◎片  名 The Protégé / The Protege / The Asset
' n6 ?$ }5 ?% @1 e7 D. e! O8 t' A5 K◎年  代 2021
) d6 R6 N* k5 L- a◎产  地 美国; S! A8 G  |* _' ~) _4 b
◎类  别 动作/惊悚/犯罪1 l2 D$ d' H/ [4 P
◎语  言 英语. g3 N5 C4 e; B
◎上映日期 2021-08-20(美国)
+ y9 s, r+ `$ G◎IMDb评分  6.1/10 from 10,717 users' X' v. ]" x& E2 w5 D+ {
◎IMDb链接  https://www.imdb.com/title/tt6079772/
! m0 j; i7 M: L◎豆瓣评分 5.7/10 from 2,816 users
: x. r: r8 f! k" F! T  _' x, z0 J◎豆瓣链接 https://movie.douban.com/subject/34881663/
8 l1 q# T8 w  D◎片  长 1 h 48 min  q1 [1 g$ ^" G2 Y" ]
◎导  演 马丁·坎贝尔 Martin Campbell
5 k- y% t, S% W9 c2 c◎编  剧 理查德·温克 Richard Wenk  P0 Y3 T5 a! j% p
◎主  演 李美琪 Maggie Q
! q3 _" R* F: y% h4 r) W       迈克尔·基顿 Michael Keaton
$ `8 {+ Z9 c( Y, M4 T       塞缪尔·杰克逊 Samuel L. Jackson
, G+ b+ v# C7 n       大卫·瑞托 David Rintoul
" W/ h% N8 n7 t4 j0 X4 F: J       帕特里克·麦拉海德 Patrick Malahide
: T8 y+ l: o  E+ ^: E       雷·费隆 Ray Fearon) N6 Z2 V' @5 u  [, d7 f* R* P1 N
       奥利·普费弗 Ori Pfeffer
+ b0 z8 @; x7 m- v# S       罗伯特·帕特里克 Robert Patrick8 d0 e# O4 x# a9 A. w0 s
       小弗洛林·皮尔斯齐 Florin Piersic Jr.
; s$ o/ _+ J+ Q  f' T' D, M, y# o       杜铎·奇里拉 Tudor Chirila
' C' E( e/ @  l# ~: N       沃利扎·比尼夫 Velizar Binev
9 }$ Y  M# s" j: q       乔治·皮斯特拉努 George Pistereanu  a. z2 W7 E  E
       伊娃·努金·索森 Eva Nugyen Thorsen8 I, x. ?1 T5 w% s# C8 K7 [
       亚历克斯·博尔达 Alex Bordea/ |1 y) i4 e) x6 T( ?) h& k
       塔尼娅·凯勒 Tanja Keller
4 P9 @3 z0 F; c0 `  A) O, ^       塔伊·阿特沃尔 Taj Atwal1 S" y6 y' n6 e7 S. H
       卡罗琳·朗奎 Caroline Loncq) z/ W* U4 ?& B
       丽琪达·卡里 Richenda Carey
3 \' K$ X0 }! k, H       大卫·斯特恩 David Sterne
7 K+ E) Y2 C) T. C6 R$ T; S* j       杰克·德格斯 Jack Derges
; K) q0 [$ j0 r       唐·迈克尔·保罗 Don Michael Paul
# P9 @6 w; F* I& `8 l7 T" l
) B9 B" X( H9 |3 G9 j) t◎标  签 动作 | 美国 | 杀手 | 犯罪 | 2021 | 女性 | 惊悚 | 剧情1 Q. F# J/ p1 N* e4 t
: c; L4 p/ Q/ a, X
◎简  介   . q. Y) I7 E* ?
) X( k) P: F0 `* u/ E# _/ G/ M1 W- |
  故事围绕伦勃朗(基顿饰)和安娜(李美琪饰)展开,这两个世界上最顶级的杀手将揭露一段发生在越南的神秘往事。多年来,他们游遍全球来互相争夺最抢手的合同。但当安娜的导师穆迪(杰克逊饰)被谋杀时,她和伦勃朗必须结盟,返回越南追捕凶手。
& I' ^+ W1 C$ n7 l* r' |- @" v( v. n0 _) W+ q$ Z! F  z
  Rescued as a child by the legendary assassin Moody, Anna is the world's most skilled contract killer. However, when Moody is brutally killed, she vows revenge for the man who taught her everything she knows.
. S( A1 B4 y( B7 m! p1 G2 _) Q( @5 @9 q) m* {$ S8 L$ d, v
Video
% Z: ?. }/ }' H; s9 |* FID                                       : 1
# C, `8 \; C( r2 mFormat                                   : HEVC/ K, w; t- @0 q" k/ V, R, q
Format/Info                              : High Efficiency Video Coding
( ?  _* X2 {6 S! hFormat profile                           : Main [email protected]@High
# b9 d7 d6 F2 m: h4 DCodec ID                                 : V_MPEGH/ISO/HEVC) w$ e: |2 ?6 ~
Duration                                 : 1 h 48 min" e% f  Z1 Z9 l3 _% Y7 M7 B7 o
Bit rate                                 : 20.4 Mb/s
+ H3 [8 `" d. i: k) xWidth                                    : 3 832 pixels1 k& X/ q  ~1 M
Height                                   : 1 600 pixels
# _& y6 n& H0 u  W6 r4 d) ADisplay aspect ratio                     : 2.40:13 [) |3 t5 J: Q' _4 C# r. u  W, J8 ~& \
Frame rate mode                          : Constant9 f* Y' ^+ F' M/ H, |
Frame rate                               : 23.976 FPS
, r9 f+ I# n8 |1 MColor space                              : YUV8 i) [! X1 a3 b/ Q# \
Chroma subsampling                       : 4:2:0
3 q1 T; `( Z6 ?, `. qBit depth                                : 10 bits  [, A6 o9 z- |& e, j" f
Bits/(Pixel*Frame)                       : 0.1393 l2 Z/ ]2 t3 g2 H+ A6 F, b/ ^) p
Stream size                              : 15.5 GiB (96%)
: t- Q. i/ t( d( @8 B5 WDefault                                  : Yes. l8 u% E$ R. [
Forced                                   : No: o& K3 N, z7 [( j9 M( x
Color range                              : Limited
. o& F8 M; [$ }2 I8 P$ \Color primaries                          : BT.709: @+ a9 ?5 L; h3 k! Q. J9 x8 {
Transfer characteristics                 : BT.709; V2 b- v  o  F* u( u  B
Matrix coefficients                      : BT.709
! \/ k& {+ K1 V. z0 {3 `1 l7 g: [3 _$ o, ?% T# r  h
Audio" \6 D! i2 A  R& m9 e1 r% }9 d
ID                                       : 2
2 E7 g8 F7 c0 s! a4 T" e" L& MFormat                                   : E-AC-3 JOC
3 n0 C# [+ U' {+ E* SFormat/Info                              : Enhanced AC-3 with Joint Object Coding
' V7 _+ q5 x* }3 @Commercial name                          : Dolby Digital Plus with Dolby Atmos5 ~8 b2 o1 i& M
Codec ID                                 : A_EAC30 m" \$ `$ W: n; h
Duration                                 : 1 h 48 min* \3 u# \6 J; ]7 F  [% b8 Z- g) h
Bit rate mode                            : Constant4 u% K4 d1 h) N# X: v
Bit rate                                 : 768 kb/s- A# p* M9 s$ |6 o. m8 O# F. G) Y
Channel(s)                               : 6 channels
; f2 r0 U4 i. W2 H- o, b9 lChannel layout                           : L R C LFE Ls Rs' d* l: U. E4 E% F* e& U' H. A
Sampling rate                            : 48.0 kHz3 S5 D8 A8 j! V  O5 Z
Frame rate                               : 31.250 FPS (1536 SPF)
& c8 O, [( h5 O6 z. v2 h4 tCompression mode                         : Lossy
, _2 X4 Z+ l' uStream size                              : 598 MiB (4%)
! @$ y% V* J6 u: D5 d& J9 a$ a7 ?Title                                    : English( q) u/ u% j( ]7 U9 \
Language                                 : English3 c7 e3 B* t2 Q
Service kind                             : Complete Main
& E* P  t6 ~* L( ~( eDefault                                  : No
9 w, l& I% P, b; s" i# `# v* q" sForced                                   : No" x7 Z4 ^, w7 G& V
Complexity index                         : 16
4 O# S- M1 j3 q& r3 WNumber of dynamic objects                : 15; r/ m/ D6 ^' l. h
Bed channel count                        : 1 channel$ [# u% g" r# s' R4 |, {
Bed channel configuration                : LFE
. D! v1 }. B6 O8 z( N  s
5 w1 ?1 e3 a7 AText #1
3 x+ H, E  G9 ]/ ^5 W$ _ID                                       : 3
/ O* j0 n5 R% w3 ^3 D( WFormat                                   : UTF-8$ ^8 d9 Z& f( P
Codec ID                                 : S_TEXT/UTF81 L5 V. r* ?. {* ?7 {# W! m( M
Codec ID/Info                            : UTF-8 Plain Text
$ ~! ~$ ~- y( DDuration                                 : 2 min 59 s
0 r1 F. {1 q+ U/ }2 w; BBit rate                                 : 29 b/s
3 b1 q1 v: d8 @6 g7 k( yCount of elements                        : 30
; c3 A+ V0 c* u3 r8 FStream size                              : 658 Bytes (0%)
  ?2 L3 P4 A4 ^4 ^" {4 bTitle                                    : FORCED
) T  v/ r9 i5 M7 P: qLanguage                                 : English
9 a3 B' q6 h4 M- C; K0 a" oDefault                                  : Yes
& F# ~' t6 z8 A5 d0 gForced                                   : Yes* v' `$ w/ d" y! o" N- C

$ y& s3 B% X: U" S8 XText #20 [/ B( J9 p7 o* r; w) C: A# V, ^; F3 \
ID                                       : 4
/ ?0 \8 `+ z" G6 t' n. w5 QFormat                                   : UTF-87 C% S1 S& h$ A; q6 t% F2 H0 J- m
Codec ID                                 : S_TEXT/UTF8, G. o8 `  v9 ?: U
Codec ID/Info                            : UTF-8 Plain Text
+ @& B9 D7 f' r( E% A- sDuration                                 : 1 h 37 min. N  W3 o, L- G/ H2 S% k* ~
Bit rate                                 : 36 b/s4 j7 Y2 l2 I9 `
Count of elements                        : 784/ k. a0 t/ J4 Y8 M) [$ P8 V/ Z
Stream size                              : 25.7 KiB (0%)
4 q4 @' O9 C/ A5 d5 SLanguage                                 : English
  X; c. T: A6 tDefault                                  : No, s! G: k, {* Q) r, y- M! [
Forced                                   : No
6 \$ I/ Q9 q. Y  X, t# d7 x
游客,查看本帖隐藏内容请回复 | 加入VIP贵宾可免积分免回复 了解详情 | 还不是会员:点击获取邀请码 Invitation Code

4

主题

1206

帖子

3786

积分

Sponsor

金币
0 枚
体力
1377 点
QQ
davidqin 发表于 2021-9-25 09:13:35 | 显示全部楼层
每天都来蓝光论坛看看,我爱蓝光电影。
! l3 Y* j5 t$ R3 c8 FYour resources, well, I am very satisfied!7 A! {  w4 m/ e% i

0

主题

328

帖子

1306

积分

Sponsor

金币
67 枚
体力
576 点
sebarstean 发表于 2021-9-25 21:00:03 | 显示全部楼层
每天都来蓝光论坛看看,我爱蓝光电影。9 P" `1 C: b! w4 P  F/ F4 E
In fact, I have always felt that the landlord of good taste! Ha ha!
% W# i5 t/ w) r& _, x, p

0

主题

133

帖子

689

积分

Sponsor

金币
126 枚
体力
280 点
QQ
fangfang789 发表于 2021-9-26 10:33:15 | 显示全部楼层
这么好的帖子不回对不起自己!
2 T( g9 Z7 E. H1 ^& iAfter reading the posts have nothing to do I Amoy posts!6 A2 q6 z" U& J

0

主题

30

帖子

229

积分

Sponsor

金币
86 枚
体力
76 点
xaland 发表于 2021-9-27 22:29:49 | 显示全部楼层
评价一般,但是想看看

0

主题

44

帖子

332

积分

Sponsor

金币
75 枚
体力
158 点
xingfu 发表于 4 天前 | 显示全部楼层
Bluraycd又有新电影发布了,激动中……!
5 J0 p$ D) e" U2 c1 ?祝愿蓝光社区越办越好!I wish Blu-ray communities better and better!, y0 q& j3 F$ L1 S+ |

本版积分规则

小黑屋|Archiver|蓝光电影资源网

GMT+8, 2021-10-21 22:56

Copyright © 2001-2022, Tencent Cloud.

快速回复 返回顶部 返回列表