BluRayCD Forum

 找回密码
 立即注册【分享大片】
查看: 32|回复: 0
收起左侧

[剧情悬疑] 壁花 Wallflower 2019 1080p AMZN WEBRip DDP2.0 x264-QOQ 2.67GB

[复制链接]

9642

主题

1万

帖子

9万

积分

Super moderators

金币
837 枚
体力
46036 点

最高荣誉勋章

24xs 发表于 2021-10-11 04:12:08 | 显示全部楼层 |阅读模式
+ Z$ G8 y/ |" Z2 w% X

8 O+ B- O& k& Q$ f) Y+ u◎译  名 壁花
$ F) |% d& g' s7 N◎片  名 Wallflower
( L4 Q' C/ u* q1 ]2 q- Z◎年  代 2017( U! |! z7 ^$ h0 ]  ?
◎产  地 美国5 H$ q% z, |! U! T: E1 k2 {9 l4 h
◎类  别 剧情/音乐/犯罪8 q% U' `* b' \( D
◎语  言 英语: c, h. v# d7 d+ T7 Z. ^
◎上映日期 2019-10-04(美国)
+ x! R2 R) o! R3 Y0 Y! V◎IMDb评分  6.2/10 from 79 users
9 i7 i# d! i9 W0 ~0 e◎IMDb链接  https://www.imdb.com/title/tt6983908/
) G- M$ t% D+ j& k◎豆瓣评分 0/10 from 0 users
" p6 g4 ^+ p3 n$ O" \. }◎豆瓣链接 https://movie.douban.com/subject/34843498/
9 w! @& ~0 v$ W6 H◎片  长 1 h 23 min: D. Y9 j3 e/ |) @  T& E0 e
◎导  演 Jagger Gravning
: m6 n) w3 l6 x6 c5 {0 A5 [◎编  剧 Jagger Gravning / John W. Comerford
# |" i; V8 H7 \, b( ?, r/ Z' A◎主  演 大卫·卡尔 David Call
8 M) G4 P3 i3 `2 l' {7 N, m8 q; V       冈冢敦子 Atsuko Okatsuka2 J! i+ x( B% c- F% e9 b/ w
       康纳·马克思 Conner Marx
- }( W; k3 r* o! X. T       Hannah Horton
& n% Y! \6 n" d       Cequoia Johnson7 X) v0 A, u9 t8 T( p
       Hassan Cristos Messiah' ?. i  q+ J- l; Y

5 e$ Y9 N' g# ?8 ^◎简  介   . ~  X- y" F! ~; v9 e

$ q  G  M. M# s" |& O  根据西雅图国会山大屠杀的不为人知的故事改编而成。一名计划实施大规模枪击的男子被一群古怪的狂欢者交上了朋友,他发现自己对自己的意图感到矛盾。3 _# m8 V6 K+ [1 X- D5 Z

/ z* M7 L& b( g) {( d  c' ~, P  Based on the untold story of Seattle's Capitol Hill Massacre. A man planning to commit a mass shooting is befriended by an eccentric group of ravers and finds himself conflicted about his intentions.8 M  u: M; V# T1 I9 t5 w# A
Video
$ S: z. F' W6 `$ ?ID                                       : 1
+ Y5 R9 E+ ^7 S8 uFormat                                   : AVC
1 |2 l% Y# U; ~2 W/ p4 aFormat/Info                              : Advanced Video Codec
2 C5 R. _( w0 m& W9 e3 C( t+ I- [Format profile                           : [email protected]
$ Z# R, N. z6 F3 BFormat settings                          : CABAC / 4 Ref Frames
5 z6 d1 _: H: X1 f4 LFormat settings, CABAC                   : Yes" o% X0 o! Q4 m5 ?* R7 G7 |- R) ~
Format settings, Reference frames        : 4 frames( g. v8 c+ C9 z6 q# }0 R& J
Codec ID                                 : V_MPEG4/ISO/AVC
$ \3 x" p1 o: d2 ~1 k# cDuration                                 : 1 h 23 min
  y6 k) J' v* _1 L( b- x6 x- eBit rate mode                            : Constant9 [! p, `' }' A; R3 {
Bit rate                                 : 4 348 kb/s7 c! a  q, S. @' t2 E
Nominal bit rate                         : 10 000 kb/s6 L( S: Y  k5 R6 ~  s% n
Width                                    : 1 920 pixels5 h1 x6 n% J# a
Height                                   : 800 pixels
; C/ T, |& }, {8 h5 i9 }Display aspect ratio                     : 2.40:1
  h' X# z5 ~5 AFrame rate mode                          : Constant! q  ]. k7 a5 p* h
Frame rate                               : 23.976 (24000/1001/189150) FPS! l7 U! Q' w4 t; B* T: _
Color space                              : YUV
; c) Y+ q) \( f+ E! r) b# ZChroma subsampling                       : 4:2:0
' M  t3 S9 _2 M) P2 r! ?% OBit depth                                : 8 bits$ k) R; u, J6 D: @5 _4 K5 p
Scan type                                : Progressive
- W! S7 J- s1 x3 p& ~0 k- xBits/(Pixel*Frame)                       : 0.1186 Q3 {6 f8 s5 D! n2 m# S6 s' j
Stream size                              : 2.54 GiB (95%)$ \# [3 |' O  q" Z2 ~  i9 |
Default                                  : Yes4 K, h7 Q. T* B! G1 x2 ?2 h% A
Forced                                   : No
; M- G) t; e9 ^* ^- _% YColor range                              : Limited1 G8 s! q& x9 {1 m: z
Color primaries                          : BT.709/ i+ |. g! P+ Q% ~2 l+ k# ?
Transfer characteristics                 : BT.709) t( `: ~' v" M2 u# s3 r
Matrix coefficients                      : BT.709
* d6 I7 O/ V) d* m+ W0 o* S4 T( w1 [* U; R2 u1 H& s
Audio' M3 Q7 a7 a; |
ID                                       : 2
1 M4 u* ]. y* j# p7 `Format                                   : E-AC-35 p3 W) @% U: k* D- d# P6 a
Format/Info                              : Enhanced AC-33 W# B9 X7 p3 G9 h0 a
Commercial name                          : Dolby Digital Plus
+ K& M6 ~7 v3 V/ Y/ P1 bCodec ID                                 : A_EAC3
5 r# G8 g+ y. FDuration                                 : 1 h 23 min
7 b- M; N2 ]3 G- X2 fBit rate mode                            : Constant; e" m2 i6 F4 y
Bit rate                                 : 224 kb/s* Y1 N" R* {: n6 {2 }2 h2 ~& P, L
Channel(s)                               : 2 channels; Z+ A- f5 r4 D
Channel layout                           : L R( g9 W$ _: m9 h  p2 v* L1 ~
Sampling rate                            : 48.0 kHz
0 H8 n4 B4 q0 }# A9 P2 a7 q' MFrame rate                               : 31.250 FPS (1536 SPF)  Z% a0 V7 X, Y- n! R) b
Compression mode                         : Lossy
8 T- h# W! w  d8 P) S- uStream size                              : 134 MiB (5%): s. _9 u3 G+ G% c- T5 Q% O: M! w
Language                                 : English8 B1 n/ O  X( G$ c
Service kind                             : Complete Main) I# W% {) o6 z& m
Default                                  : Yes: F! v, F+ J$ t$ J3 E9 p& X
Forced                                   : No
1 C6 D0 ]# Z* h" r( h* k( O1 M" O7 e% f* n
Text #1
. Y9 [: M, e  l4 O3 _ID                                       : 3) B% B- a* H0 H( w% M
Format                                   : UTF-8$ k; Z: l5 W% ~: a8 a, X! ?3 V
Codec ID                                 : S_TEXT/UTF8
7 b$ B2 I6 l5 Y4 ?( CCodec ID/Info                            : UTF-8 Plain Text  I$ Z* v7 v# ^# h3 q# S! m! d
Duration                                 : 1 h 19 min3 [/ K! r* H4 U2 c5 J
Bit rate                                 : 49 b/s
5 }& k. K& Y) w" Z( |3 M6 d' `3 Q) H7 _' JCount of elements                        : 956  @$ k6 }. v! G! U, f
Stream size                              : 28.7 KiB (0%): R) w/ S8 k# U% d8 T4 u# W
Language                                 : English/ {: A3 z8 |% X- y* ]1 \
Default                                  : No2 b' a' u: }7 j, N
Forced                                   : No
6 X9 `; h& E3 Q% Q/ ]
3 }7 G# T6 W3 [  [1 B& ^+ z  ^  }" dText #2/ V; }: y  y1 f3 D% ^" O4 V
ID                                       : 4" ^6 }1 `8 n9 j
Format                                   : UTF-8
! X; m; r+ N! wCodec ID                                 : S_TEXT/UTF8+ `: w  ~: W( D& l' M6 N
Codec ID/Info                            : UTF-8 Plain Text# [( x1 s5 G# h5 p
Duration                                 : 1 h 20 min$ D# x$ \' M: _3 j! W* \% @
Bit rate                                 : 53 b/s
5 b/ [' o3 A/ Y& T& {Count of elements                        : 10692 \) Q4 L( y* w5 H' y
Stream size                              : 31.3 KiB (0%)3 p4 V% ]# t' r2 {
Title                                    : SDH
- s+ x4 n3 I/ BLanguage                                 : English+ L. T) ?$ O' G' i
Default                                  : No
' Z3 j0 T! ^( {Forced                                   : No
" @7 J3 a0 R6 a& L
游客,查看本帖隐藏内容请回复 | 加入VIP可免积分免回复 了解详情 | 还不是会员:点击获取邀请码 Invitation Code

本版积分规则

小黑屋|Archiver|蓝光电影资源网

GMT+8, 2022-8-10 00:26

Copyright © Tencent Cloud.

快速回复 返回顶部 返回列表