BluRayCD Forum

 找回密码
 立即注册【分享大片】
查看: 21|回复: 1
收起左侧

[经典影片] 夜深血红/喋血猎杀/深夜止步/深红 [导剪重制版] Deep Red 1975 REMASTERED DC 1080p BluRaycd x264-PSYCHD 14.21GB & 8.61GB

[复制链接]

7010

主题

7389

帖子

7万

积分

Post Share

金币
17296 枚
体力
13703 点

卓越贡献勋章

mvods 发表于 7 天前 | 显示全部楼层 |阅读模式
; K8 p+ ^0 j% }5 y
' e' m4 z1 r) y
◎译  名 夜深血红/喋血猎杀/深夜止步(台)/深红
9 p! e/ H, l9 U5 k3 `0 y) d◎片  名 Profondo rosso / Deep Red
: d7 K6 C- P( I- k, H& A6 w◎年  代 19751 U5 S) p! p: Z& t/ O
◎产  地 意大利- A3 a6 a4 z$ x3 u$ g2 h* o. s
◎类  别 悬疑/恐怖/犯罪
& q+ G/ K# a# t◎语  言 意大利语/德语/英语
4 H7 A( m- q% l: @( ^1 N◎上映日期 1975-03-07(意大利)3 \/ b, r8 B% i* K/ m
◎IMDb评分  7.6/10 from 35,574 users
: @' ~" U5 w- m& D& B( o4 m◎IMDb链接  https://www.imdb.com/title/tt0073582/
6 d( w/ z' o, \◎豆瓣评分 7.7/10 from 4,201 users8 g, a, _1 Q, _, x
◎豆瓣链接 https://movie.douban.com/subject/1299898/% |% h' B& j- g( M" U; f& h2 C# x
◎片  长 2 h 7 min
$ A' Q, E& p: v5 {◎导  演 达里奥·阿基多 Dario Argento6 k& m' h7 b; m! |- V( l( _
◎编  剧 贝纳迪诺·扎波尼 Bernardino Zapponi & ]) t7 {! c7 p& N# e& N8 U
       达里奥·阿基多 Dario Argento; X" v$ L3 z- R; W$ _
◎主  演 戴维·海明斯 David Hemmings
3 W$ z$ a2 ?; Z1 k: {/ \       达里亚·尼科洛迪 Daria Nicolodi" c( J+ L  r- s8 [0 L" M) d
       加布里埃莱·拉维亚 Gabriele Lavia
* ~7 Z. U& X2 m8 E: I       克拉拉·卡拉马伊 Clara Calamai
% l3 D; Z  Y2 E# H4 Y& Q5 x       Geraldine Hooper Geraldine Hooper8 I0 W' O0 r' l2 U
       达里奥·阿基多 Dario Argento- F5 _- h3 T% m+ b
       Piero Mazzinghi Piero Mazzinghi* E  B# K# G( \5 E
       格劳科·毛里 Glauco Mauri
) \9 g) ?# M; q. Y  ~' q* X/ y       Liana Del Balzo Liana Del Balzo3 s( O- F1 l, h9 L( r
       爱洛斯·帕尼 Eros Pagni
# d/ u% k6 a+ p1 _6 C       朱丽娅娜·盖兰德拉 Giuliana Calandra
* `5 P, U# V+ s       约翰·卡普洛斯 John Kapelos! Y) C$ D3 g! ^
       史蒂文·威廉姆斯 Steven Williams
- m2 C3 f5 g( Y' y       迈克尔·比恩 Michael Biehn: y/ B& E! b+ g& y. p* o
       托宾·贝尔 Tobin Bell
& B7 l4 a% t+ O/ x/ @# D4 T: E       琳赛·霍恩 Lindsey Haun
0 U3 U& ^" S3 H       Jack Andreozzi Jack Andreozzi
8 a* X  d  N# Y+ O& k$ P4 e7 S       Chayse Dacoda Chayse Dacoda: f  e' v( g! G' q! `8 L
       Hank Cheyne Hank Cheyne
* ]* d1 g0 d7 M+ p# \2 u       约翰·德·兰西 John de Lancie6 d4 k2 h) K' _6 j4 g$ f& S
       迈克尔·德·巴雷斯 Michael Des Barres
" k# U4 M. S4 C1 ~6 t! Q" {       乔安娜·帕库拉 Joanna Pacula
) U2 k- l; J7 o4 L0 }9 L  N( ]% q' ~) ]2 w* `7 y. F
◎标  签 意大利 | 恐怖 | 惊悚 | 悬疑 | 意大利电影 | 1975 | DarioArgento | 1970s0 E3 O! O3 W( G& q" u

$ w  h9 B. K# e1 p9 d; t◎简  介   
# T) E" l' x- N" ^2 P3 n2 x, Y: W" g
* h# A, `( j. B, i7 |  意大利最伟大恐怖大师达里奥.亚金托(《阴风阵阵》)执导的经典悬疑恐怖片 。一个在罗马的英国音乐家在一本神秘的鬼怪书中读到关于他邻居如何残忍被杀的过程,他前去拜访该书的作者,发现她也成了谋杀的牺牲品。音乐家在解开谜团的过程中,经历了许多奇异而恐怖的事情。影片的形式感非常强,无论是令人心跳的摇滚乐还是恐怖气氛的营造,都十分到位。意大利的完整版比其他版本多出20多分钟,其中包含了更多的血腥暴力场面。
( N/ ~- ]+ t2 h
0 N9 O2 X- g5 B  A jazz pianist and a wisecracking journalist are pulled into a complex web of mystery after the former witnesses the brutal murder of a psychic.
Video! _% u- |4 {7 S/ V* ~
ID                                       : 1
; ?3 B& J; Y3 q0 u, I% v3 C* mFormat                                   : AVC
7 R4 I$ J) p: U6 PFormat/Info                              : Advanced Video Codec5 |. h0 G% q) n+ K8 F
Format profile                           : [email protected]7 J1 a; T& P4 `
Format settings                          : CABAC / 5 Ref Frames
' l% i2 b, I; b0 q% i2 d# hFormat settings, CABAC                   : Yes6 O3 X+ ^' ~0 b6 w* a6 T! W
Format settings, Reference frames        : 5 frames, |+ i$ X  ^0 G' s; A. e$ k
Codec ID                                 : V_MPEG4/ISO/AVC
0 t8 n  R5 D9 G* JDuration                                 : 2 h 7 min# y$ z" |! r# ~, _7 Y
Bit rate                                 : 13.7 Mb/s+ S% X# b6 Z2 q% @
Width                                    : 1 920 pixels
# l3 G' K( w  A: E+ z' u9 KHeight                                   : 816 pixels& z/ U# ^5 G/ H  F5 O
Display aspect ratio                     : 2.35:1
7 ]+ C, ~4 V' D4 g' i; MFrame rate mode                          : Constant8 L* v  l2 O9 j; {3 i- y
Frame rate                               : 23.976 (24000/1001/189150) FPS
$ h2 N- E; k$ @/ DColor space                              : YUV4 w  r+ x. J7 V& W4 d4 T+ s
Chroma subsampling                       : 4:2:0* \% j$ z$ x3 {4 p1 o9 `! w
Bit depth                                : 8 bits; s# H6 Q7 v7 _+ @9 H- H
Scan type                                : Progressive
+ P* M! ?9 K+ |" \3 JBits/(Pixel*Frame)                       : 0.365
2 r3 \* o! w0 M2 [  V9 B5 \; XStream size                              : 12.2 GiB (86%)
5 r# Q2 p, n, @. ^- jWriting library                          : x264 core 148 r2665 a01e339
& B& R% m% q6 B% }* T% R, nEncoding settings                        : cabac=1 / ref=5 / deblock=1:-3:-3 / analyse=0x3:0x133 / me=umh / subme=10 / psy=1 / psy_rd=1.10:0.00 / mixed_ref=1 / me_range=32 / chroma_me=1 / trellis=2 / 8x8dct=1 / cqm=0 / deadzone=21,11 / fast_pskip=1 / chroma_qp_offset=-2 / threads=24 / lookahead_threads=4 / sliced_threads=0 / nr=0 / decimate=1 / interlaced=0 / bluray_compat=0 / constrained_intra=0 / bframes=8 / b_pyramid=2 / b_adapt=2 / b_bias=0 / direct=3 / weightb=1 / open_gop=0 / weightp=2 / keyint=240 / keyint_min=24 / scenecut=40 / intra_refresh=0 / rc_lookahead=60 / rc=2pass / mbtree=1 / bitrate=13710 / ratetol=1.0 / qcomp=0.60 / qpmin=0 / qpmax=69 / qpstep=4 / cplxblur=20.0 / qblur=0.5 / ip_ratio=1.40 / aq=3:0.805 L& Z+ n" X& ~$ \
Language                                 : English4 Q$ z8 `% _) ^* f9 o* M- i8 D
Default                                  : Yes, A8 N' ~) V& f  L% b" Q% B$ Y8 d0 E
Forced                                   : No3 P5 {8 b8 O3 P8 c' A1 `: B( r
  A9 W: b# k) ~% D8 N; [
Audio #1
- X, P) V+ n$ m% R3 `/ MID                                       : 2
! W0 W7 C; M1 a% B5 |Format                                   : DTS
% x4 w/ {# H( ^. y7 t0 E+ ]! wFormat/Info                              : Digital Theater Systems
! v9 I3 `2 v- u' ~$ U! x( e* WCodec ID                                 : A_DTS) c: K! O. s8 ~
Duration                                 : 2 h 7 min
' _9 Q; [5 f' H7 {7 C1 DBit rate mode                            : Constant
# p5 b" ^, z/ b, Y. \! OBit rate                                 : 1 509 kb/s' m2 d8 Z& f+ W' c+ P6 a/ F
Channel(s)                               : 6 channels
$ E2 c! j! y6 y5 c" Z. ?5 N# `Channel layout                           : C L R Ls Rs LFE
' l/ l+ f  ?& F9 q7 `Sampling rate                            : 48.0 kHz! n5 L% i1 m, X1 N  f! g
Frame rate                               : 93.750 FPS (512 SPF)6 p. C. @. ?# J& Y" \* d
Bit depth                                : 24 bits/ J; T8 M# O/ N7 w
Compression mode                         : Lossy! t/ o8 w) Z7 T/ m2 l6 ~
Stream size                              : 1.34 GiB (9%)3 [% _1 V2 K2 ?( I( d+ w# L
Language                                 : Italian/ A9 t2 \4 r* |4 D* H- w3 {3 Q
Default                                  : Yes
1 D! G3 U2 z# \  ]Forced                                   : No
2 |5 E; F3 g& A- K8 ^9 ~( S* T
0 K* W9 F! s) P% V% P4 YAudio #2
1 O7 R1 D. Q4 y& L. @! o* T2 U. HID                                       : 35 K  o3 }; ~3 [9 m( d" S- j! N
Format                                   : DTS
2 {& s1 g6 O7 M4 n8 f1 L, n2 d. dFormat/Info                              : Digital Theater Systems
9 f7 R& z' @/ E' ?! l$ C) N4 rCodec ID                                 : A_DTS
) r, `- r! w3 pDuration                                 : 2 h 7 min
/ o& T$ \/ y$ a4 r5 J: c7 E$ J( TBit rate mode                            : Constant
: A6 [/ O) F$ ~. p+ @4 pBit rate                                 : 768 kb/s
: G$ m: X, `$ U( d  _Channel(s)                               : 1 channel* j# m/ u+ O- j& A1 t
Channel layout                           : C1 H' f  \; ^, H9 n( K* `
Sampling rate                            : 48.0 kHz1 J& M) D8 O9 p# y% e* z
Frame rate                               : 93.750 FPS (512 SPF)" Y8 g# T% g9 [& a" C( L
Bit depth                                : 24 bits* k+ e  h2 l. f1 P; m
Compression mode                         : Lossy
7 J+ ]) g- n' U6 d8 k0 sStream size                              : 699 MiB (5%)
" g* \1 u- K6 t2 `) U7 }/ J+ a7 tTitle                                    : English/Italian Hybrid
9 d/ P  v0 B' RLanguage                                 : English
! j, k* t& G6 v/ MDefault                                  : No
0 O  a# q# v9 F9 [Forced                                   : No
/ b/ ^0 I# B: t- D0 P3 x
7 L4 ?: q! D/ n/ rText #19 ]2 F# P# ~( W) j
ID                                       : 4
9 g! |. n  x8 [# \# z# fFormat                                   : UTF-8
! c! k2 u% o9 Y+ }+ U9 L( NCodec ID                                 : S_TEXT/UTF8' @6 H2 _. y5 M8 a% i6 c9 |' t7 [
Codec ID/Info                            : UTF-8 Plain Text4 Z9 L1 m: A- t; z9 a' E3 ]
Duration                                 : 2 h 2 min
6 k0 a5 @# O9 C! E$ c2 j4 P1 H) I. `Bit rate                                 : 37 b/s
3 ?4 [% @2 W5 e7 w* qCount of elements                        : 901
8 N# O! V5 n0 ]! X, r, K/ n. FStream size                              : 33.6 KiB (0%)* |+ n! v/ ]8 Z/ O
Title                                    : Forced English for Italian Audio& J  x7 w2 k7 z$ E, M* S  W9 u
Language                                 : English
( W) b% |  V2 a* g# Y1 O6 mDefault                                  : Yes
5 _0 T, x' R* a  f8 B* eForced                                   : Yes7 g5 r/ b' b: n' ?) i5 l

  f( \# |' P! |. I$ ]Text #2
9 h$ n* a! p3 r7 G3 H, O+ }ID                                       : 5
0 f4 F% l  [! O/ [1 V. h# ZFormat                                   : UTF-8
7 s4 \* {& H! J. `" kCodec ID                                 : S_TEXT/UTF8! J5 Q6 x9 V  m
Codec ID/Info                            : UTF-8 Plain Text
1 @8 ?- [4 ^) i3 Z8 a; }Duration                                 : 1 h 59 min$ f! B9 z! _% u5 t7 T% |
Bit rate                                 : 11 b/s
: X# y- [7 A, aCount of elements                        : 258" A& b4 [6 G0 M) m: T8 R
Stream size                              : 10.1 KiB (0%)" `( y2 W: p& Y) j! _# Q% Q
Title                                    : English for Italian parts in Hybrid audio
) B9 E& q8 i& ~! v$ L  Y/ H4 V; sLanguage                                 : English
* d* b" {- s4 X3 MDefault                                  : No. w# e/ }+ A& b2 A0 E
Forced                                   : No8 Y, o" m! W0 }* y  \$ c
3 b  z! O2 |5 A
Text #3% c2 m: p. `0 J: ~* p# L$ C0 _
ID                                       : 6
2 g( x, H$ S( L( ]2 v, p5 XFormat                                   : UTF-8
$ w7 p- g, I2 ~: r( ]7 }Codec ID                                 : S_TEXT/UTF8; t, i+ H: O1 Y, B+ C
Codec ID/Info                            : UTF-8 Plain Text$ u- |% T8 G0 ^( Y! I% c! L; K
Duration                                 : 2 h 2 min
  r- s+ ^( l: ]' l( W1 _Bit rate                                 : 39 b/s
+ |/ O, ?8 d6 L9 X/ ^  HCount of elements                        : 972
, k& h4 B$ B4 q/ X9 C, b8 KStream size                              : 35.4 KiB (0%)
, B, i" U  x2 W4 n' A8 KTitle                                    : Full English for Hybrid audio
3 @* h( K5 C- s# D9 bLanguage                                 : English, e  C& ]  z+ B" s
Default                                  : No. K. p9 Q; L; I. S
Forced                                   : No
% G9 n) |; [( v" A, w0 B, G  d& c; N, Y- j
Text #4: |; \9 Y0 Q) h7 h# G; i
ID                                       : 7
; a( s6 j5 b5 hFormat                                   : UTF-8
- |" s/ |. s$ l  J1 MCodec ID                                 : S_TEXT/UTF8/ w  L3 n1 B3 ]
Codec ID/Info                            : UTF-8 Plain Text% ?% K9 ^- Q' j' Q$ G9 V
Duration                                 : 2 h 4 min; c7 K. V1 x6 V2 W0 o- k2 e
Bit rate                                 : 45 b/s
" n. o% N3 _( M8 p8 m9 C  [+ _, P& qCount of elements                        : 1202
  t$ k; R7 V, ?2 l  l+ OStream size                              : 42.0 KiB (0%)2 I* y: {9 A/ V8 m. t
Title                                    : English SDH for Hybrid audio
+ J/ E4 ?* Y1 l% j" [Language                                 : English
/ O& L! U6 j- l& _7 |* zDefault                                  : No+ E* S$ R* [1 |! {7 V
Forced                                   : No  B2 H: H. K+ {( Y4 c
8 e, j% J7 G! A! o4 @7 G
Menu
5 M6 Q0 O) ?, r, e8 s  p+ G! L, W( d! ~00:00:00.000                             : en:00:00:00.000
7 _* H6 T- {. F# ^6 U! g00:11:17.552                             : en:00:11:17.552( S$ S3 ?% `1 [4 U$ }. c
00:20:33.315                             : en:00:20:33.315
: J, X* B1 p1 Z00:31:45.695                             : en:00:31:45.695
" [7 g" _9 R7 K4 ?, Q; h7 a00:44:54.942                             : en:00:44:54.942! s+ R% q# P, Y: D+ ~+ M
00:53:29.081                             : en:00:53:29.081
3 s5 _, s- u! x: A, s01:01:27.309                             : en:01:01:27.309
- R& f% r' P, |) m' W, M01:13:46.547                             : en:01:13:46.547
. P/ I! Z; [2 c. ~01:26:34.564                             : en:01:26:34.564
0 Q/ i/ ]) A) w01:36:40.336                             : en:01:36:40.336
' F5 @" l( M& o; C% O7 b01:47:11.550                             : en:01:47:11.550+ d! G% e, e; z7 g* N! t7 O
01:55:25.293                             : en:01:55:25.293
Video/ ^) A1 s0 P, C& e5 Q
ID                                       : 1
0 `: L# @; V& }& eFormat                                   : AVC
+ m/ H+ p# n8 o; GFormat/Info                              : Advanced Video Codec& T& o3 F8 {. @+ q
Format profile                           : [email protected]" @5 {7 d- ?; U6 M9 M
Format settings, CABAC                   : Yes
  [7 E  i4 H4 i9 D0 x' O; tFormat settings, ReFrames                : 5 frames
- m/ L; N; }0 D; r; oCodec ID                                 : V_MPEG4/ISO/AVC- {1 \9 ], A1 k7 L! r. b0 X0 k8 x/ {
Duration                                 : 1h 44mn' h' O* n' q6 j4 G
Bit rate                                 : 11.5 Mbps
5 }3 F5 h' k+ j  _  NWidth                                    : 1 920 pixels
$ B! B3 o" J! a7 R9 K  M' U$ R; DHeight                                   : 824 pixels
  P$ C; a6 l3 |; O$ i( v" F6 v: jDisplay aspect ratio                     : 2.35:1' M8 T- P, E6 h$ W# x9 U1 P
Frame rate mode                          : Constant' G" b( q3 k" g6 G: w) N
Frame rate                               : 23.976 fps/ u2 i9 g! Z7 K+ K& f0 E
Color space                              : YUV
) n" o" W; R+ I9 m5 b' ]! S# RChroma subsampling                       : 4:2:0
: g+ q$ Z9 p+ j3 j! Q: oBit depth                                : 8 bits1 h% t3 I+ E. m% Y: Z  w( y6 ~5 [
Scan type                                : Progressive
0 H) T  h* x. [9 |+ x% H! t" TBits/(Pixel*Frame)                       : 0.3034 s1 A2 ]2 z' Q, m" U
Stream size                              : 8.25 GiB (96%)& q& {& j& R4 c0 {: r7 j* \* L: V
Writing library                          : x264 core 125 r2200 999b753
* q4 q9 c' M! s( lEncoding settings                        : cabac=1 / ref=5 / deblock=1:0:0 / analyse=0x3:0x113 / me=umh / subme=7 / psy=1 / psy_rd=1.00:0.00 / mixed_ref=1 / me_range=16 / chroma_me=1 / trellis=1 / 8x8dct=1 / cqm=0 / deadzone=21,11 / fast_pskip=0 / chroma_qp_offset=-2 / threads=6 / lookahead_threads=1 / sliced_threads=0 / nr=0 / decimate=1 / interlaced=0 / bluray_compat=0 / constrained_intra=0 / bframes=3 / b_pyramid=2 / b_adapt=1 / b_bias=0 / direct=1 / weightb=1 / open_gop=0 / weightp=2 / keyint=250 / keyint_min=23 / scenecut=40 / intra_refresh=0 / rc_lookahead=40 / rc=2pass / mbtree=1 / bitrate=11499 / ratetol=1.0 / qcomp=0.60 / qpmin=0 / qpmax=69 / qpstep=4 / cplxblur=20.0 / qblur=0.5 / ip_ratio=1.40 / aq=1:1.00
% ?1 J4 X7 Z9 V* ~Language                                 : English
: |( y5 _, Y' S: O8 H$ Y! \/ X6 mDefault                                  : Yes6 w! K2 w4 |/ _
Forced                                   : No
1 i8 {0 e- e$ m
4 |  n8 N" Z& n5 d  _3 ~7 ZAudio
" d/ {, S6 k/ g: Q- ]1 |ID                                       : 2+ k, t2 c9 T" e. D9 {. h
Format                                   : AC-3, |" j0 U) R9 w8 L+ c/ [
Format/Info                              : Audio Coding 3
' a' h  f5 E, ]) wMode extension                           : CM (complete main)2 p# W) |) `+ X" a4 x0 Q
Format settings, Endianness              : Big7 x/ [4 }* M* Q) [; m. l
Codec ID                                 : A_AC3
+ X; R6 E- ^* {3 U' ~' s- z( |Duration                                 : 1h 44mn
- `; Z7 i/ X9 e- I0 W. L9 MBit rate mode                            : Constant
6 N) G- m8 C4 ^. r6 K8 u; o* ^7 g) ]Bit rate                                 : 256 Kbps
' z, n0 }0 i% V0 S* s4 h1 T- E, JChannel(s)                               : 2 channels
4 p. Z! l+ U! a# K- C8 p$ |  nChannel positions                        : Front: L R
- J8 R/ w/ V1 |; @Sampling rate                            : 48.0 KHz+ E+ \$ I; B& @) }% g6 P7 M
Compression mode                         : Lossy. o- U: D* w  F, Q: V" x
Stream size                              : 192 MiB (2%)
' L" }; G' y1 z4 p' U$ Y! x- P3 VLanguage                                 : English
" {: m1 I+ |( X: iDefault                                  : Yes
9 t$ R8 H' j4 R; \' p; G  k* W; X' d7 KForced                                   : No0 M. q) E& r% ^& J% L

! c! r, K; ^% i' j/ q6 x& _Menu" R" a$ ?7 a  ~+ f, n8 Y; V. I
00:00:00.000                             : en:00:00:00.000
- n7 O5 y" s# u% l- r# H: Z8 U4 T00:00:00.375                             : en:00:00:00.375* y" a) ^' C$ A& f. z- [
00:03:54.860                             : en:00:03:54.860# b4 [" r- a5 g# f" R! l
00:10:46.604                             : en:00:10:46.604
' E' \0 {1 y1 q+ z& C5 u00:19:45.643                             : en:00:19:45.643
% g. E( }) K0 A1 Y5 _00:31:08.617                             : en:00:31:08.6174 F! |& G. D# j/ \. P6 @
00:48:42.711                             : en:00:48:42.711
9 O7 _9 j( \) w  M01:08:25.393                             : en:01:08:25.393* Z" R" `# r5 ]/ I3 Y4 C
01:26:26.348                             : en:01:26:26.348

4 p. l% d" f* k( `
游客,查看本帖隐藏内容请回复 | 加入VIP贵宾可免积分免回复 了解详情 | 还不是会员:点击获取邀请码 Invitation Code

0

主题

30

帖子

410

积分

Sponsor

金币
110 枚
体力
239 点
mtdfr 发表于 6 天前 | 显示全部楼层
1975年的电影。意大利的电影。感谢分享!

本版积分规则

小黑屋|Archiver|蓝光电影资源网

GMT+8, 2021-10-21 22:57

Copyright © 2001-2022, Tencent Cloud.

快速回复 返回顶部 返回列表