BluRayCD Forum

 找回密码
 立即注册【分享大片】
查看: 11|回复: 0
收起左侧

[科幻恐怖] 双胞胎 The Twin 2017 1080p AMZN WEBRip DDP2.0 x264-ABM 3.34GB

[复制链接]

7010

主题

7389

帖子

7万

积分

Post Share

金币
17296 枚
体力
13703 点

卓越贡献勋章

mvods 发表于 7 天前 | 显示全部楼层 |阅读模式

. O1 g, |. p7 ~% |* w2 L8 V2 [: ?9 o' c  O3 Q& z
◎译  名 双胞胎
9 y$ Z9 E3 T. B+ a◎片  名 The Twin
4 R. c5 n0 H1 a% x◎年  代 20177 l% e$ \' t0 v! m' R# N* J! ?/ w
◎产  地 美国: }" f7 E, z! B) F% h
◎类  别 剧情/悬疑/恐怖
6 d; [6 {! s0 _* ^/ P* v◎语  言 英语
2 Q2 X# p) E# j% D◎上映日期 2017-01-06(美国)) X( _: H% a. P4 p. J* p
◎IMDb评分  5.1/10 from 531 users/ n6 F6 M$ `( D1 v! X7 O
◎IMDb链接  https://www.imdb.com/title/tt5840030/
, {% K- k) s8 D3 E8 q1 R◎豆瓣评分 0/10 from 0 users0 n! r: U/ w0 B+ c
◎豆瓣链接 https://movie.douban.com/subject/27118099/# \7 G* g; D, o( c
◎片  长 1 h 26 min
- V5 P2 C4 f/ c5 {◎导  演 弗雷德·奥伦·雷 Fred Olen Ray& k2 w8 K% n4 M* m. N
◎编  剧 Roger Stigliano % |' |5 Q( y1 ~) L& |8 j5 M: v
       Michael Waite1 P5 C  x* N: w6 s* C& f1 d
◎主  演 Brigid Brannagh
$ l/ o; U& m# u; N       Timothy Granaderos
2 Z8 P) w) g, Q       Jess Gabor7 F3 ^! b) Y( @7 j- s+ R
' [/ N" R. b3 D# i; \7 E
◎简  介   
: G3 Z8 S+ I. O" Z) n9 A; [
# E' u8 q; b8 j; t  一名女子(布里吉德·布兰纳饰)在发现女儿男友的双胞胎兄弟(蒂莫西·格拉纳德罗斯饰)从精神病院逃脱后突然采取行动,并策划了一个扭曲的报复计划。
; {5 v4 w: J8 g( Z% c6 P
, a6 s7 ?* u0 H9 k/ G) b  A woman (Brigid Brannagh) springs into action after discovering that the twin brother (Timothy Granaderos) of her daughter's boyfriend escapes from a mental institution and hatches a twisted plan for revenge.
: y; l" U4 n  c2 V* i
Video/ b" T8 u6 c) H$ Q( w/ a
ID : 12 S/ c8 f3 ]5 l4 K% F
Format : AVC# f3 P$ R2 E9 t# [* t# Z
Format/Info : Advanced Video Codec, E  \) ?* v$ T) g# d* P7 `
Format profile : High@L4
% ]( w4 c* l# q2 }* e- QFormat settings : CABAC / 4 Ref Frames
) m$ N- j0 s* u, DFormat settings, CABAC : Yes
7 C. j3 V) [# }! }8 s" _Format settings, ReFrames : 4 frames
* ]  }8 J6 D2 ^0 G( Z% B6 J, BCodec ID : V_MPEG4/ISO/AVC
$ N$ G8 n8 H2 Q( L" n2 ~% @) a# ^Duration : 1 h 26 min6 P  r, N/ s  @. E& i5 I( e5 l
Bit rate : 5 203 kb/s
/ q2 V% ]5 W3 S5 ]8 b0 oWidth : 1 920 pixels
6 r9 c2 r2 U7 x4 u/ B0 {Height : 1 080 pixels
5 N$ O9 q' \6 ]5 s9 P' EDisplay aspect ratio : 16:9
- G8 f- s! B) zFrame rate mode : Constant
0 w- S* |& X5 D5 x  O. n) D/ oFrame rate : 23.976 (24000/1001) FPS5 [! \! W4 n; \: v* O' A
Color space : YUV
4 b" r8 F" x" C& }: E, {0 e0 M4 ?Chroma subsampling : 4:2:0
- I/ e1 [3 E+ S& z3 l6 j7 ZBit depth : 8 bits
3 n! A3 T) X+ @4 y4 Q3 AScan type : Progressive
7 W5 b- ?6 q8 ?  \& YBits/(Pixel*Frame) : 0.105! r' _8 z9 c, w! u( m
Stream size : 3.14 GiB (94%)! S# r+ h& {, k. h4 ?4 N3 @
Language : English
" C; N% s/ h* ]4 l- s4 rDefault : Yes; y) M  \& l" `" k
Forced : No
+ o# U% N! J- I) OColor range : Limited
; Z( }, S% C, o% y" {Color primaries : BT.709
& C- v/ ~4 H* w3 m2 {1 A# Y6 y: VTransfer characteristics : BT.709
" L3 r( B) z, ^  h2 v: q( U/ s; iMatrix coefficients : BT.709
" N' D" ?6 a1 p& H( W7 j" H, p0 f$ M2 z( e/ Q/ _
Audio( K8 V& a0 Z. T" M3 n* Y
ID : 2
# [: D% g0 x. [$ zFormat : E-AC-3
) i3 p, p! O0 A3 v% r$ BFormat/Info : Enhanced AC-3
9 F  A# ~, I: f. y1 t1 e9 `; b/ G2 sCommercial name : Dolby Digital Plus2 U* q# C1 p0 S/ n
Codec ID : A_EAC3
% Y' I, H- D) M6 {Duration : 1 h 26 min' v0 X1 |4 \: y# H9 n+ o
Bit rate mode : Constant
) J0 x# \! O- s+ |Bit rate : 224 kb/s' N- o, ?+ [. k# s9 v
Channel(s) : 2 channels$ T' t+ q0 N3 J% ~( P+ U
Channel layout : L R. \# y/ U' c' \4 I5 i, z5 |3 x5 [
Sampling rate : 48.0 kHz
( L! Y$ T8 ?# ?Frame rate : 31.250 FPS (1536 SPF)/ V+ y# K1 m+ e( k' {1 C
Compression mode : Lossy# d8 a* t) R# ~# z
Stream size : 139 MiB (4%)$ ]6 y# j2 M* j
Language : English, ?# _# A0 C  E$ d
Service kind : Complete Main* r. p3 D8 e; C0 W& Z
Default : Yes
% j" i7 `& |  lForced : No9 M7 e% a9 {& A7 U: d& ~- t
4 ^( B4 G* ~  Z+ X0 u8 |* o
Text #1
( k7 Z) @' h5 a- w' IID : 3% ~: r/ [/ c: ?. x
Format : UTF-8
7 X4 Z' z( Z* w6 G% N1 c7 ]) l8 OCodec ID : S_TEXT/UTF8
' {3 f1 a! {7 F! \4 kCodec ID/Info : UTF-8 Plain Text
+ d7 n+ O" P7 K/ y' q7 g' m/ O4 WLanguage : English3 V) K5 ^% U6 v* Y+ [6 k8 i5 I% I
Default : No
; t) c7 d' {# c2 VForced : No
" i; U5 @) _( b2 N  I3 p
0 P5 I2 x+ `) O$ X+ g$ D2 C% dText #2. D" B4 x3 I; H2 u
ID : 4
8 J: q1 H* X, C8 U, _Format : UTF-8
- g9 y$ n9 X0 ^( zCodec ID : S_TEXT/UTF8# y0 h' f4 e, O, L
Codec ID/Info : UTF-8 Plain Text4 |/ t. ?9 e9 {, I$ c
Title : SDH- u# c- ~7 R( @
Language : English
( x) R4 l! w: C4 qDefault : No

# j' {; @% \1 K/ l' }0 |8 B
游客,查看本帖隐藏内容请回复 | 加入VIP贵宾可免积分免回复 了解详情 | 还不是会员:点击获取邀请码 Invitation Code

本版积分规则

小黑屋|Archiver|蓝光电影资源网

GMT+8, 2021-10-21 23:45

Copyright © 2001-2022, Tencent Cloud.

快速回复 返回顶部 返回列表