BluRayCD Forum

 找回密码
 立即注册【分享大片】
查看: 17|回复: 1
收起左侧

[蓝光原盘] 月光光心慌慌5 [REMUX无损重制版] Halloween 5 The Revenge of Michael Myers 1989 REMASTERED 1080p BluRaycd REMUX AVC DTS-HD MA TrueHD 7.1 Atmos-FGT 27.49GB

[复制链接]

6407

主题

6581

帖子

7万

积分

Post Share

金币
14984 枚
体力
21119 点

卓越贡献勋章

黄金嫖客 发表于 2021-10-21 21:22:59 | 显示全部楼层 |阅读模式
One year after the events of Halloween 4: The Return of Michael Myers (1988), the Shape returns to Haddonfield once again in an attempt to kill his now-mute niece.
5 s, R7 n+ i9 D7 M8 z8 B& B% E3 V
01.jpg
/ s; k8 I/ X8 T$ P* ]9 {; u7 J0 p  A; x, c
◎译  名 月光光心慌慌5/万圣节5/捉鬼节5
/ C5 s- p9 E# F9 @6 `  K/ C2 M◎片  名 Halloween 5 / Halloween 5: The Revenge of Michael Myers& m3 t* e6 E+ ]6 p2 o
◎年  代 1989
3 M6 z( C* ~9 M, H" U! W; g◎产  地 美国
# X5 s6 A8 m4 e4 `$ c! ~( S# c◎类  别 惊悚/恐怖3 S4 k& {, t( |+ g2 K
◎语  言 英语
: m) ?- C& D7 i; `7 Y! v7 U◎上映日期 1989-10-13(美国)
; [7 h' E# `& ]' s◎IMDb评分  5.1/10 from 37,943 users
$ L4 m  n$ E9 A& q- f◎IMDb链接  https://www.imdb.com/title/tt0097474/
# ]( |, H( m! K/ u◎豆瓣评分 6.1/10 from 1,123 users3 V% r5 [. S( Y  k* Y, X7 v/ f! H% w
◎豆瓣链接 https://movie.douban.com/subject/1295166/; `7 U2 T& p. I
◎文件格式 x264 + DTS + TrueHD' B' Z7 X$ Y( D6 a
◎视频尺寸 1920 x 1080
! U/ \' o7 B) }+ V7 L8 s◎文件大小 1DVD 27.49 GiB
0 k" U: A. N# N◎片  长 1 h 36 min6 u1 @' T+ F  U
◎导  演 多米尼克·阿森尼-吉拉德 Dominique Othenin-Girard
9 ^: q) y) j3 X! r◎编  剧 迈克尔·雅各布斯 Michael Jacobs, l$ z9 Z% D( h/ Y' W
       多米尼克·阿森尼-吉拉德 Dominique Othenin-Girard2 z: M/ ~1 b3 u
◎主  演 唐纳德·普利森斯 Donald Pleasence
( P& m% h5 C, R       丹妮尔·哈丽丝 Danielle Harris
( [3 f) G# h- {5 o       艾莉·康纳尔 Ellie Cornell* s6 _+ X9 ]0 N* g
       博·斯塔尔 Beau Starr
% |, C- ?/ T, G& n( F6 q9 _' D       杰弗里·兰德曼 Jeffrey Landman/ ^0 ~9 A5 H; h1 N8 Q) b
       史蒂文·安德森 Steven Anderson# Z. J. W( k: Q/ F- z

% a; w% z- }0 j3 Y. @6 q2 d◎标  签 恐怖 | 美国 | 惊悚 | 血腥 | 1989 | 美国电影 | 《月光光心慌慌》 | 恐怖电影7 F# c; h( y& W7 l. ?

8 k0 B, K2 r: `( e, z1 [◎简  介   
( r* C5 g' N1 f$ {3 C" @- F+ b( O+ H  Q9 w, y
  1988年的万圣节,杀人魔王迈克尔·梅尔被警察射伤,几经周折,他逃到一条河边,并得到一位好心人的救治。一年时光转瞬即逝,伤愈的迈克尔如同僵死复苏的毒蛇一般杀掉救命恩人,并决定再次前往哈登菲尔德,向甥女杰米(Danielle Harris 饰)复仇。  ^; h! V0 ~; J% r) q* ^) ^, K6 ]# u
8 g4 T( n4 s3 P  F+ D
  一年前,杰米因攻击养母及经历了舅舅迈克尔的追杀噩梦而患上失语症,如今正在当地的儿童医院接受康复治疗。虽然失去说话能力,杰米却神奇地拥有了与迈克尔心灵相通的能力。主治医生卢米斯(Donald Pleasence 饰)意识到了这点,他决定利用这个能力和迈克尔做个了断……
% J+ [5 j: g$ f$ S0 a9 z
  W9 A* i( g! k  Because Hell would not have him, Michael Myers survived the mine explosion thought to have killed him. One year later, his traumatized young niece Jamie is horrified to discover she has a telepathic bond with her evil Uncle…and that Uncle Michael is on his way back to Haddonfield. But Dr. Loomis has a new plan to destroy The Boogey Man in his childhood home using Jamie as bait.
$ R3 h3 l/ }4 F! H/ C* Z- m$ C. B7 T
Halloween.5.The.Revenge.of.Michael.Myers.1989.REMASTERED.1080p.BluRayCD.REMUX.AVC.DTS-HD.MA.TrueHD.7.1.Atmos-FGT 27.49 GB. C; |7 H# j7 O9 \
, ^: g/ }1 n6 O; \% C; ]$ b. R
Video
2 o  z! s8 s  T3 [" Q; ~6 SID                                       : 1
. R' H  W4 m% l6 u3 y% r. g" nID in the original source medium         : 4113 (0x1011)
' z( p: b- N! kFormat                                   : AVC% C6 w& V5 K' M& w
Format/Info                              : Advanced Video Codec
" d: g9 O& B, [. G* t" r" ~5 ^3 N$ sFormat profile                           : [email protected]8 q# G  R% w1 t/ n1 e
Format settings                          : CABAC / 4 Ref Frames' b$ U- w( b$ n$ C, F' H% f
Format settings, CABAC                   : Yes! S( k* F2 m- g; c9 z) i1 Y9 S
Format settings, Reference frames        : 4 frames/ I! o3 S+ r) A- |0 h2 r0 \1 G8 g# o" C
Codec ID                                 : V_MPEG4/ISO/AVC
; {' |/ `' g' P: M4 |Duration                                 : 1 h 36 min
& X, A6 ~% V: L3 R  S) B2 LBit rate mode                            : Constant$ p2 s4 h: g; f
Bit rate                                 : 30.0 Mb/s( w+ Q  S% i4 c8 Y. D+ f9 v1 q
Width                                    : 1 920 pixels  t& ]7 r. j7 r) L$ n0 h4 [- _
Height                                   : 1 080 pixels8 E2 K' s9 `% g# M- T; E
Display aspect ratio                     : 16:9
$ p' G2 v0 A8 @' r/ sFrame rate mode                          : Constant
$ k" h4 k: e! D! P, c/ _Frame rate                               : 24.000 FPS( {; F+ f6 h0 o/ d
Color space                              : YUV
7 _5 O, u7 A- U) z" uChroma subsampling                       : 4:2:0! u0 P" J* i8 D8 Q9 v) h
Bit depth                                : 8 bits& Y6 f4 Y* B( p; V  f& m; j
Scan type                                : Progressive% o; {, Y/ p; M9 [0 K
Bits/(Pixel*Frame)                       : 0.603
4 K  x* N" @* l4 T1 EStream size                              : 19.7 GiB (72%)% H4 \  {- R% K- X" [
Language                                 : English% a' b& W/ G/ O. _+ A2 ?2 R7 F
Default                                  : No
, t# G3 A) y* a. _6 _4 jForced                                   : No
4 y+ [# J9 J1 F$ A3 G9 _Original source medium                   : Blu-ray
# u* k) _/ ~& l! E; f$ ?7 S4 z; t' u3 `
Audio #1
+ u8 A+ k5 C# u5 v! ?1 T$ R6 _ID                                       : 2& z  F) t1 `& G- R# V1 M
ID in the original source medium         : 4354 (0x1102): J: V! G8 x, P- [# ^' m
Format                                   : MLP FBA 16-ch
6 F/ R. B$ b% u( D: ?Format/Info                              : Meridian Lossless Packing FBA with 16-channel presentation
' M$ r: Z7 |# u3 e& xCommercial name                          : Dolby TrueHD with Dolby Atmos% q: `2 K* w6 U3 b
Codec ID                                 : A_TRUEHD1 P( J: z( H3 N
Duration                                 : 1 h 36 min
  K0 x7 E$ m  _Bit rate mode                            : Variable
* a7 w9 y. D) Y, k6 k5 |+ VBit rate                                 : 4 454 kb/s2 O2 Y1 _, j7 B5 d4 }- N" K
Maximum bit rate                         : 6 912 kb/s8 R6 R7 q% [$ R7 t0 d
Channel(s)                               : 8 channels
2 o, v7 k5 \+ E1 T  R, R% hChannel layout                           : L R C LFE Ls Rs Lb Rb
& ]) V4 u* w7 L# \Sampling rate                            : 48.0 kHz
1 n( M# ?' u( k1 n: mFrame rate                               : 1 200.000 FPS (40 SPF)! W! H, O6 E0 P
Bit depth                                : 24 bits9 |' Q6 h4 M7 W2 S3 p( c
Compression mode                         : Lossless
5 U* F2 S( ]. I* DStream size                              : 3.02 GiB (11%)! N, Y5 u" u4 M! J
Title                                    : TrueHD 7.1 Atmos: D. O/ \- _1 q$ D2 y5 v# t
Language                                 : English$ [) m% ?" v8 A, r+ A# c1 D/ g, ]
Default                                  : Yes
' w" Q& _$ j( v* U  N/ J: iForced                                   : No" G; g8 _: w/ e2 J' }
Original source medium                   : Blu-ray# z/ c( S; u1 w. V9 {
Number of dynamic objects                : 11% i, q% N) t% X3 n* {/ V# F
Bed channel count                        : 1 channel4 j- R! o+ S- u0 H, E
Bed channel configuration                : LFE
4 {! g% L1 [' f6 `9 ^" j# `4 {; a* N2 A5 t4 e
Audio #2
2 V# g- i5 j: z, MID                                       : 3
3 c" o% L* z* X+ zFormat                                   : DTS XLL9 W* U7 t9 ~5 U" M
Format/Info                              : Digital Theater Systems- D; w1 Q3 j: f. E
Commercial name                          : DTS-HD Master Audio
1 E8 p' J; R6 P; S' ^. M- b9 ^Codec ID                                 : A_DTS! B2 _3 i) k) S0 w
Duration                                 : 1 h 36 min* |6 U7 G% T- T6 T  T  o
Bit rate mode                            : Variable
- @6 ?2 V* G" i  H# K9 TBit rate                                 : 4 212 kb/s
2 [! \8 T" i& m! p7 hChannel(s)                               : 8 channels+ h) W3 F( [( g1 n. t" O  _
Channel layout                           : C L R LFE Lb Rb Lss Rss
$ D1 G  N( i  E* e6 n$ M$ ~' ?Sampling rate                            : 48.0 kHz7 p1 P9 O( [7 Z  b) b: ]
Frame rate                               : 93.750 FPS (512 SPF)8 }! \% E$ h! `5 T: e( O2 A; E
Bit depth                                : 24 bits( B" D7 W& t5 ^) C
Compression mode                         : Lossless
; D4 B) E2 k8 T4 G& EStream size                              : 2.85 GiB (10%)' T; i2 a: P1 ^# `1 W9 w
Title                                    : DTS-HD MA 7.1
5 s* _5 w& |: ?! F" ELanguage                                 : English+ g6 q/ f- t+ b( I9 c
Default                                  : No
  T. W- O/ H6 DForced                                   : No/ g; |; R/ X7 J6 F# o! |4 d0 Q) M' O
" j7 t: R: m/ |! U/ N
Audio #3
( P/ G; Q7 H8 P. T  G3 C! UID                                       : 4
3 L; h# X/ e8 L% D- E$ rID in the original source medium         : 4354 (0x1102)
$ s8 R2 _/ k' P: F  yFormat                                   : AC-3
  O& x/ x* J8 n$ b# T5 y8 O( c2 }% kFormat/Info                              : Audio Coding 3
" D; V& ?& n4 m# tCommercial name                          : Dolby Digital
; E! F: @6 w* ]# j8 x/ LCodec ID                                 : A_AC3
6 y. A% X% u7 ]. l5 g3 lDuration                                 : 1 h 36 min5 G* v' m  I2 |2 A' ]! [% o1 _3 t
Bit rate mode                            : Constant# h) m$ U/ l0 C. ~6 S1 C
Bit rate                                 : 384 kb/s2 j7 P/ I# O" S0 S( W3 u
Channel(s)                               : 6 channels
! d0 U5 j$ B/ z6 C8 {* OChannel layout                           : L R C LFE Ls Rs
& K9 F. b) p) A" Q& |" D8 ~/ `Sampling rate                            : 48.0 kHz, C& j8 k$ ^; w; l5 O. j( y
Frame rate                               : 31.250 FPS (1536 SPF)/ Z; t, x. Y8 ]! u: R, L) Y7 X! m
Compression mode                         : Lossy
3 d  f3 k0 _. l5 t% k" NStream size                              : 266 MiB (1%)4 g& B( {( Z* r
Title                                    : DD 5.1
/ b+ w" |* d7 PLanguage                                 : English, M: J  N. g2 U# x. g
Service kind                             : Complete Main) S! [. c1 h5 K2 Z! Y; R" M( [+ r6 m* V
Default                                  : No
/ F& C8 w3 I. V# [  R: \Forced                                   : No
# \6 a* n' O/ K  L; d" @Original source medium                   : Blu-ray
' E7 r7 a# z, |! Q2 ~
" l3 D# F) Y8 T' n+ k/ R+ d( DAudio #4# Z+ s" e% C9 `5 {  _% v6 B
ID                                       : 5
6 q! N% k( ]- g0 B: F, ~2 B" W9 TID in the original source medium         : 4352 (0x1100)' E* G" K  ?$ c+ O0 |5 b
Format                                   : DTS XLL
9 M4 v* B3 ?* d1 FFormat/Info                              : Digital Theater Systems! ?5 V0 K2 J- M+ I
Commercial name                          : DTS-HD Master Audio. q& G8 ?1 U1 Y
Codec ID                                 : A_DTS
5 a" t; s* B4 K# r5 ]$ _" S; F# m+ A# mDuration                                 : 1 h 36 min
  {3 x( ?. u; J9 c6 F. ^Bit rate mode                            : Variable% ^/ h: h+ z* ?( E
Bit rate                                 : 2 035 kb/s
- h& j* u. i: Y7 nChannel(s)                               : 2 channels$ L* D! O$ g" o" e! S
Channel layout                           : L R
3 c( }3 J9 ?* k+ K( N6 qSampling rate                            : 48.0 kHz
$ q. i0 b7 o* WFrame rate                               : 93.750 FPS (512 SPF)% l" M9 c4 M1 H
Bit depth                                : 24 bits
8 P7 i+ v: e: l% r1 {! z8 TCompression mode                         : Lossless& J& N* i/ Y+ n# M! v
Stream size                              : 1.38 GiB (5%)% l! Z/ O- E5 D/ l4 i0 h
Title                                    : DTS-HD MA 2.0
9 R( S/ n, ]) U0 g" p% u4 uLanguage                                 : English
+ \4 K4 E1 J1 q! l+ D( @- N+ J8 CDefault                                  : No& z- y# P5 p7 Q4 p) z4 [
Forced                                   : No
! @  Z1 o3 H: `- g/ z  R0 f( @Original source medium                   : Blu-ray
' |8 k# m' G. t0 Y2 B# `& \  D! S1 \" a6 f. q' q  J
Audio #57 y2 K/ ]/ `. ]4 Z+ V$ s0 y+ |
ID                                       : 6
/ B9 E. k: c( ?8 cID in the original source medium         : 4355 (0x1103)
* N9 k" T6 x5 F- d% p2 |  T# DFormat                                   : AC-3" y( I9 E8 M% p2 @. T2 P) K
Format/Info                              : Audio Coding 3
; G" r0 v8 b( f1 MCommercial name                          : Dolby Digital9 w! |! f- O; k) m
Codec ID                                 : A_AC3$ c6 H7 k1 V3 X
Duration                                 : 1 h 36 min
/ [& X1 {! x3 B2 Y: r2 H3 g1 VBit rate mode                            : Constant
! s8 C0 v( E& Y* [4 }5 ~Bit rate                                 : 192 kb/s3 E9 ?9 ^9 K) {1 L6 u3 B
Channel(s)                               : 2 channels0 I5 }, ^0 o4 m$ Z8 M
Channel layout                           : L R
5 `2 {+ l0 y! k* y8 J8 N/ ASampling rate                            : 48.0 kHz
/ w; [4 N" s6 w& w( U; S1 ZFrame rate                               : 31.250 FPS (1536 SPF)
* l+ L. t2 m* aCompression mode                         : Lossy
( M1 |. p5 m6 n5 n6 f; }+ j& rStream size                              : 133 MiB (0%)1 M3 H7 P& D/ m; S& u" w6 s" |+ ?
Title                                    : DD 2.0$ {7 S! M/ E/ s) C
Language                                 : English
! ^. s: f* f! w  f: l- J- A( wService kind                             : Complete Main: m" O1 p- [, q1 g
Default                                  : No" ]8 J7 }% ~$ r9 u' ]6 z" [
Forced                                   : No3 N, T8 \0 W; h7 P6 j; l
Original source medium                   : Blu-ray' m1 A2 [+ |- t

0 p8 @  \; U$ W' {- u1 o- AAudio #6
4 U8 G0 l0 x+ PID                                       : 7
6 j! Y5 y" |) n, N% rID in the original source medium         : 4356 (0x1104)! j: o& P  v0 a+ x3 x8 K# N
Format                                   : AC-3" {3 ~' W; X/ p& v/ V: W
Format/Info                              : Audio Coding 3
- z4 A# [$ l) \4 L* D9 s$ q6 CCommercial name                          : Dolby Digital
7 l+ G9 O1 w% LCodec ID                                 : A_AC39 h0 ?! \+ z4 w. i# N0 o7 C2 z
Duration                                 : 1 h 36 min
9 Q$ H  B5 B1 m8 z, Q! l/ j, yBit rate mode                            : Constant
' [3 W  M( M/ hBit rate                                 : 192 kb/s) f* [' S# s# K2 \! P* V: @
Channel(s)                               : 2 channels$ V* D  y  T3 A0 z4 e
Channel layout                           : L R
% ~7 L/ U2 D( u* N7 ?Sampling rate                            : 48.0 kHz3 E$ q" l& p2 o8 |$ @, \
Frame rate                               : 31.250 FPS (1536 SPF)- v( ^, ^4 P; k. V( J; e
Compression mode                         : Lossy
6 C) @6 ~: X9 D$ n4 H$ y% h3 JStream size                              : 133 MiB (0%), G& Y0 K1 ~% m" q5 {& m/ C* q  I
Title                                    : DD 2.0- N+ M- f8 g: s! v/ o
Language                                 : English0 k* P# C' K7 E
Service kind                             : Complete Main7 W: @3 y, }( J+ m2 P) v, C  ]
Default                                  : No- m0 P3 h  B8 |5 L$ B
Forced                                   : No
, h/ W; I% @6 h# w; TOriginal source medium                   : Blu-ray1 T. }  a1 J3 Q, x

6 w) d& v- D0 X# k9 a; ?Text #1% t: B- T  W' w, _& U5 r
ID                                       : 8+ |* \% x& _, H6 I/ k
Format                                   : UTF-8% I, ?  S$ w" g  X
Codec ID                                 : S_TEXT/UTF8
4 w5 O9 j1 ^' J  C. SCodec ID/Info                            : UTF-8 Plain Text% p: I' f, ?, M
Duration                                 : 1 h 31 min
8 ?5 K5 e7 u) `Bit rate                                 : 30 b/s- n: h& N, t: h" e: }
Count of elements                        : 9043 n8 @2 }& {) M9 n
Stream size                              : 20.5 KiB (0%)
1 N/ J% J" F0 c8 c0 o( m) g9 c" L2 OTitle                                    : SRT
! ?  O; D8 v) b' V1 T& F& U& }' yLanguage                                 : English
+ ~/ W" ~% P' g: Y5 E/ m, D. IDefault                                  : Yes
1 o( h: k8 m; vForced                                   : No! w9 J+ i2 v+ E, @1 J; @

( ?7 A$ P! [( V  G" UText #2
4 ~3 [2 b9 t0 S1 }ID                                       : 9; G; r& Y0 F9 |+ `- _8 w) Y2 Q
ID in the original source medium         : 4608 (0x1200)
$ n9 y7 P# n! ]4 j* IFormat                                   : PGS
1 _8 u9 E# t3 b8 @Muxing mode                              : zlib
7 m7 L1 o/ V; F5 t) U5 c0 yCodec ID                                 : S_HDMV/PGS
% O4 ~# k1 \$ q; t' qCodec ID/Info                            : Picture based subtitle format used on BDs/HD-DVDs
3 n  p9 F# J& a& r& g' W4 xDuration                                 : 1 h 36 min4 B, U. P, c; q" l+ A
Bit rate                                 : 28.9 kb/s
# j7 V# j$ X- x$ H; zCount of elements                        : 3012' w/ J( |" W' W8 a( Z
Stream size                              : 19.8 MiB (0%)
" Y' k0 W$ d# RLanguage                                 : English
' }1 z2 [0 N% A9 x- p) u( i/ a. B9 Y) WDefault                                  : No1 C$ q$ l. c: W* M- L. i& v
Forced                                   : No
2 W% p  o  k$ q6 ?, g, d3 XOriginal source medium                   : Blu-ray9 N8 a- N9 u% H$ E% M
. c7 _" M, H6 Q0 a) H9 v7 g
Menu9 r$ F) h# i1 ~- c
00:00:00.000                             : Chapter 00" p( I  o0 q, U$ t; O, J
00:10:02.625                             : Chapter 01
( ^6 u. K8 ]% S" F' I+ B/ R00:19:02.166                             : Chapter 025 ]$ o  D6 p. R+ x& L  Q
00:25:51.000                             : Chapter 03
( |$ ^1 y9 X4 M5 _: s5 q9 D00:32:21.833                             : Chapter 04
) Z* N3 x- E. g! J9 `  d1 Z; P: O00:39:57.958                             : Chapter 05
4 A2 b- h% o. ?1 c( Q00:48:17.083                             : Chapter 06
1 `2 d) m" `$ y+ E2 s00:56:52.333                             : Chapter 073 G: x- ?: l2 w
01:07:08.208                             : Chapter 08
4 }4 ~' P/ r% V) E01:13:54.458                             : Chapter 09
0 Z+ o6 k4 C5 |01:20:18.666                             : Chapter 10
+ o+ m  [  o% Y; E# U# i/ \01:31:01.375                             : Chapter 11
- o; w  N& g/ e! a8 q
游客,查看本帖隐藏内容请回复 | 加入VIP贵宾可免积分免回复 了解详情 | 还不是会员:点击获取邀请码 Invitation Code

77

主题

3630

帖子

1万

积分

Sponsor

金币
1925 枚
体力
5223 点
lanpanshuma 发表于 2021-10-31 06:21:29 | 显示全部楼层
楼主发贴辛苦了,I*老*虎*U!
; O2 N7 P9 i$ J) l# `祝愿蓝光社区越办越好!I wish Blu-ray communities better and better!
- |6 X# X0 A! m, Z, I

本版积分规则

小黑屋|Archiver|蓝光电影资源网

GMT+8, 2021-12-4 15:44

Copyright © 2001-2022, Tencent Cloud.

快速回复 返回顶部 返回列表