BluRayCD Forum

 找回密码
 立即注册【分享大片】
查看: 93|回复: 8
收起左侧

[2160P极清] 芬奇的旅程 [4K高清版 内封中字] Finch 2021 2160p ATVP WEB-DL x265 10bit HDR & SDR DD5.1 Atmos-TEPES 19.91GB & 17.19GB

[复制链接]

7636

主题

8015

帖子

8万

积分

Post Share

金币
18255 枚
体力
15189 点

卓越贡献勋章

mvods 发表于 2021-11-5 17:54:01 | 显示全部楼层 |阅读模式

7 ^- O; J* M+ y; c& B. h
( F0 ^+ C0 p, [0 v6 v◎译  名 芬奇/人生/生化/芬奇的旅程
! I) \& \$ i6 r) V◎片  名 Finch / BIOS2 }7 x2 ]1 j+ m* k
◎年  代 2021
3 |/ j: j6 L& {) y& j8 I◎产  地 英国/美国5 g4 U; `8 R5 g3 ^$ C
◎类  别 剧情/科幻6 c1 |6 q9 C& Z
◎语  言 英语
& j( \8 A# a! \- v& W& p) c3 c) F◎上映日期 2021-11-05(美国)3 Z) a& B, h/ W
◎IMDb评分  7.3/10 from 157 users
# ^* Y9 J( G2 [  h: `◎IMDb链接  https://www.imdb.com/title/tt3420504/! q8 {; h1 e5 F# G
◎豆瓣评分 0/10 from 0 users
( N( l, n' w* f◎豆瓣链接 https://movie.douban.com/subject/26897885/
- G0 k7 Q" j4 X6 V, Y◎片  长 1 h 55 min) f* i% Z+ ~$ Y, j
◎导  演 米格尔·萨普什尼克 Miguel Sapochnik% f1 X  @' G! l0 M# y- P  S
◎编  剧 克雷格·勒克 Craig Luck
7 w% e. b( V# u8 Q% ?$ q# ?& a& O◎主  演 汤姆·汉克斯 Tom Hanks  Y4 t! F) d9 _
       卡赖伯·兰德里·琼斯 Caleb Landry Jones
( v% T5 A6 h+ w9 V! x0 i2 I- o       洛拉·玛汀内斯-康宁安 Lora Martinez-Cunningham
; h: N4 Q) m$ k; _       玛丽·瓦根曼 Marie Wagenman
) _/ _4 ?, N9 O' w; w" ^0 m       斯基特·乌尔里奇 Skeet Ulrich) _2 p* N' V5 z* m3 h
       萨米拉·威利 Samira Wiley
+ N- q' V/ {  v/ q% E% E( G+ }* _+ s8 Q8 `# U$ L* s3 l
◎标  签 科幻 | 汤姆·汉克斯 | 美国 | 2021 | 美国电影 | Tom·Hanks | 电影 | 环球
- m0 s( D. w& _3 c2 a3 o, ]/ w4 N+ ?
7 E' X- j! q% q1 c6 B$ s◎简  介   3 y# J5 J9 F+ e4 W
6 {. k. b4 P- m/ W- M
  汤姆·汉克斯将出演科幻新片《Bios》,《权力的游戏》《豪斯医生》导演Miguel Sapochnik执导,Craig Luck(《奇异博士》《碟中谍5》)和Ivor Powell(《异形》《银翼杀手》)操刀剧本。罗伯特·泽米吉斯、凯文·米舍担任制片人。设定在后世界末日的地球上,一位濒死的发明家打造了一个机器人,来保护他心爱的狗。在这一旅程中,机器人懂得了爱、友谊以及人类生活的意义。汉克斯将饰演发明家,预计2018年第一季度开拍。
- p4 `& G, ~9 h9 m" v8 S( I
1 @' C% q: I. ~/ U  On a post-apocalyptic earth, a robot, built to protect the life of his creator's beloved dog, learns about life, love, friendship and what it means to be human.
: e3 ]* E" y" [/ k- c
Video) h& S9 J7 g4 u8 L1 h
ID                                       : 1; T8 e' u# w5 f
Format                                   : HEVC
7 b) X2 {& O; X+ W0 yFormat/Info                              : High Efficiency Video Coding- X: w. C  r7 `5 d0 f  ]5 r- l+ b% c
Format profile                           : Main [email protected]@High
( b" }6 R$ d; S  e$ \2 iHDR format                               : SMPTE ST 2086, HDR10 compatible
6 ^4 Y% r5 M+ U, s3 h/ Z- b  I" JCodec ID                                 : V_MPEGH/ISO/HEVC: j: L) t( M& Q' s1 Z0 i6 _3 x+ q
Duration                                 : 1 h 55 min
2 {) y' V7 U( r8 F1 bBit rate                                 : 23.9 Mb/s
: N/ l9 r. S/ L3 ?7 AWidth                                    : 3 840 pixels( M" P, `% h" C' R
Height                                   : 1 608 pixels
" Y9 O% \  o6 W4 i$ wDisplay aspect ratio                     : 2.40:1
& S$ ^& n1 \2 n+ T+ c4 ZFrame rate mode                          : Constant& K6 E2 E$ G: T6 L
Frame rate                               : 23.976 FPS
  s* L$ K; Z" N$ OColor space                              : YUV
& B2 z- x0 ~, H0 E: TChroma subsampling                       : 4:2:0 (Type 2)
& `- X0 `, _7 m" f2 k8 ]Bit depth                                : 10 bits3 {& p& }- [- N5 e  _+ J, G
Bits/(Pixel*Frame)                       : 0.161
8 K3 L9 Q" a' B0 XStream size                              : 19.3 GiB (97%)
; Z# @  H- N1 C3 F0 jLanguage                                 : English8 g4 J  O/ s2 v* X' c. J
Default                                  : Yes
' }) V$ p5 X/ y; o. SForced                                   : No0 u  X, H2 G& t% a1 B, D: i
Color range                              : Limited
7 d  O0 v) D9 _1 o6 c' A8 Q2 VColor primaries                          : BT.2020/ Z$ L6 s; x  J- O
Transfer characteristics                 : PQ5 r! T* J7 m1 h0 k. X+ i
Matrix coefficients                      : BT.2020 non-constant/ o* q1 S6 S& b' t1 J2 u: M. h/ E5 T
Mastering display color primaries        : Display P3
! w$ M! w; D1 h- Z. _5 kMastering display luminance              : min: 0.0050 cd/m2, max: 1000 cd/m2+ [7 T5 |" E& M  S* o* S2 T/ N
Maximum Content Light Level              : 3201 cd/m25 v; L6 C: @2 P" n; n9 J3 \
Maximum Frame-Average Light Level        : 386 cd/m2
* P7 x) I2 _0 Z5 E) n2 D, M
! M  ?1 c2 G2 M/ v+ pAudio/ ~+ f. I0 y1 [% I- E# T
ID                                       : 2( i! ~' ^2 F. E" a  z/ z; h; Z
Format                                   : E-AC-3 JOC
6 P) ^7 j; R- m4 rFormat/Info                              : Enhanced AC-3 with Joint Object Coding
( f1 S, L* Z5 p8 dCommercial name                          : Dolby Digital Plus with Dolby Atmos
9 [7 T% e+ [- z( fCodec ID                                 : A_EAC3" A% N0 A1 ?5 J1 s
Duration                                 : 1 h 55 min- P' [8 [2 O& U: L/ `
Bit rate mode                            : Constant
3 k9 g0 \8 a  m  [Bit rate                                 : 768 kb/s
5 r; N& l# z  B9 O/ s/ b  GChannel(s)                               : 6 channels1 l* k- r& ~( j, }5 b  o
Channel layout                           : L R C LFE Ls Rs3 e/ G5 f# R. I% a1 r7 C2 s, m
Sampling rate                            : 48.0 kHz
# R8 G( U* _5 X% ?/ h- y: a) ]Frame rate                               : 31.250 FPS (1536 SPF)  A9 j3 h. B  a1 w) D% E! L
Compression mode                         : Lossy6 Q. x) B8 o9 z. l+ l
Stream size                              : 635 MiB (3%)
# H/ I0 u& C4 }. C5 tLanguage                                 : English! R1 ]* p9 R9 B2 _% H& i1 R
Service kind                             : Complete Main  M2 a2 K: A- O, c5 L9 k
Default                                  : Yes: `0 ^% M: `8 U# }  k+ V7 i
Forced                                   : No: x- U, y6 e9 Z
Complexity index                         : 16
/ T$ ?: y. x  t. zNumber of dynamic objects                : 15% K5 X' b, m* K# k+ Z$ N3 f$ I% t
Bed channel count                        : 1 channel1 f3 C0 j3 ~, F2 o! t+ j! V/ k  z
Bed channel configuration                : LFE. }4 m/ R1 V/ V" S+ F5 T9 u  R8 N
' X# J  L* C* a1 l
Text #10 e4 N* {6 k6 h) z1 x% ~
ID                                       : 3
: g+ f$ a1 \. K0 E! P$ ~4 CFormat                                   : UTF-8- O4 g8 K: y2 F0 _
Codec ID                                 : S_TEXT/UTF8
/ p, D1 D& e9 t& MCodec ID/Info                            : UTF-8 Plain Text
' x, F% |, M& O" q, w5 T$ cBit rate                                 : 0 b/s/ m8 p3 [0 ~2 i. t+ N3 o& ?( z! }
Count of elements                        : 0
% L+ s% e& D: l) dStream size                              : 0.00 Byte (0%)
5 j; V; N' I8 e; I4 {Title                                    : Forced
! }8 w- }/ l' ^3 A) ALanguage                                 : English5 U8 A! s0 D4 z1 A8 v( R
Default                                  : Yes# B2 ?7 j6 v; V1 ~2 C
Forced                                   : Yes
, s+ R  j0 u! r3 V. J0 g. s) A0 m5 Z
Text #23 A0 I4 J3 n$ y" R! `& U5 y  a
ID                                       : 4
/ b6 j# N4 _, j( e+ u& YFormat                                   : UTF-8+ q! \9 A( _, J- Q
Codec ID                                 : S_TEXT/UTF8  A/ ]0 ?- ]) H$ x  E
Codec ID/Info                            : UTF-8 Plain Text
! }& n$ Z: N# J: o9 G5 G9 QDuration                                 : 1 h 45 min
% R  z& W2 p; y' _Bit rate                                 : 35 b/s
; v4 }) ^+ }! Z2 [0 N* H5 pCount of elements                        : 986
5 ^7 I6 n  t/ U" b2 tStream size                              : 27.5 KiB (0%); @1 W. M! o" @" J# d
Language                                 : English0 f- ]  J+ L. t
Default                                  : No
, M( P% V1 f8 [' TForced                                   : No
+ s$ T+ ]6 C! c; U: G" H
6 |& y' x0 E' aText #3
2 n; x5 V0 D. y# q) fID                                       : 5+ {* ~3 v9 z& N% Z" i" \1 Q9 \
Format                                   : UTF-8
+ b* N) j" T; ~5 V3 z, ], XCodec ID                                 : S_TEXT/UTF8) S- J' `7 a7 e  V
Codec ID/Info                            : UTF-8 Plain Text" v6 T" d. ]1 \$ k
Duration                                 : 1 h 47 min3 f# S# ]3 ], O2 v: ~) z% f2 I
Bit rate                                 : 41 b/s  x% u% ?" e) e& }" G
Count of elements                        : 1210
. p% C; Q4 o% [' d$ g/ `Stream size                              : 32.6 KiB (0%)
* Y+ y# m  h  v% f& N/ l6 jTitle                                    : SDH) B6 j( B% K) c4 J7 a& ]* O. m# V- @
Language                                 : English
) R" Y/ W/ r% O+ F; ]Default                                  : No# b' f, B) k0 e: v% n+ v
Forced                                   : No0 T' A5 X4 u0 \

) n0 W7 W$ ^  W- l/ F4 bText #41 `9 N+ d0 p7 g6 u. z) Z
ID                                       : 6
9 {1 L. ]2 }# x! z- u  NFormat                                   : UTF-8) h4 l  a: h/ ~
Codec ID                                 : S_TEXT/UTF8/ H8 Y+ q+ r5 m7 X. Z
Codec ID/Info                            : UTF-8 Plain Text) N& v& P( D) @* H* j  E
Duration                                 : 1 h 53 min4 H5 b7 a  U, Q7 ^4 S& A. @4 M- j0 l1 W
Bit rate                                 : 48 b/s8 {$ G$ S; L9 ~* v# J: h
Count of elements                        : 1036' q% A2 Y/ T8 a6 ]
Stream size                              : 40.5 KiB (0%)
# O+ }+ c- T" P& M9 KLanguage                                 : Arabic5 [$ `2 a+ e+ e  K% C, ?
Default                                  : No4 a, w0 L, ~) W# U
Forced                                   : No
- p+ R5 n- ^6 F7 k) [3 R. A+ s5 }, A) ]
Text #5
% b3 @' i) ?4 T% N' P! S1 bID                                       : 7& y! w+ Y7 e* Z( s9 y
Format                                   : UTF-86 b2 v( l3 a$ f8 ?# h( o
Codec ID                                 : S_TEXT/UTF8
3 c+ Z6 c& ?9 l  w. a$ fCodec ID/Info                            : UTF-8 Plain Text
; R8 \& o8 f/ V  m3 Z' i7 YDuration                                 : 1 h 53 min" v9 t" R4 {" f# M3 }, ~  k
Bit rate                                 : 51 b/s
+ u# T8 H4 l7 ~! F: \  HCount of elements                        : 1017
  }( r( _! f1 p( u% ~- Q: L0 Y* uStream size                              : 42.8 KiB (0%)
0 R* l0 b5 R4 T" jLanguage                                 : Bulgarian$ j' n7 L, E4 O% T2 n$ ]# M8 ?2 h
Default                                  : No
. k5 K7 O0 l1 f6 E& G) K) CForced                                   : No
5 M( `9 G4 c) e/ N2 }9 \- f
! }& f5 W6 R8 F7 p1 S1 EText #62 D7 S6 ?7 o& V- Y
ID                                       : 8
" }7 q' E$ q/ \8 mFormat                                   : UTF-82 R; K' x5 ?. p: ?$ X( A' G
Codec ID                                 : S_TEXT/UTF85 M5 r+ E3 Q9 ]; c& U
Codec ID/Info                            : UTF-8 Plain Text
3 d6 \' V0 G4 v' Y$ ]9 D9 M! {Duration                                 : 1 h 53 min
  ?* T: \* Q  c0 T/ t. `Bit rate                                 : 30 b/s: c7 X* W4 \, e- H; ~0 B% ~3 K
Count of elements                        : 1037. E! k( M$ \9 Q3 d+ E5 Z# L& g
Stream size                              : 25.1 KiB (0%)
1 r" a' T1 d! T4 n$ l! B# s; s& dTitle                                    : Simplified6 V$ A) t% w9 ]. N
Language                                 : Chinese
. }- K" i+ r1 l% b4 C$ kDefault                                  : No
2 N6 o* i% e7 a; d- |: w9 ?. c0 mForced                                   : No
8 ~+ D( F3 B0 O+ `' N3 U, H! _) t* Z1 z2 ?+ t5 S  ?4 {/ t
Text #7
# o# t0 ]9 `" J% ~( W. w. ]5 [ID                                       : 97 ]: t4 ^8 Y) k+ h9 ~( u8 p
Format                                   : UTF-8  G$ l& ?7 i# h5 I& c: \$ s
Codec ID                                 : S_TEXT/UTF8
1 ~/ I) y  [  ~/ mCodec ID/Info                            : UTF-8 Plain Text
# {' d0 F' z3 GDuration                                 : 1 h 53 min
* W% u3 f% Z8 p4 n/ ]  X5 C" \Bit rate                                 : 31 b/s
1 a1 b4 ]1 @2 T, U0 ~4 A, B1 aCount of elements                        : 1039; n" h5 C" f: J3 d& J/ {- @
Stream size                              : 26.2 KiB (0%)+ F3 l$ A6 g9 C; t, A" r$ z
Title                                    : Traditional1 O% N+ ~# i. H' x, `
Language                                 : Chinese& G& v+ x# H$ [4 f
Default                                  : No; {, A1 x7 s: s# u  y2 z+ t* p
Forced                                   : No, g. {- \4 d, b. ~' d

5 m0 D/ f# d6 y; H& C* OText #8! R" M& x3 y- V. m1 c4 b
ID                                       : 10. a  c4 @" N3 W+ [" h9 ~/ C
Format                                   : UTF-8( U& ~  |( \$ w3 {: o2 Q
Codec ID                                 : S_TEXT/UTF8
3 s  d) d; z& j  E/ X& m5 |; MCodec ID/Info                            : UTF-8 Plain Text
1 ]6 l; q# q, y: d" g% rDuration                                 : 1 h 53 min
: ^$ V1 f7 M' i9 ~2 L2 ZBit rate                                 : 32 b/s
& B/ L2 g# n* ^5 CCount of elements                        : 996
. M- A( C6 C, {: j+ N: O& gStream size                              : 27.0 KiB (0%)* @( `1 f+ v7 T! ~
Language                                 : Czech) R4 |+ ~0 ?  H
Default                                  : No
1 g2 m) M# y! i" TForced                                   : No/ b* M$ V% L! T" Y  m
/ v3 P2 A; E$ Z$ y3 F
Text #9' q( B  U2 k1 Z4 Y# [9 S3 @
ID                                       : 11! g) O- Y, O0 R; B! I
Format                                   : UTF-86 c3 }4 S3 i! ~5 c# z- o
Codec ID                                 : S_TEXT/UTF8
$ \  m. f' i0 C* TCodec ID/Info                            : UTF-8 Plain Text9 ~# x6 @# ~, y8 `( W2 w- i
Duration                                 : 1 h 53 min
- [* `' A6 O' L8 J7 \  r" n, e  }Bit rate                                 : 31 b/s' {  i' G5 S% h: }0 W% _
Count of elements                        : 852
" @* ]# U; L, b+ ^$ X  m3 d! _; lStream size                              : 25.8 KiB (0%)
: i7 Y% V' g5 L3 X4 jLanguage                                 : Danish
' q( R/ o7 n' t7 v" p5 w* bDefault                                  : No
/ _* B) g8 c" A$ T' M* E+ fForced                                   : No4 u  h% O- \6 O

9 @! O+ T, `6 Q& ]# eText #10: {: s  a4 J( `+ |) B* Y
ID                                       : 12/ o: R% T" Y' O1 d# }; j
Format                                   : UTF-8) s: x' Y5 h! ?1 {- g. ]& J4 |
Codec ID                                 : S_TEXT/UTF8
; Y3 h1 ?: [  X5 nCodec ID/Info                            : UTF-8 Plain Text
5 D& v1 {" K: k' ]' Q+ R5 \! cDuration                                 : 1 h 47 min
5 p2 f  O- z* l' s. M- N+ yBit rate                                 : 37 b/s+ r: F3 s, K/ R4 _) e1 {5 E
Count of elements                        : 1038
# [8 X& _; O# L0 }% Z8 w0 tStream size                              : 29.2 KiB (0%)
5 D" Z- U' ]5 ~1 f* Y; uLanguage                                 : German, ^% M7 u* V% h/ e5 b  O
Default                                  : No
( `* d1 M) q) |0 w3 W/ g# ]8 ^( C2 qForced                                   : No& M8 d9 ]+ p  A) \8 q+ k' n
; g3 C% a$ J" p' A+ k6 z1 J/ i
Text #11* t6 \5 S0 q0 d, j1 }* ^
ID                                       : 13
4 ^; n& C- @3 [# j% n9 zFormat                                   : UTF-8
  }9 F) I, P6 [5 f- _Codec ID                                 : S_TEXT/UTF8
$ @* D, ^9 c! I1 L# n/ b* vCodec ID/Info                            : UTF-8 Plain Text- L* Q0 w# Q/ X0 ?
Duration                                 : 1 h 53 min
4 q: ~  ^% U: Q' d* W/ lBit rate                                 : 57 b/s8 o% L" R- D5 Z
Count of elements                        : 1019
" R1 h) u* f5 ]" \) zStream size                              : 48.0 KiB (0%)/ n, n: @0 y, [8 V9 E
Language                                 : Greek
8 {, ~) v2 [! t% z( A: T9 lDefault                                  : No
6 l( h. c# Z' |: ]1 Y9 Q7 JForced                                   : No
$ ~8 n, J) X9 k) d. w* j0 f* k8 H+ u
Text #12. x3 P9 L* s' h
ID                                       : 14
% B% t" W7 A6 m: R+ a7 OFormat                                   : UTF-8
1 A) J3 p0 D6 y, ECodec ID                                 : S_TEXT/UTF8
4 P+ p7 Y, U/ a4 p' ^5 t* D- J& i' VCodec ID/Info                            : UTF-8 Plain Text
% p8 K* K/ G$ dDuration                                 : 1 h 53 min
8 f: {' f6 l6 }/ i6 Z" r+ Y6 Y9 mBit rate                                 : 34 b/s( C3 v& A: U1 V6 ~% ^) \0 `
Count of elements                        : 1009
& s; P0 ^4 v6 e8 ~/ P3 X, `( rStream size                              : 28.3 KiB (0%)+ ?3 \' l0 _( ^- \
Title                                    : Latin American: D2 J2 ~! U% Q: k5 }
Language                                 : Spanish$ }3 S  n# v9 E/ R1 m
Default                                  : No
# u( M$ k# ]3 GForced                                   : No1 M& {- S! `+ ^. H6 x

, t+ G) ?" Y3 ]1 @Text #13
# _- p1 r4 l  _7 C7 K; v. B, YID                                       : 15
; U! U2 X& z2 m8 F4 P% Z2 O+ mFormat                                   : UTF-8
# p& g$ a( B* n2 X- h" A$ }: yCodec ID                                 : S_TEXT/UTF8
, |6 P8 ]+ ]4 a' ]Codec ID/Info                            : UTF-8 Plain Text6 E. y. `% q  o: B7 m( b3 {
Duration                                 : 1 h 53 min
) Q3 R9 N6 u: @$ wBit rate                                 : 36 b/s
( f, Y& o# `, p$ ], t: z9 KCount of elements                        : 1000+ Z% G9 K  |' b2 Z3 [
Stream size                              : 30.3 KiB (0%)
3 J4 P4 z, a6 s# ?Language                                 : Spanish
8 m# F3 p6 g9 y/ BDefault                                  : No
7 k* d/ O) V3 B$ rForced                                   : No9 O6 c  k1 Q+ h
1 p4 h% p* a- g- q( c
Text #14
/ Z, Q2 E3 U4 m# aID                                       : 16+ S9 k1 @& p) \3 \2 V% X0 D/ i
Format                                   : UTF-8: e2 c- V2 @& N' H# c. K, n- U
Codec ID                                 : S_TEXT/UTF8  ~/ E8 J9 ?/ T( V9 a
Codec ID/Info                            : UTF-8 Plain Text% E! T( p, W! ^( K: g/ M
Duration                                 : 1 h 53 min
7 z  o$ q! }+ O' z! Z% M/ yBit rate                                 : 32 b/s& F# H: U$ F: r. h% I
Count of elements                        : 981
9 x* B- \/ W3 Q) O, R! O3 ^Stream size                              : 27.3 KiB (0%)$ o8 J4 m4 t+ O" {/ O* Y! n2 h
Language                                 : Estonian
% y8 Q# k* p' z& T2 g' o# }$ U8 `Default                                  : No
$ Z! j  X3 z0 V+ \. _/ ]" R4 CForced                                   : No6 z, q( Z) ?1 \: j* C
0 Y4 k1 G! N. V* m
Text #15
" A- C' h0 V+ ~7 W, OID                                       : 17
7 \0 r8 O7 `4 `$ G* g/ _' N1 CFormat                                   : UTF-85 d7 r& b* G+ C3 P1 y6 L0 a
Codec ID                                 : S_TEXT/UTF8# z8 B$ W: H3 r' S" P2 ^- B- z
Codec ID/Info                            : UTF-8 Plain Text# H4 C8 D* ~+ ]
Duration                                 : 1 h 53 min
2 E7 G; ~: y) H5 z. K# B0 SBit rate                                 : 32 b/s2 c4 U! E( d5 `/ i/ e' _& n
Count of elements                        : 998
/ W  K9 m+ L% e) d; E1 fStream size                              : 27.2 KiB (0%)2 E" t: t4 I; {* S6 A% {  e
Language                                 : Finnish
% ~" S: f$ N  l. l, NDefault                                  : No9 S3 F! |" a- D, {% t/ ^4 z
Forced                                   : No& n, x& H$ p7 U( I' B" Y

' w1 c* F6 c2 u) v* l+ v1 QText #16
+ y$ c7 h" {2 {  ~ID                                       : 18
' S' F: Q+ s7 q! }# _0 y( C$ {Format                                   : UTF-82 Y; ^5 E. ^# U8 x, N, X
Codec ID                                 : S_TEXT/UTF8
6 h( i2 z# i5 f+ \) {3 @Codec ID/Info                            : UTF-8 Plain Text* @2 l. Q% H2 T1 t
Duration                                 : 1 h 48 min& o7 j6 e) S0 ?' m
Bit rate                                 : 33 b/s+ x1 w  ^( b& R6 n
Count of elements                        : 1150
/ v2 k7 C% j7 ~% IStream size                              : 26.5 KiB (0%)
% q# G# }$ d8 K0 C) _Title                                    : Canadian+ ]' G* Y+ O+ O$ R; M( [0 O
Language                                 : French2 h4 z. y# |; I# `. f1 l
Default                                  : No" G% |7 s  C$ g: A: e# y6 ~3 R6 f
Forced                                   : No
$ S+ G( o% @7 s2 |! G8 w5 h4 P+ {1 z$ C! F1 T
Text #17
0 X  n9 s# U. `: zID                                       : 19, B  Z+ l# R) ?6 Q( w; B- q
Format                                   : UTF-8. c. T% V& I# S: V
Codec ID                                 : S_TEXT/UTF8" J# Y1 ]7 h+ m2 y: M0 @
Codec ID/Info                            : UTF-8 Plain Text8 q" v7 U) K$ z0 I
Duration                                 : 1 h 48 min3 h% c* n9 |. L! t% E
Bit rate                                 : 33 b/s4 r( e4 I& P0 B. ]! h; n! Y* U2 ?
Count of elements                        : 1150
, ^" |( Z  g- n# r8 NStream size                              : 26.5 KiB (0%)
- ^5 Z; N, p; m" w4 P" I: kLanguage                                 : French
( i9 N2 [. `2 t. qDefault                                  : No
/ p& c) k8 d/ Z* z6 V8 o# jForced                                   : No0 Z* V% d# I  K5 a- F, W4 l
+ n) N# B! I7 s( ]
Text #18
" \0 ~. [  U/ u, }# Y8 PID                                       : 20
- U- P: Y  A, n$ I; _, }3 rFormat                                   : UTF-8
4 Q$ L" |/ B! o: C! H7 LCodec ID                                 : S_TEXT/UTF8
" @# O( J) B" \3 V' K9 M# z' \1 n# cCodec ID/Info                            : UTF-8 Plain Text  S( X; F* Y! N$ c0 w' t2 s
Duration                                 : 1 h 53 min
$ {$ o* c6 d5 R/ WBit rate                                 : 46 b/s4 N( B, p+ m- G
Count of elements                        : 1037
+ J6 a( _  ?8 {$ R& D, D/ A# g1 xStream size                              : 39.1 KiB (0%)/ J7 x  ^  r8 [
Language                                 : Hebrew
- I; z! _, ?) L0 ~1 J1 U+ oDefault                                  : No1 X, U! ]1 O% h9 p
Forced                                   : No  l7 G4 C1 W1 P' y' ], R3 s" U
3 H, m: A% d5 ^  E# {8 k& h" J
Text #19# z+ h0 Y( N7 U# W
ID                                       : 21' O6 s* z' N+ d
Format                                   : UTF-8
/ w- U" ~5 f) ^7 tCodec ID                                 : S_TEXT/UTF8
) I# J" K; y& r& @, O' fCodec ID/Info                            : UTF-8 Plain Text6 x7 L) z; K) W, F; t
Duration                                 : 1 h 53 min
) n4 p2 K  I, \; C% d: c5 M3 G% zBit rate                                 : 96 b/s
6 I- E1 d8 j7 K, Z( P: jCount of elements                        : 1039" z' B' W; N) s% k
Stream size                              : 80.6 KiB (0%)
: x! b2 \" {6 u0 @6 d, XLanguage                                 : Hindi
) |5 ~( m; h/ K5 |, [0 ADefault                                  : No
6 B* G" x0 @3 [  f0 \& R6 H5 ZForced                                   : No6 c! j8 l* b2 _3 F* u6 _

6 _' Y; _- {2 b; f3 G/ C' r0 {Text #20
9 Q/ r1 b- p1 `- w3 [! hID                                       : 22
* T; {$ I  M1 U- I, \, R# MFormat                                   : UTF-8
# B" M- G$ `1 c6 FCodec ID                                 : S_TEXT/UTF8
- U2 o9 D# Y# a1 u3 ]: S) MCodec ID/Info                            : UTF-8 Plain Text. O5 ]: f' u' w5 s" F
Duration                                 : 1 h 53 min. F: @4 i8 v/ n2 }
Bit rate                                 : 32 b/s
/ K& ]7 W9 a0 S5 T0 XCount of elements                        : 1022  ^1 p; f" e( I4 L! V
Stream size                              : 27.0 KiB (0%)
& z& L2 [; `. `' _5 M) C2 E2 zLanguage                                 : Hungarian4 M/ h; `% |5 a
Default                                  : No
8 O! m- ?& w+ U% z7 O4 aForced                                   : No3 i& b! u/ b' T$ R
% Y, ]9 |  U1 x* }
Text #21: S! ]9 M7 b; i/ o: s5 d
ID                                       : 23) X0 U2 L+ p& U  a
Format                                   : UTF-8
. v! H6 u: F' R, X6 A% ]( [Codec ID                                 : S_TEXT/UTF89 ~' ?7 z7 d, q3 x2 h% l- P
Codec ID/Info                            : UTF-8 Plain Text/ O/ e3 r& A: b1 R$ u
Duration                                 : 1 h 53 min
# ]* x$ d1 w7 e6 e4 HBit rate                                 : 32 b/s
& j5 C. z! l/ A3 x1 `( yCount of elements                        : 1023/ L3 }" _- s$ k$ [0 f) S9 U4 J
Stream size                              : 27.1 KiB (0%)
3 \7 C- F2 V! e" D8 ?Language                                 : Indonesian
, f+ O) f  F9 _( rDefault                                  : No
5 ~  _& ~1 S7 B$ V3 z2 vForced                                   : No3 F, Z3 d1 E0 S$ X+ ~4 V! o, \5 j6 y# v
8 E2 ?2 ]6 `+ s5 q' _: b$ X) n
Text #22
+ Q% }- |, b2 d( f0 C9 VID                                       : 24$ @  `& M$ e) O, S9 f* {( n+ a! H
Format                                   : UTF-8
, e  \5 L7 A5 W) s7 `, Y9 y' ?Codec ID                                 : S_TEXT/UTF84 Z& a2 |! _% k2 }$ B2 ^- N
Codec ID/Info                            : UTF-8 Plain Text
) a" Q% R8 L; u) Q6 ZDuration                                 : 1 h 47 min
. {  S/ Y" I, Q" i% E& P3 z2 Y8 ?4 _Bit rate                                 : 38 b/s
; e( g9 j: c) \0 CCount of elements                        : 1025" }0 T4 Q" k. G& p7 s) N
Stream size                              : 30.2 KiB (0%)
+ u) n. l! e* |# t3 S% CLanguage                                 : Italian
, f: n5 Q6 ^& M% V( Y8 dDefault                                  : No
1 i8 v! G( ^3 u! r) y! u) `Forced                                   : No
% Z6 H& ^9 ]$ o( ?' ?( x: C2 L' Q& Y, z
Text #23
8 M2 }  _& d# UID                                       : 25, X2 M+ D0 y9 B& r/ g* N" m9 G
Format                                   : UTF-8
+ d0 `- I8 C, J: U- ]: P: ACodec ID                                 : S_TEXT/UTF8
; d2 |; U( z0 B3 q2 fCodec ID/Info                            : UTF-8 Plain Text
" }& k3 h# A* H' y% B6 ADuration                                 : 1 h 53 min! B- ^5 C4 o5 Q5 T: k, ]6 M0 o  T
Bit rate                                 : 35 b/s
  r9 n& }. `/ J$ Z2 c5 t! I+ YCount of elements                        : 949
- O& t. p0 X4 R: o+ ]Stream size                              : 29.6 KiB (0%)
: i# V: i( m' CLanguage                                 : Japanese
, h& Y$ u: O# cDefault                                  : No
/ J. k' }& T* D4 HForced                                   : No
$ I) {' w0 W# N8 n9 b' Z6 V$ b9 V0 j$ V1 {. L' F" i$ e0 t
Text #24
0 _5 V3 M7 R) S3 w. A8 KID                                       : 26+ v9 [: k) z" l/ U. b
Format                                   : UTF-84 u% V: Z  W4 C/ F
Codec ID                                 : S_TEXT/UTF8' P/ P8 M2 z" @7 l
Codec ID/Info                            : UTF-8 Plain Text# |3 u0 b1 u; X; f
Duration                                 : 1 h 53 min
) a! }6 _4 w( CBit rate                                 : 37 b/s
/ v9 F& _0 c  ?$ @, {Count of elements                        : 1038# w1 O0 s& `, }, V6 p
Stream size                              : 31.1 KiB (0%)4 O3 g7 ]: [$ s  F
Language                                 : Korean' M( h7 H5 }: c& I+ K7 _
Default                                  : No7 H: `6 y, A+ d: C) x' O. x7 g
Forced                                   : No# I/ C, X$ e0 ^9 f2 b! }7 O

# E- h7 F; D, E) F; }9 bText #25
+ i, Z3 n; M* f% h. o& l( k/ @$ r3 d+ N/ ]ID                                       : 27
9 t9 z: I% o4 y9 }% K: WFormat                                   : UTF-8
" H0 V" J" k. hCodec ID                                 : S_TEXT/UTF8& M4 }9 o' A% r9 K1 s2 O
Codec ID/Info                            : UTF-8 Plain Text
- I  B$ X9 C& l% x9 MDuration                                 : 1 h 53 min
* j2 Z; r2 x! }4 ^  b" N8 dBit rate                                 : 33 b/s# ]- \0 A) k) A, W2 }6 n
Count of elements                        : 1007+ H- L7 N% W2 P$ W, n
Stream size                              : 27.9 KiB (0%)" R7 u/ t# h5 J8 v7 q" Y& D" x
Language                                 : Lithuanian
1 Y/ l' t$ A% J1 c! rDefault                                  : No% ^8 R1 f$ i5 a  X1 k. A5 H
Forced                                   : No. b3 j6 k$ I$ F, R9 V: k

, `) h2 R* l: V1 r8 pText #26
+ ~4 O7 h4 o+ U% QID                                       : 28" B3 t8 P$ ]9 }# g
Format                                   : UTF-8; l9 G) e5 X! i! b
Codec ID                                 : S_TEXT/UTF8
; f4 b6 [- v1 S3 }, Q: ?. B0 rCodec ID/Info                            : UTF-8 Plain Text# M4 e6 @5 Y, p( }1 Y6 e
Duration                                 : 1 h 53 min
9 `  H, `% s5 ?- ^6 zBit rate                                 : 35 b/s
' V% S# |, w! l: i4 c5 H$ LCount of elements                        : 1030, U5 o% @5 `! k) J, S! Y
Stream size                              : 29.4 KiB (0%)
3 }: d5 D$ [- P4 L+ N1 CLanguage                                 : Latvian# Y' i' j; a  f4 }. {
Default                                  : No4 c9 g% F) m. U3 \, ^1 A' y1 g
Forced                                   : No+ A8 ~5 H3 P7 x7 i
% X9 G( J& S/ ]* n2 y% b; c% b
Text #27
2 t4 }( d2 h0 M. jID                                       : 29
3 I0 x. [- O) A1 a4 CFormat                                   : UTF-8
; {8 ?  V3 p- h1 oCodec ID                                 : S_TEXT/UTF8
3 R6 n, n3 ^& [' s+ h3 B9 J/ CCodec ID/Info                            : UTF-8 Plain Text: O, z& ^2 s7 K3 C3 h5 l5 P4 R, f
Duration                                 : 1 h 53 min
7 R5 \! E/ L& A/ _% kBit rate                                 : 33 b/s
0 O7 h6 Z9 ^: i7 c* ZCount of elements                        : 1024
" k) Y" O# ?' B; f  B/ L3 Z4 ]Stream size                              : 27.6 KiB (0%)) Y& p5 j5 V+ S
Language                                 : Malay/ }/ B# `% M, p! e5 d, P
Default                                  : No
$ |" C9 o0 g$ v1 |Forced                                   : No
! i, U3 S$ p9 L9 A* o8 o6 l1 y. ^' |0 `; Q1 Q& ^
Text #289 d: |+ m1 u5 w0 c! F
ID                                       : 30
4 K8 W' n4 t0 I) }Format                                   : UTF-8% s7 n' N3 u6 w+ R. t8 s& _
Codec ID                                 : S_TEXT/UTF8
, W) K$ y( A. |1 F# hCodec ID/Info                            : UTF-8 Plain Text
- P( I/ h. c! ~8 M+ IDuration                                 : 1 h 53 min7 M, W. I9 {. O' R
Bit rate                                 : 31 b/s
: r: w) m+ m& ?3 uCount of elements                        : 990
8 G) R6 y  ~! A& P0 r( z% uStream size                              : 26.5 KiB (0%)# G. _3 m7 |! \2 r5 b9 y
Language                                 : Norwegian Bokmal
  \9 U; }: H# r  r( s( U7 _9 Y& a. @Default                                  : No
, C7 c" s$ P) j3 r; iForced                                   : No
0 I( o: w+ t; a1 c/ j; Q8 |; T/ S9 f  K
Text #29
0 v( S/ ?( N2 y, _* s6 aID                                       : 31
1 i0 D% w$ J; y1 S* }Format                                   : UTF-8
0 |' h4 t$ r9 \  ZCodec ID                                 : S_TEXT/UTF8
' o% ^5 u1 U! O, ?% v: N% q' y$ K& RCodec ID/Info                            : UTF-8 Plain Text$ H8 Z( q6 e! p
Duration                                 : 1 h 53 min
6 @& K3 c, L6 Z1 O7 YBit rate                                 : 32 b/s
9 z: Y/ c% Z; ^# j& `Count of elements                        : 995# @! B9 n6 `! r! M2 \+ C  p* j% \
Stream size                              : 27.0 KiB (0%)
+ L3 W6 W* D' z6 h* H8 s; O- ~Language                                 : Dutch* f) E5 \# q4 F8 a: r
Default                                  : No' L1 B' P: [+ S5 l9 u" f# X3 i  y6 R
Forced                                   : No3 Y% ?) i9 a2 R( \3 M

& M, N- h( s8 @Text #302 ^. {; v2 ^( y
ID                                       : 32
! `% ~6 O9 v+ H+ A: FFormat                                   : UTF-88 m2 e" q- l+ j! r. o) l
Codec ID                                 : S_TEXT/UTF8
7 X, I! g+ j0 [% _# g* ?Codec ID/Info                            : UTF-8 Plain Text
3 X& j5 E. s- S# \- A" V% H' pDuration                                 : 1 h 53 min
9 h% x# S$ b7 g( j( D( r1 aBit rate                                 : 32 b/s5 q6 Q% M$ ~* z% H& Q
Count of elements                        : 997
; o9 n! \4 C2 r9 RStream size                              : 27.0 KiB (0%)
! \$ }9 U9 D% w4 \7 [Language                                 : Polish
( o# x8 r" U+ V& F9 r" jDefault                                  : No
) [& k; ?* |& Z6 n- ^3 ZForced                                   : No8 B& j$ ]7 i1 `5 o) f7 A& k, _
* V$ }/ b. ^1 V; V! U# v
Text #31: C# n" C. D7 H4 P% o. L
ID                                       : 33' K5 p# X4 G! v/ c" v6 _
Format                                   : UTF-80 }3 k0 q% D: ~  Y4 Y; ?% V- n
Codec ID                                 : S_TEXT/UTF8* v5 x8 W5 }. x# Y# U" m% ^0 L
Codec ID/Info                            : UTF-8 Plain Text& p3 t$ ]0 \1 q% @" ]
Duration                                 : 1 h 53 min' _% _' V# {! X2 X! e6 ?
Bit rate                                 : 33 b/s1 t% B5 _9 U  U% U8 B6 F; S/ U
Count of elements                        : 1021. v; n% P) r1 A1 m8 X
Stream size                              : 28.3 KiB (0%)- M* H% h0 l  f0 V7 r1 ^3 g
Language                                 : Portuguese! g2 n' `# w$ e" M6 U
Default                                  : No7 U, H4 v* _1 |- K2 c$ N
Forced                                   : No
+ X6 y% s- d. y: u! R) H, O- R! g) y! ]
Text #32
& T0 t: h4 c, Q$ D# Y1 ]+ {1 {ID                                       : 345 k6 j$ q! E4 D& c1 u0 B" m
Format                                   : UTF-8
& O1 q# @$ G, x8 W  K! rCodec ID                                 : S_TEXT/UTF8' O2 r! l! K# m! f
Codec ID/Info                            : UTF-8 Plain Text1 B) P+ R% E* E: U
Duration                                 : 1 h 53 min
! l% M, Z3 F! y  MBit rate                                 : 32 b/s
: j. X9 M+ q/ R8 L# jCount of elements                        : 1020' [% H2 s1 s4 @
Stream size                              : 27.3 KiB (0%)
; |, z) c) a6 hTitle                                    : Brazilian& B" G$ ~2 J8 T5 G0 I# q! k
Language                                 : Portuguese6 m4 _! V5 q! h8 y
Default                                  : No
& M! f" h' F& w) A. f; SForced                                   : No8 r5 O" k1 B& X; m. R5 a( c9 k
% m% {7 T0 g- c, ~
Text #33
* v) v3 ^7 n( f: |ID                                       : 35
3 |8 E+ R& K( T) R$ DFormat                                   : UTF-8
/ p* {  w, V  P4 r2 qCodec ID                                 : S_TEXT/UTF8
9 o, l3 \) g2 r( g; M! m, G4 wCodec ID/Info                            : UTF-8 Plain Text
; s7 z& N0 F/ EDuration                                 : 1 h 53 min
+ d" m3 F& \# K4 GBit rate                                 : 54 b/s
0 `! R- p' o" ICount of elements                        : 10444 q2 I: x7 Z/ g% j
Stream size                              : 45.8 KiB (0%)
4 o7 o5 R+ d  Z  E5 ]$ I1 v& bLanguage                                 : Russian
) G, y9 ~* e3 ^% t8 eDefault                                  : No2 c, y& K; q- f0 B
Forced                                   : No8 r& T* F- c2 Y( V6 f6 n
* V) K0 H* t; M. s7 j! X, f
Text #34
0 I# v8 w; D4 l5 R, h, sID                                       : 366 t2 I% l" y; f4 G5 Q8 x$ T
Format                                   : UTF-8
4 R8 u: B8 Y. lCodec ID                                 : S_TEXT/UTF8
& d! r8 T5 b  X/ E' ~) \8 Z, \; yCodec ID/Info                            : UTF-8 Plain Text5 v1 n1 t( e) n/ F$ C) u( l
Duration                                 : 1 h 53 min
0 o! m3 M0 U$ l. J/ o( e$ p; FBit rate                                 : 32 b/s+ A+ p) F; i/ E5 F. n4 E" E  j
Count of elements                        : 10231 T% f2 ?4 e* h/ P
Stream size                              : 27.3 KiB (0%)
3 O' z: x! }+ E! o. QLanguage                                 : Slovak
2 d( }, ~" w  vDefault                                  : No
! D; n- r6 q$ E8 A% r& k+ @. XForced                                   : No
1 K, U" q  K, y) b# L% Y* y1 Z
- e% N0 I: r; pText #35
0 j! f6 a6 g2 {) L1 l" QID                                       : 37
$ u% h: g: q1 `1 _3 eFormat                                   : UTF-8
! u% H- P% a  q! VCodec ID                                 : S_TEXT/UTF8
) o$ A: Y  E: u" \$ _- p& nCodec ID/Info                            : UTF-8 Plain Text
- U% T; J, v  k; N/ p: Q8 \Duration                                 : 1 h 53 min
+ O4 ~+ P" S" H' w0 x1 B' W7 [8 rBit rate                                 : 28 b/s
, Z. @7 }3 Y6 O  e9 bCount of elements                        : 986. C- c9 R4 I2 }& p
Stream size                              : 24.1 KiB (0%)3 P$ y1 N2 u- n3 L. Q
Language                                 : Slovenian
- i* K0 g* [8 }$ c( [  }Default                                  : No. k# T4 f# x2 X/ k: l
Forced                                   : No
5 s6 V/ H( L0 E1 g. |' T3 I7 G/ h3 t1 G0 }8 s+ Z. d
Text #36& ^9 C* D; B5 N, ^0 J
ID                                       : 38) j( L+ |) I0 k$ U% e9 X  }
Format                                   : UTF-8
6 h- W% Z8 H9 S1 E+ q% ~Codec ID                                 : S_TEXT/UTF8
- o& [2 g- K: D$ K8 p1 L+ L  mCodec ID/Info                            : UTF-8 Plain Text( R+ P7 [" m- D% |  d* T9 @
Duration                                 : 1 h 53 min
! p8 E% T- y, x: ~9 c! xBit rate                                 : 35 b/s
+ p& R  Z( [$ ZCount of elements                        : 939* r% h: e3 H6 g7 l: R
Stream size                              : 29.2 KiB (0%)4 s' Z& U* @; r1 S4 ~
Language                                 : Swedish
: y& G! Y3 G4 }4 xDefault                                  : No
: w0 u: {) {" K  O  N. S8 u( g  }Forced                                   : No% g& t* @3 q8 r" G& z

& `  L4 X4 z$ V$ Y" n7 E4 o5 D3 E6 eText #37+ T! k% W* ?" ]% m+ |
ID                                       : 39& p& i# y' z  L0 A2 @
Format                                   : UTF-8! e, y% \( c3 L9 f! K
Codec ID                                 : S_TEXT/UTF86 I; ?- U+ V+ r( Y; B* H
Codec ID/Info                            : UTF-8 Plain Text1 W+ Y/ j- s  e6 h
Duration                                 : 1 h 53 min7 \. B$ L- T% N
Bit rate                                 : 110 b/s
( t3 l) @9 P) s/ y& `Count of elements                        : 10378 h0 v" F7 S$ W' r9 _# C3 K
Stream size                              : 92.0 KiB (0%)6 x$ L) z- C# z% \
Language                                 : Tamil! C6 y% E+ v3 T2 i
Default                                  : No
& y. b8 d" c! q: R0 T# zForced                                   : No
7 Z% y# M3 [% U) U4 u/ w" N& h/ X
8 U% i, Q/ }3 {* xText #38+ H1 w+ {1 a. v8 h7 J* f1 J$ {
ID                                       : 40
8 {( d. B! I+ ^7 g% I  }( RFormat                                   : UTF-8
; t( N# }7 r# ~Codec ID                                 : S_TEXT/UTF88 M- f9 W- v- M
Codec ID/Info                            : UTF-8 Plain Text
* Q& d, f- G" P5 @5 T/ ^Duration                                 : 1 h 53 min
1 o8 J7 s, [$ IBit rate                                 : 93 b/s
8 C9 H; `: l/ f! zCount of elements                        : 1037
. X, l& j: ^6 O" ZStream size                              : 77.6 KiB (0%), F+ Q6 Q0 R: }; T: B# x
Language                                 : Telugu# K8 h% q. K8 F
Default                                  : No
) p) t" t2 G# \) e: l# V  pForced                                   : No4 k# l: `- V7 n$ J9 i) B
; g  V; `3 F3 q/ _& Y3 ?# O  k
Text #39, @- t3 J* R/ q0 U2 F; D; r5 l
ID                                       : 41
9 Z- G/ C* n" w- h5 IFormat                                   : UTF-8
, K/ ]& K6 ^! g' D1 E# ^5 \- K' ~Codec ID                                 : S_TEXT/UTF8" H" o1 c* H1 Z# F3 h
Codec ID/Info                            : UTF-8 Plain Text
* v8 q) }2 B# H: K+ u. b, ]" U. IDuration                                 : 1 h 53 min/ B( g" ^- u1 K# V; ~% e
Bit rate                                 : 75 b/s" a( A  G6 a, z3 ~; R
Count of elements                        : 1037- Y* L3 r8 }/ |; ]) r5 t% m
Stream size                              : 63.2 KiB (0%)
! q# }2 U; ]- W0 @% m/ J4 jLanguage                                 : Thai
- K. d( k* N* Y7 KDefault                                  : No
. L  q' q) I  C3 dForced                                   : No# I3 B& K% e: D+ A1 c) l5 F! Z' B" x

( R' Q& V+ J! S+ L7 c9 yText #40
$ E5 M9 S  b, H% ^1 Z$ EID                                       : 42
% E+ {$ \, J: c2 _& a; T( x, g% rFormat                                   : UTF-83 T4 P) Q4 b3 }6 L$ g. S% H
Codec ID                                 : S_TEXT/UTF8. h0 I  M5 b# \# k) e5 T
Codec ID/Info                            : UTF-8 Plain Text
, b6 n7 g  M3 i3 u7 s1 g5 @) {Duration                                 : 1 h 53 min1 \( R8 D- {& p3 G+ p: ~
Bit rate                                 : 34 b/s
+ a! p+ a0 v" @: TCount of elements                        : 10204 {% G$ E3 c" H: z' n
Stream size                              : 29.0 KiB (0%)
$ P2 ]' m$ I  y6 G7 jLanguage                                 : Turkish
4 N; g; O- h+ D3 f& B. f3 d0 sDefault                                  : No
/ |* n, z# J. x5 @! q1 n. |Forced                                   : No
. J7 |: C' w$ D8 ^
4 S- ?: r4 Y" v& cText #41* a" F# A4 e' u
ID                                       : 43
. e% Y0 C) d( RFormat                                   : UTF-8
9 }* a' G, l3 H" x' Y0 }Codec ID                                 : S_TEXT/UTF8) C( p* ?$ P0 e3 f
Codec ID/Info                            : UTF-8 Plain Text
/ X8 |, e+ ~6 L3 m+ P! Z4 zDuration                                 : 1 h 53 min* c0 j3 _+ D! `1 g
Bit rate                                 : 52 b/s
# f4 \2 r# m/ RCount of elements                        : 1035# x1 ~+ B+ x- E2 q+ z9 c. _
Stream size                              : 44.0 KiB (0%); E# Q' M9 d% \& ^
Language                                 : Ukrainian
* U4 A. s2 X; K6 U# ]3 ~Default                                  : No- D, ]/ R% L4 B4 H$ E% x
Forced                                   : No; E2 i/ K1 z7 N

" R1 D9 q4 l$ t8 L; ^Text #42
7 o+ d+ i! x, m- rID                                       : 44( k" h  J! F- a1 r
Format                                   : UTF-8
' T: J% R* ^" Z7 q" v6 i3 ~8 UCodec ID                                 : S_TEXT/UTF86 s1 t2 \3 }, F1 ~1 N9 A
Codec ID/Info                            : UTF-8 Plain Text+ h( s% c- O9 c; y4 d; s" i8 U
Duration                                 : 1 h 53 min
$ I& B" F$ F* I9 h  s1 RBit rate                                 : 42 b/s
1 |+ S& Y4 k! i. D2 |3 B$ nCount of elements                        : 1023/ l$ u6 g" v9 i1 I* T3 z6 k5 c
Stream size                              : 35.4 KiB (0%); @+ Y9 I' i/ ^" W! O. m& P4 j
Language                                 : Vietnamese1 ?3 p: U# r+ h8 R8 F2 X' F1 T
Default                                  : No
# E$ U% c  Z( @8 v7 BForced                                   : No
& q# n3 x+ x; a1 K2 z. R- p
; P6 h: G: O. gText #434 p; a/ i0 t( @% o9 I
ID                                       : 45
! e9 b4 y; @- D% ZFormat                                   : UTF-8( M$ {+ {/ i+ `% R+ {/ K2 b2 |: i/ l
Codec ID                                 : S_TEXT/UTF83 s! b2 O: e& U- P8 }! a% V
Codec ID/Info                            : UTF-8 Plain Text
  E( x7 E; ~  {- [1 K$ n; f' M3 L) y4 Q3 nDuration                                 : 1 h 53 min; C" R9 e  S& G1 H+ u+ ^
Bit rate                                 : 32 b/s
4 p# R" |0 V' |0 ?! vCount of elements                        : 1039
/ A. D3 b8 [8 E7 P+ u( GStream size                              : 26.8 KiB (0%)
6 m! O7 ~2 r2 f" f. gTitle                                    : Cantonese
0 k/ w. w# `8 V# U- |Language                                 : Chinese6 K, m+ [9 j; E1 P1 I# e
Default                                  : No, B  w1 ]7 x/ v+ P5 P* g
Forced                                   : No
Video0 m( L8 E0 t  s
ID                                       : 1$ F% L: c* A# f% _
Format                                   : HEVC* d0 x% b3 Y3 J- o
Format/Info                              : High Efficiency Video Coding% G$ T1 x% P1 k( t+ T# H. j
Format profile                           : Main [email protected]@High0 a  N  w. W/ U: Y) z: h" k
Codec ID                                 : V_MPEGH/ISO/HEVC2 F7 }5 G/ V% E5 ^4 f
Duration                                 : 1 h 55 min
+ b* z5 m, W/ }! f0 P0 KBit rate                                 : 20.5 Mb/s( w6 T, _$ f& K# l( t
Width                                    : 3 840 pixels
5 e2 o/ Z& M$ w" ?% DHeight                                   : 1 608 pixels$ q4 T" `% T3 l
Display aspect ratio                     : 2.40:1
" D4 P4 [, h$ e, k7 U4 EFrame rate mode                          : Constant0 m% l, M5 S3 _4 {- ]3 P% m) r
Frame rate                               : 23.976 FPS$ L' D) \+ q9 \/ N
Color space                              : YUV6 l- U# `0 d# O! [3 B1 k
Chroma subsampling                       : 4:2:0  y, `% ^, B- D0 [% ?+ p- _
Bit depth                                : 10 bits0 @/ X; e( n. }! o+ R; M
Bits/(Pixel*Frame)                       : 0.138
; a6 A2 d, m- Y0 d$ f- TStream size                              : 16.6 GiB (96%)5 r3 H7 G. G+ e2 Z% ?  i0 U7 z
Language                                 : English7 G5 n& z3 x$ p: ?  D9 a8 }0 Y! a5 N
Default                                  : Yes. B( }" A. j, U9 S% {
Forced                                   : No. M8 o  B- k+ D; j/ L
Color range                              : Limited
7 q9 H0 L, {4 F" |3 m  BColor primaries                          : BT.7095 E6 e; _* J+ t$ Y
Transfer characteristics                 : BT.709+ n: e4 O  e1 v# z
Matrix coefficients                      : BT.709
) I% w, c3 O  W8 q8 B1 H! Q
, s& _4 c, l# R. G9 X2 OAudio* x; C$ l3 g, I3 a' Y
ID                                       : 2
2 ?$ ~/ r" i5 O$ X1 ]; VFormat                                   : E-AC-3 JOC
$ n( u8 C! }7 s8 x! Y9 K) XFormat/Info                              : Enhanced AC-3 with Joint Object Coding: Z6 f2 j# m+ p+ ^
Commercial name                          : Dolby Digital Plus with Dolby Atmos
# `3 @$ d: y$ M4 R8 d1 J" w$ NCodec ID                                 : A_EAC3* r# ^- @6 Z: |* a* B# ^8 ^
Duration                                 : 1 h 55 min! J" U! l- _8 o! N. R
Bit rate mode                            : Constant
# L1 `; C% V' i8 cBit rate                                 : 768 kb/s
) G# y  _) b# B4 f4 O0 YChannel(s)                               : 6 channels
0 J, Z: F0 T2 E; g% n; mChannel layout                           : L R C LFE Ls Rs/ F% e$ E6 f: m) e0 `
Sampling rate                            : 48.0 kHz. c9 Z4 ?: Z. u) h
Frame rate                               : 31.250 FPS (1536 SPF)
! n7 D* F# u1 O. b# P' mCompression mode                         : Lossy
/ x$ B9 a1 n6 [! ]2 \2 I3 {Stream size                              : 635 MiB (4%)- q8 U5 o# p6 j9 l) ?
Language                                 : English* a) Y" m4 R( H9 C- S
Service kind                             : Complete Main2 k7 A9 m5 K1 U+ J6 k
Default                                  : Yes
5 O7 x9 t% P9 O1 _* c8 M) VForced                                   : No
# z" g, s( ~0 j4 _1 }5 }- bComplexity index                         : 16
4 G1 x3 R! ~" I' _$ @3 |3 r; jNumber of dynamic objects                : 157 G- d& k7 X  v; k
Bed channel count                        : 1 channel
: s! A7 r  m% q4 u* ?' i+ NBed channel configuration                : LFE
6 Y3 _$ \. E. a1 s" l3 d3 k: l9 t+ }
Text #13 R( g2 q) J3 B6 u
ID                                       : 3
( N$ p* _5 V/ T8 h# AFormat                                   : UTF-8
6 P& p: R7 ]* Q/ ^3 A. ICodec ID                                 : S_TEXT/UTF8
' `- K6 T1 ], ]! a8 rCodec ID/Info                            : UTF-8 Plain Text
; u7 ]" D6 w7 k8 r+ tBit rate                                 : 0 b/s: E& M* w+ ~/ o
Count of elements                        : 0
9 V  W% [! g: q) e: Z  t' `Stream size                              : 0.00 Byte (0%)
) K3 l0 I5 [3 F. A) q* eTitle                                    : Forced" ]" G. @$ L6 D* Z, v* K0 u
Language                                 : English
0 y. c. i& r% v  r& hDefault                                  : Yes
$ ]/ a0 Z8 K% y# sForced                                   : Yes
: T0 N1 |8 F; q* T8 q" d
. r: E% `7 ^. C5 `) }Text #2
. g6 O% k/ I: `' pID                                       : 49 |8 @; q2 y% U; [* b8 ~! [
Format                                   : UTF-87 D2 a3 k! ]5 E7 }
Codec ID                                 : S_TEXT/UTF8
$ Q9 z" h  \/ t/ h# `) l5 MCodec ID/Info                            : UTF-8 Plain Text4 U: t7 x* ?7 `: z; |% C9 K, @& `6 Y
Duration                                 : 1 h 45 min
% L# T' ?3 I4 i/ h( g' ^/ FBit rate                                 : 35 b/s
. e  Z' h) K6 h- V; g0 iCount of elements                        : 986
1 q" Q3 i9 D2 o/ T  jStream size                              : 27.5 KiB (0%)! `0 y5 o  B' u, M5 F
Language                                 : English* Q3 V+ p" p; F4 g
Default                                  : No
7 `( P+ \5 j% v5 N; y# gForced                                   : No
$ {$ S' F+ e" ]9 |2 K$ L- \6 G' L) L" J3 e
Text #3
- x+ E8 [4 h2 f# kID                                       : 5
9 C8 I; C# t/ O# ?Format                                   : UTF-88 h- I7 n' M- _- @
Codec ID                                 : S_TEXT/UTF8
+ u% {" H' S. G4 V  Y' ?' YCodec ID/Info                            : UTF-8 Plain Text1 `& ~% A0 c2 n# C0 x4 T
Duration                                 : 1 h 47 min3 {; ?' h# o* d% b1 \
Bit rate                                 : 41 b/s
+ j" u3 G: t" ]Count of elements                        : 1210
; h. J0 f) ^1 o, _; kStream size                              : 32.6 KiB (0%)2 w: y: h% j; K9 S
Title                                    : SDH0 z" b- {3 ~; H- \$ j
Language                                 : English
) e* c2 S, i- o$ @Default                                  : No! `9 c9 x$ M% b$ F
Forced                                   : No
0 B( ^! q9 ?; e- T' d; \1 C0 O! a2 \  W* u
Text #4
: w  a, f9 J7 x+ h# \5 t+ z3 }ID                                       : 67 y9 o" r6 }3 O# M6 Z2 W$ X
Format                                   : UTF-8. c: N7 O4 Z. l( l  v& c6 T+ O" s2 m* L
Codec ID                                 : S_TEXT/UTF8
8 W( Y- a& T( F! C7 o; m" ^Codec ID/Info                            : UTF-8 Plain Text2 F  V/ a) T' R0 J0 }
Duration                                 : 1 h 53 min% u9 l1 q7 V" y8 w
Bit rate                                 : 48 b/s- m/ \" G& q9 ?
Count of elements                        : 1036) Y* O0 M5 o. B2 s( V/ o* X
Stream size                              : 40.5 KiB (0%)
+ ^: x- K+ n& d$ L1 d% F8 i' ?Language                                 : Arabic
: Z; \9 |  u$ C) z1 tDefault                                  : No! e/ c! o2 y$ c! I$ h" I7 j
Forced                                   : No8 [4 _4 d" B, R; K
, z  a8 v: x/ O
Text #54 h0 U1 k' O. X* c/ T: A( f
ID                                       : 79 O  U) Y5 _& V
Format                                   : UTF-8
3 _8 G8 Q- S4 F: V+ X4 V9 _4 MCodec ID                                 : S_TEXT/UTF87 Y6 f' d, r0 }6 X' t6 o
Codec ID/Info                            : UTF-8 Plain Text
5 @7 J+ _8 x7 ?4 j* SDuration                                 : 1 h 53 min
; ]7 q' u. [8 _5 RBit rate                                 : 51 b/s
. l: X7 ]* w6 R  P  CCount of elements                        : 1017
* a& x  R  i+ x9 F' KStream size                              : 42.8 KiB (0%)7 s9 [# Z. q6 y
Language                                 : Bulgarian' g/ P* p# Y' V4 @+ j- {( c! L# M
Default                                  : No" Q+ H  w# T2 i; T4 g* w% B: y* n
Forced                                   : No
2 y# K1 h( Y4 U- {& R) S3 Z% `* r+ W- A% _
Text #6- ^  o% R# V. Y$ k, u2 C
ID                                       : 8) N. @" G3 r8 L0 E6 j7 g. |
Format                                   : UTF-8% w, a  B+ `. _6 x# n
Codec ID                                 : S_TEXT/UTF8
1 [8 {8 @" X0 f$ M! @Codec ID/Info                            : UTF-8 Plain Text
4 y2 }) [- ?1 W' b! X3 TDuration                                 : 1 h 53 min7 u% ~" I2 i+ G0 X2 ^5 H
Bit rate                                 : 30 b/s
, h; X4 y* H0 yCount of elements                        : 1037
; l# q$ N' e" e, m* sStream size                              : 25.1 KiB (0%)4 l* w5 i$ l4 ~1 r
Title                                    : Simplified
/ n& v! p2 @. x# |" |Language                                 : Chinese4 c' h2 a- E2 q# c
Default                                  : No* O7 Y# \: v6 T1 T, u
Forced                                   : No
/ U0 l# T. z% d6 U2 {7 a  a$ Z9 q( v
Text #7
; t0 \" u7 ]3 {5 yID                                       : 91 r5 v9 F- s* S5 f8 t, T2 M
Format                                   : UTF-8: d" z  C5 Y! Q
Codec ID                                 : S_TEXT/UTF8- E6 w# Y1 N+ x  ]/ g
Codec ID/Info                            : UTF-8 Plain Text: j, B1 {7 f3 p3 P
Duration                                 : 1 h 53 min( K& c! J7 @4 a4 @/ Q0 H: c! V" Q
Bit rate                                 : 31 b/s
4 D. t& ^7 K7 j  y' |( @9 M6 ]* BCount of elements                        : 1039
" A' B" j  f- e+ e! L6 I3 U0 Q: xStream size                              : 26.2 KiB (0%)& c% Q; N4 x( R5 r
Title                                    : Traditional
( A8 P5 e% h6 |/ S( C5 }7 QLanguage                                 : Chinese
7 W/ i* d! N& @' ~6 K  l0 ~2 V+ ODefault                                  : No
: Z0 _/ ~1 ?! t, IForced                                   : No, K, \9 d8 }' `$ M6 a+ _* [
. D5 q- V8 o2 O( T1 c2 S4 j( F
Text #8$ b" X9 N; o! j" ?+ X7 ^9 r" ?
ID                                       : 10
4 X! L* j; O6 ]/ s7 h& p; |! ]Format                                   : UTF-8
8 @& Y) o* `' Q4 I) RCodec ID                                 : S_TEXT/UTF8, c# Q1 T) m9 I5 P! P% P" z$ j
Codec ID/Info                            : UTF-8 Plain Text
, q) K) T+ V7 e  `+ T/ T6 N6 n* YDuration                                 : 1 h 53 min7 ]: j- X% r, {$ E7 q2 d
Bit rate                                 : 32 b/s
7 x: H4 ?" ~; C+ |3 _$ QCount of elements                        : 996
* C0 a& @0 b8 ?; R( o: F8 zStream size                              : 27.0 KiB (0%)
+ p1 O* ^$ q  a! t# a* f5 y- v( BLanguage                                 : Czech. D. \* R# Q: `" M7 S0 R
Default                                  : No
7 ]7 a" M" g+ h1 Q5 I+ U) I! \Forced                                   : No
+ u" I2 `0 m  L$ w' N% f
4 i, T) P! ]( ]" L. \; E* h- ^0 RText #9
' S) m% I8 z0 g$ o0 ^ID                                       : 11
) p+ |2 x% z) l! ]; z" {% |Format                                   : UTF-8
' G5 \6 `$ c) }3 mCodec ID                                 : S_TEXT/UTF8
# Z; W) i  C2 D+ B  m, v+ G; fCodec ID/Info                            : UTF-8 Plain Text
$ m3 N8 b7 ~  U5 U* vDuration                                 : 1 h 53 min
: ~. k% ]& l9 lBit rate                                 : 31 b/s+ Y* o5 A' w" u8 J1 q, ?% Q! I, l
Count of elements                        : 852) P0 X% K. {) p9 g' g  X- P
Stream size                              : 25.8 KiB (0%)3 L5 Q8 H* S, d8 z/ j
Language                                 : Danish
) c3 l  O1 p# GDefault                                  : No
* O' N: P4 N  zForced                                   : No- x6 W( L3 U/ l$ s( E. g

3 U1 V+ T/ J/ q  G/ w- {4 M! DText #10! T0 ?& @/ w( g# p+ a: g) c
ID                                       : 12
2 [7 p  D1 Z; ~4 A6 gFormat                                   : UTF-8
: ?9 ]& L; v6 ECodec ID                                 : S_TEXT/UTF8
' x& k. W5 v% Y( W' S7 y  `Codec ID/Info                            : UTF-8 Plain Text
) }- |5 k6 H% S; {9 ~; p0 gDuration                                 : 1 h 47 min
$ F3 ~3 C1 c9 d8 j/ u! hBit rate                                 : 37 b/s0 d6 |4 A" E; P& W$ S$ L
Count of elements                        : 1038
: w* r9 I- C4 u# L# [, UStream size                              : 29.2 KiB (0%)/ k% e$ S  ^( R: c; m* |; l* M
Language                                 : German1 W+ b4 [' M$ c/ c
Default                                  : No
4 k* F$ a  n$ n! A/ W0 p' x: A' P" a1 gForced                                   : No
! V2 h* r! j; I- I6 _
- N6 `/ g' n3 d5 u' V; FText #11
4 F0 ~# k+ @9 n% AID                                       : 13
  u1 Z4 F/ A& M, @' C2 ?Format                                   : UTF-8
" C# }/ ?  I3 u5 U5 k/ k, M6 G' ~Codec ID                                 : S_TEXT/UTF8
$ Z: I/ ~1 b6 c. P. DCodec ID/Info                            : UTF-8 Plain Text
, T4 e* [  W: S; FDuration                                 : 1 h 53 min
5 A5 j8 U. H4 o& rBit rate                                 : 57 b/s1 t6 _  r6 \6 @& a' O% h
Count of elements                        : 1019
. K$ w& M! H; H& [Stream size                              : 48.0 KiB (0%)
0 t: u  {6 ?! a! _! fLanguage                                 : Greek0 Q# X; H4 M1 A/ E) N! ]7 m
Default                                  : No2 D4 W4 G; h" q. M  N% z) I
Forced                                   : No4 y+ u* R# C: @3 V3 ]

- U( F7 L/ d: _' j4 T" l. Q+ ^. SText #12
  h% v& D% o- g' W5 J" l7 SID                                       : 142 d8 Y# F# E2 n! s, G/ r
Format                                   : UTF-8
$ e/ p! o# k: m% c- W5 uCodec ID                                 : S_TEXT/UTF87 s$ j% z: g4 g6 g* y4 u
Codec ID/Info                            : UTF-8 Plain Text% W5 }) v$ j; j$ \3 h; r5 i
Duration                                 : 1 h 53 min
/ A: ]5 P: v/ O" g. c+ xBit rate                                 : 34 b/s
9 i7 H% N7 A' ?% `Count of elements                        : 1009
8 H' Q7 t( L. m8 P7 @/ g2 JStream size                              : 28.3 KiB (0%)
4 D6 D- i! g6 yTitle                                    : Latin American
1 A$ A# x2 A! ^Language                                 : Spanish
+ b* }, `& ]& kDefault                                  : No
5 I& ^" C+ k7 a6 A' @. CForced                                   : No
# G6 {8 ?! X  u4 }7 E
7 s( k; S1 W+ m1 j+ _. {# d/ M' F- e6 ?Text #13
( O7 M+ m) T  \4 a) ~ID                                       : 15
4 w0 l$ t8 [+ Q3 ]+ x8 HFormat                                   : UTF-8
2 A# T  T/ K# T5 w1 I5 `0 `. sCodec ID                                 : S_TEXT/UTF8' P) Z( M/ o5 b0 m. t
Codec ID/Info                            : UTF-8 Plain Text5 f  Z# `8 A; W# `8 ]7 n3 X* M1 L
Duration                                 : 1 h 53 min
! P8 f9 `" @& _$ L# Z* dBit rate                                 : 36 b/s- B3 G! @( a1 G) @3 }, _9 _
Count of elements                        : 10002 I" `" X) v1 _8 j1 w
Stream size                              : 30.3 KiB (0%)
% \- W. L) I8 n1 |Language                                 : Spanish
' u( C& ^9 e+ k/ C) nDefault                                  : No1 Q/ t: o1 q, x% J9 w# _
Forced                                   : No
1 ^) y- x* e- a) `' D( ?, ~! U8 ?  ?) g" m* ]# v+ v; f, }
Text #14
: G4 U7 H4 r- B+ [$ KID                                       : 16
1 p% Y1 t1 p* {; h. [! @$ w! BFormat                                   : UTF-8
* Q- \8 _' ?, q2 \+ }- jCodec ID                                 : S_TEXT/UTF8
9 r: g. t& ?0 H" dCodec ID/Info                            : UTF-8 Plain Text
& m% f# x3 h7 v  eDuration                                 : 1 h 53 min; `( O, v; t9 c
Bit rate                                 : 32 b/s
9 D5 ?5 c) L3 s1 E6 c( `Count of elements                        : 981
9 Y' j# m. \! m* \Stream size                              : 27.3 KiB (0%)
7 j4 x3 W* F3 e, @Language                                 : Estonian4 F3 E% W9 a# w7 l+ Q
Default                                  : No
% i2 U' V, w- v) v! E2 [: y* uForced                                   : No
8 o, I1 A2 X, }0 D/ ~8 c* E5 h, z& E) D' N4 I; c
Text #15
! |- Q/ e/ L+ k+ OID                                       : 17
( V" a+ W, H% y* b; @& K* rFormat                                   : UTF-80 ^- E- T6 i5 `3 G
Codec ID                                 : S_TEXT/UTF8! h9 q  y/ R8 P# h3 b! |
Codec ID/Info                            : UTF-8 Plain Text* @8 Q8 }) [7 F: l
Duration                                 : 1 h 53 min
4 `* \' M( m3 t# D& s5 d! I" gBit rate                                 : 32 b/s
( m0 D. I' n8 w( nCount of elements                        : 998
) q, Z) p. ?) _# m8 f8 vStream size                              : 27.2 KiB (0%)
! t6 P& G  C  N; Z# {Language                                 : Finnish4 P& s) [  S5 m1 s
Default                                  : No% N9 a5 U1 A6 P+ m$ T, H/ U% a
Forced                                   : No% s4 r9 a5 S! C

4 b5 B2 G5 q( b" P. NText #163 t$ y/ ~5 o; {: @( [
ID                                       : 18  U; s8 _) ~& f2 b
Format                                   : UTF-8" C! F. s/ a9 r7 _7 Q. M
Codec ID                                 : S_TEXT/UTF8$ c6 |4 C: ~1 i/ V; H
Codec ID/Info                            : UTF-8 Plain Text
- a4 u) `) w* oDuration                                 : 1 h 48 min
0 z7 c6 o! p9 `3 d9 D# LBit rate                                 : 33 b/s
; p" K% }# j$ w2 l/ yCount of elements                        : 1150
/ f0 }( p4 E- [1 f$ PStream size                              : 26.5 KiB (0%)& L# h" m% K# R7 V
Title                                    : Canadian: d( s% g7 M9 v5 R9 `1 D
Language                                 : French, e$ s8 g1 a. R( q$ Y3 {
Default                                  : No% r& h0 N, i0 f* y7 M; }! j# I
Forced                                   : No
: G& I% |" R5 U* M2 K- Z* j5 ~0 R4 K3 {+ a
Text #17
9 x; y; K" n+ tID                                       : 19" V/ j# f' N. ?) I9 a# H! j
Format                                   : UTF-8
# q1 _1 M7 F- ~! z. DCodec ID                                 : S_TEXT/UTF8
% s  T4 u8 H9 ~Codec ID/Info                            : UTF-8 Plain Text: ~5 \) \! ~" o; F! P
Duration                                 : 1 h 48 min6 x- [, Z5 S! ^4 Q4 u
Bit rate                                 : 33 b/s2 G, O. z9 \. B! [5 S; V& V
Count of elements                        : 1150
* y8 H0 _2 g: l9 |7 wStream size                              : 26.5 KiB (0%); Q' F5 K1 `: v6 }: h
Language                                 : French% q6 _/ b0 s: T3 N+ w+ O
Default                                  : No
& V5 |" z# w# a. A: }8 yForced                                   : No7 H4 a- F& h" b1 S# L
. J8 c, ?: Q9 X+ U; ~; ~3 K
Text #18
) Q: B7 ]: [( Y; V" [; oID                                       : 20# W4 Q0 z6 e6 ?' ^
Format                                   : UTF-81 G2 l; Q% ]: K* a' \
Codec ID                                 : S_TEXT/UTF8
8 R9 X. V5 R7 F+ T* @0 b0 w' g, |Codec ID/Info                            : UTF-8 Plain Text
( K4 r$ ]' v) P0 y$ jDuration                                 : 1 h 53 min% y/ k- ^, I8 J2 p5 p
Bit rate                                 : 46 b/s
& d6 L$ k: G: NCount of elements                        : 1037
+ b) \9 O/ Y3 s" W9 y6 s" K. lStream size                              : 39.1 KiB (0%)
- ^, s6 \9 C5 T( `0 PLanguage                                 : Hebrew  O3 [* B6 O. e
Default                                  : No2 x# X  ^9 P4 W. ^) F1 l
Forced                                   : No+ T: J1 w7 o8 U) k# Z6 ?

  N4 O2 s6 c  Y) V7 q6 mText #19
! i. G- ^$ U- }0 X1 w# kID                                       : 21
/ a  }7 a0 O* u6 MFormat                                   : UTF-8
/ K/ `# h' r* @& G9 uCodec ID                                 : S_TEXT/UTF8" i% Y/ r4 ^4 I# p2 n( q  g
Codec ID/Info                            : UTF-8 Plain Text
! r) E+ ^2 J% V" h/ s. bDuration                                 : 1 h 53 min) V1 E$ N& ^6 c
Bit rate                                 : 96 b/s
" h) ^- U' |* V( k. ~  L1 r7 M  y/ DCount of elements                        : 10394 S# u. S2 V- c
Stream size                              : 80.6 KiB (0%)
% u$ k6 q5 h% G$ ]. L  W# F$ YLanguage                                 : Hindi
1 V- {3 m' g4 p$ l, m. h9 X1 gDefault                                  : No
& o% c1 U6 B2 t# v" z: CForced                                   : No3 a+ s6 h* e3 m$ w

: n9 f- m7 J) m* T( J5 _Text #204 E' Y7 ~* `" ^5 w: R
ID                                       : 22, H( _4 w$ O0 P6 K5 v  I% Y. B
Format                                   : UTF-8
! l0 u) C/ l8 L" R, J( T! y7 hCodec ID                                 : S_TEXT/UTF8
8 V+ O2 v$ |1 F, t' DCodec ID/Info                            : UTF-8 Plain Text" a" q8 e2 M3 g+ A9 T  m) K
Duration                                 : 1 h 53 min
; ]7 P8 D1 k4 ^$ ^6 B4 Z/ r! P5 A+ dBit rate                                 : 32 b/s
. J. @  |  B. r8 G9 j/ c6 b7 _Count of elements                        : 1022
7 M( q. F7 x1 ^% ^9 s- vStream size                              : 27.0 KiB (0%)
9 z# O4 ~# E- b' ?4 _; \Language                                 : Hungarian# j" B; q- s. q% s
Default                                  : No
7 [& ^- ?% Y& sForced                                   : No
: }) N0 m2 G) @4 o+ \( `: b2 I% q1 C; I/ j& ~9 A
Text #21; j, s0 V, i6 [* K
ID                                       : 23
0 W% V1 G5 ~% H5 [1 R. uFormat                                   : UTF-8
( ]* Z9 k! [; xCodec ID                                 : S_TEXT/UTF8$ C! e5 m! _$ P$ \, c
Codec ID/Info                            : UTF-8 Plain Text
: z( k* {, _- KDuration                                 : 1 h 53 min9 m7 J( v5 r  d& X5 X# f% K) h8 I
Bit rate                                 : 32 b/s
4 V. @: j# w- F, k- b0 i- R0 mCount of elements                        : 1023
4 k8 o9 @" [) ^, h" ZStream size                              : 27.1 KiB (0%)  e4 Y" e2 B9 M( B9 v- a
Language                                 : Indonesian7 Y1 E/ p- s5 I7 |
Default                                  : No, b/ J+ q# r! F
Forced                                   : No" b7 j% j6 Q/ C' F) N# |  M/ \- o
& M, g# `8 w- ~$ e
Text #22. p  S; Z+ a, q+ g- n$ V
ID                                       : 24
: ~) m: N' x. `! |% r* y9 bFormat                                   : UTF-8
* S1 g& @& Y  S5 |/ _8 _" e/ k* xCodec ID                                 : S_TEXT/UTF8
' I6 }$ W2 g8 f: b  yCodec ID/Info                            : UTF-8 Plain Text, }% O/ _8 P& S  k' ^$ u
Duration                                 : 1 h 47 min( h" L  F9 A, T" r- }
Bit rate                                 : 38 b/s/ ^$ s! n, n% [" ~& }8 [$ T2 B7 N
Count of elements                        : 1025
  k0 }& H3 V. F5 z. G4 }Stream size                              : 30.2 KiB (0%)9 r) Z4 |  H( ~, s* B' S$ k$ M
Language                                 : Italian
$ F  E8 u1 @: HDefault                                  : No
" _% Y; i! G( r9 j6 S( ZForced                                   : No1 q: R# G- _. A) X

% ~1 b- T* I6 Z% B% I! SText #23
3 U  L( f0 ~, w( e2 ^ID                                       : 25; ~  Z+ J% f" D
Format                                   : UTF-8, i$ `+ l  J; |  m. B8 e/ I9 Y
Codec ID                                 : S_TEXT/UTF8
  O7 u0 }7 ]4 \' u; H/ X4 XCodec ID/Info                            : UTF-8 Plain Text' x& G2 Y/ W! q; Y+ `" }3 @
Duration                                 : 1 h 53 min% S4 N+ I* Y$ _! h, s5 s
Bit rate                                 : 35 b/s
6 h* m2 s7 r  E& y% Q# w  \' Z, ACount of elements                        : 949
" _& J; \& d! YStream size                              : 29.6 KiB (0%)
3 r4 t6 m/ ^7 I7 i# WLanguage                                 : Japanese. C4 J6 d2 T* ~" y" Y
Default                                  : No
, Q2 a) S: j- o$ l: j3 TForced                                   : No
3 ~! z( ~5 R* V( e) M7 R8 r4 }( h+ L* ?$ j6 v9 \% J7 z
Text #24" K9 Y3 m6 _, g3 e( C
ID                                       : 26) Q1 f8 W1 b( e3 ]) p8 `3 g: a* b
Format                                   : UTF-8
5 K1 w- `& o5 ?; H2 ~Codec ID                                 : S_TEXT/UTF8
& k7 G6 h/ ?6 w1 P, |. `$ w! [Codec ID/Info                            : UTF-8 Plain Text3 s' ?' C2 q$ b0 X: N" U* M" ~
Duration                                 : 1 h 53 min
; R+ s+ J5 c) zBit rate                                 : 37 b/s
6 M) t2 O. {7 u" h5 g) VCount of elements                        : 1038+ L6 {" {! j# X. i# k
Stream size                              : 31.1 KiB (0%)! `2 q% d% h! U: `  d
Language                                 : Korean
+ N, B' h( A) \% BDefault                                  : No, C) ]9 s+ I) z" ?* j8 g
Forced                                   : No
  S8 q+ P) [; s
; g* }* l) {4 j6 i9 XText #25
- d7 \1 b  h, ]# l# d1 u" J& EID                                       : 27, C5 [1 j% a5 h' N+ ^1 o0 f
Format                                   : UTF-8. K3 Q& k, V  X
Codec ID                                 : S_TEXT/UTF8
3 u/ P- S3 F# J$ k8 Z1 S/ r, e7 hCodec ID/Info                            : UTF-8 Plain Text
+ x7 _( `6 _2 Y0 vDuration                                 : 1 h 53 min& B. h/ b& |& r! H( P/ e+ w/ O
Bit rate                                 : 33 b/s
) E+ Z0 I) f$ j" b9 k) gCount of elements                        : 1007
/ N  D0 b' E. R% yStream size                              : 27.9 KiB (0%)
+ K' |1 d. e+ j; s- zLanguage                                 : Lithuanian  k$ z4 U% y) m- _- ^2 f& s
Default                                  : No# f. W% }# m" [4 D# p# C- }
Forced                                   : No1 |% G2 w. \5 G  @7 Y& \; _
- k, r3 A3 D% Q4 F5 a5 z
Text #26
. m. y; r- l" }5 VID                                       : 28
8 y6 z+ I9 e5 m, vFormat                                   : UTF-8
8 V7 A9 ?2 V3 U6 V+ `9 H/ JCodec ID                                 : S_TEXT/UTF80 V. {! j" H0 x) r' N
Codec ID/Info                            : UTF-8 Plain Text3 v) F) _) o# y- o8 b5 H
Duration                                 : 1 h 53 min
% T. X6 A3 b( ]' C( MBit rate                                 : 35 b/s) L- i( t% q1 Z2 l
Count of elements                        : 1030, L) v1 |$ l( ], U- O6 d
Stream size                              : 29.4 KiB (0%)9 Q3 L7 d: B& o2 f8 \3 }
Language                                 : Latvian7 K+ h7 Y' O% T4 b2 y
Default                                  : No
9 k$ j1 z; G6 x, n* G) MForced                                   : No! j) ]* d# V4 ?% a1 R
6 H" U2 O% w) \8 S
Text #279 i5 B2 R+ B  a* ?1 u3 f
ID                                       : 29
' Q* x! T, X9 a7 ~4 p, S! w* BFormat                                   : UTF-82 ]5 y8 r, I% u6 s& K1 H' k
Codec ID                                 : S_TEXT/UTF8/ y$ D& [6 T& V) K
Codec ID/Info                            : UTF-8 Plain Text
; ?! D7 T8 D2 M3 L$ kDuration                                 : 1 h 53 min1 M$ p  a/ `1 d3 L! @
Bit rate                                 : 33 b/s
% m3 l+ c; w, w5 @4 B7 LCount of elements                        : 10245 `6 ~( u4 I/ E, K" L
Stream size                              : 27.6 KiB (0%)
0 D! r# i3 u  B" v. f0 Q0 GLanguage                                 : Malay8 h7 E7 Q; o# W: E
Default                                  : No
1 f) G6 i( B* |/ {8 Z; JForced                                   : No: b8 A. O% b" S' M8 R" B2 ~

. @+ C: Z5 I. Y; Q- TText #28
/ ]; {. k% z6 G, Z/ n7 w' T" uID                                       : 30$ R0 {4 \: u! C6 M! I  u  @3 e. d& p
Format                                   : UTF-8
) S7 c% \4 ]& h+ HCodec ID                                 : S_TEXT/UTF8! D  @/ n& I6 h5 l" F% e- x
Codec ID/Info                            : UTF-8 Plain Text; D9 C! @0 i2 v8 s' D1 o; s7 e
Duration                                 : 1 h 53 min0 Z! e% [; O0 T0 v
Bit rate                                 : 31 b/s
% T; U) e3 p# ~+ F- |  kCount of elements                        : 990( ^* z$ j" v) x! y: L1 J
Stream size                              : 26.5 KiB (0%)
$ ]) @+ U6 n7 r8 k# r: cLanguage                                 : Norwegian Bokmal
2 u' L4 D7 [& }! X$ g) eDefault                                  : No
  j2 Z, l8 M8 l, W. l$ _Forced                                   : No
0 l1 D  _/ |5 X7 t% |2 m5 R
9 T/ c* x2 D1 B, m; ^% dText #29
9 @9 n; s0 g9 F0 B' Q, {1 UID                                       : 31
+ J0 b; N* S# i% Y& T9 d# b" s" p0 kFormat                                   : UTF-8
  ?( ^1 Z9 y- i) TCodec ID                                 : S_TEXT/UTF8
  E; j$ M" s2 @2 Q: V# MCodec ID/Info                            : UTF-8 Plain Text
; D+ q! E6 J$ G' mDuration                                 : 1 h 53 min
: p$ S" \! e1 f1 ]  z: tBit rate                                 : 32 b/s
9 U0 |( x/ `9 L  \, {2 jCount of elements                        : 9951 ~, Y2 Q" ^- M- ]) v
Stream size                              : 27.0 KiB (0%)
2 j- D" [1 [/ S& a6 D, MLanguage                                 : Dutch& w1 l) i; Z, }: B8 T
Default                                  : No) A( P& ?  {5 S( t5 E$ m
Forced                                   : No
2 ~7 m/ E# b3 H5 v5 n
; [: N6 x0 k! lText #30+ q+ }; Y5 j: {& B- ?  B9 D7 C
ID                                       : 323 J1 ?- c- I! T  x4 G
Format                                   : UTF-8
( V" L, }6 M! ~$ H& W* @; vCodec ID                                 : S_TEXT/UTF8' F, l9 l2 m# `& [
Codec ID/Info                            : UTF-8 Plain Text5 L/ J  g$ z/ c+ X
Duration                                 : 1 h 53 min% @) k, F6 M. l4 T# @% @- B9 h
Bit rate                                 : 32 b/s
3 k' n) V( v# _  L0 ~  OCount of elements                        : 997
7 G; I  o5 @( _8 \9 N% v; e& TStream size                              : 27.0 KiB (0%)
$ ]* r) d5 c* J+ M1 x+ ^0 W& {Language                                 : Polish
, @9 u# H3 i3 p, e  s* Z3 O% ZDefault                                  : No
  a' W9 @& ~( a1 r, k4 P! V) w0 e! m' xForced                                   : No
2 t: y: ?  u1 d6 S! w: I5 O7 g! D/ D% q9 W+ \: Y7 F
Text #31
5 S& @- @4 i6 S" @/ F# dID                                       : 33
1 o* B! J2 ]" `: i9 fFormat                                   : UTF-8
( q6 h2 B" [, X( oCodec ID                                 : S_TEXT/UTF8" s! F& Y* V: R9 P3 d
Codec ID/Info                            : UTF-8 Plain Text5 g  e7 O1 c! {* z% X2 m% g
Duration                                 : 1 h 53 min( X, m' v& t0 b; ?/ ]# `
Bit rate                                 : 33 b/s
" Q( m8 |. \& _+ sCount of elements                        : 1021
& N) f( r; |/ @$ VStream size                              : 28.3 KiB (0%)4 F- `& A) T+ g  L! C& @
Language                                 : Portuguese
/ U5 j( _; |1 qDefault                                  : No
6 w+ q7 A) l0 j) z8 s$ W; |2 lForced                                   : No, n5 a4 l5 B7 t

# V+ U& g8 z: L) ^7 q+ y3 dText #32
- b$ w5 A( H9 Z2 ^5 m, C: E+ ~& yID                                       : 34
, u. ]# M! G/ CFormat                                   : UTF-88 G/ `/ u% Z; `. \; T
Codec ID                                 : S_TEXT/UTF8" f# Y5 [: F* J. g
Codec ID/Info                            : UTF-8 Plain Text
& s$ j) F' U8 E9 I: hDuration                                 : 1 h 53 min. Z9 r* k1 p4 @+ W2 r  j
Bit rate                                 : 32 b/s
- Y& m  b( r3 T$ A, LCount of elements                        : 10208 ^  P& A8 v7 f% f
Stream size                              : 27.3 KiB (0%)8 y6 r; C4 O# H" {
Title                                    : Brazilian
' f  H5 y6 U7 c. W% A- B3 K1 cLanguage                                 : Portuguese
9 P& y$ B& Q! ADefault                                  : No. x8 y4 H" I* r$ t, L- N* |
Forced                                   : No: q! o! r! O  l* P. E% A" Y' v

( E9 p$ d% B! _Text #33  m+ r3 |1 X! g1 @* I
ID                                       : 35
5 g6 m# h+ T/ W: XFormat                                   : UTF-8
- C& d! g6 k- @  o: Z' RCodec ID                                 : S_TEXT/UTF8
8 d& m1 G9 q8 cCodec ID/Info                            : UTF-8 Plain Text
; z  c5 D7 O# RDuration                                 : 1 h 53 min
" w4 Y( k$ Z9 n) [% p+ LBit rate                                 : 54 b/s7 Y; K' }( f% }7 M/ g7 _
Count of elements                        : 10443 S) Z# s2 K. g% o8 l* @0 C
Stream size                              : 45.8 KiB (0%)0 Q  A% K9 q! u+ J! D
Language                                 : Russian
+ d. g0 ]8 W" p3 eDefault                                  : No
1 g  @: A' P4 `Forced                                   : No
5 C) R+ Z( s6 [" W9 Z4 Z& L' _% U
. X: {1 Y: f7 I5 o( _* }0 I; `Text #34: G/ n( ^  @. a
ID                                       : 36. ^6 n  N0 _  u1 e- a3 U7 ~
Format                                   : UTF-8! S. q+ ?8 s: ]% n
Codec ID                                 : S_TEXT/UTF8, {2 k9 Z2 M* @7 o5 X+ o. |/ v: e
Codec ID/Info                            : UTF-8 Plain Text
. l" y8 ~  j0 T( b$ SDuration                                 : 1 h 53 min4 d# p& Z( b% ?' F6 d6 |: B
Bit rate                                 : 32 b/s
9 e* C  S- Q  y) B# z" M# SCount of elements                        : 1023# s1 f4 s# Y1 `
Stream size                              : 27.3 KiB (0%)
: y9 W! X; C% L) a! vLanguage                                 : Slovak0 w7 _$ h9 }( Q! w
Default                                  : No
, K: ]% O5 F% X4 uForced                                   : No
9 y& D7 W1 N9 v/ D. q2 {) J5 V1 f. o) m$ q
Text #351 F; I% ]( ?; A& v- m3 I. B
ID                                       : 37
$ \* k7 V# r$ ?0 z2 eFormat                                   : UTF-8% a, s% G- O, g- N$ `* {
Codec ID                                 : S_TEXT/UTF8: a) |0 j3 P* k7 C
Codec ID/Info                            : UTF-8 Plain Text
/ U3 D- h) r5 D+ e! lDuration                                 : 1 h 53 min! q# g. ]+ b. o  V
Bit rate                                 : 28 b/s! D# ?" K' W+ W: K% D
Count of elements                        : 986
$ d) T, X/ e9 q# A3 PStream size                              : 24.1 KiB (0%)
8 r' W% i; s, p  sLanguage                                 : Slovenian' T8 Q" J1 Y! B
Default                                  : No0 a# ], j- a& N9 v( K( V
Forced                                   : No0 J; ]+ }8 w' }2 C9 G) z' i2 d1 B

5 h6 G& y  E6 o1 eText #36
8 x2 `& }9 j1 E5 l8 }( z# YID                                       : 38
4 @0 O' J) H! O$ B8 m2 |' AFormat                                   : UTF-81 j' p+ k( [( U, P- P
Codec ID                                 : S_TEXT/UTF8& {) O* d' g. B2 n
Codec ID/Info                            : UTF-8 Plain Text
2 A/ m9 Q7 Z) j! P* |' Q7 `  M# H- iDuration                                 : 1 h 53 min
/ }# H- y- g6 Z1 |. G6 gBit rate                                 : 35 b/s, R" I0 P5 B4 i! S, e$ _
Count of elements                        : 939# z9 d/ Q  j3 }$ s3 E) n2 H4 j' i
Stream size                              : 29.2 KiB (0%)
2 {$ l1 ]' T! s/ t% y/ D$ Q6 }Language                                 : Swedish% w2 C+ b0 H1 _3 Q) m! [" ^
Default                                  : No- a" Q2 _# \, n, @: A4 g
Forced                                   : No# e5 `2 N! z& }8 M& `; r4 R  u

$ J! D! |5 O/ }1 o1 O/ C! WText #37+ s* s, H& _/ a0 w+ ?
ID                                       : 39
, P2 K. p. K- P( H& j: HFormat                                   : UTF-81 X! d6 t& a( {
Codec ID                                 : S_TEXT/UTF8
# g. Z0 V7 A/ X/ W/ GCodec ID/Info                            : UTF-8 Plain Text
5 o0 f% W3 Q4 e- b2 }3 D4 qDuration                                 : 1 h 53 min
0 ]7 ^& V4 g0 K5 o1 XBit rate                                 : 110 b/s
7 H5 e4 p& W) l4 O/ vCount of elements                        : 1037
' G2 e( ~8 k8 x8 V4 W6 o- |Stream size                              : 92.0 KiB (0%)
8 K* Y& W) ]% R# X# \2 uLanguage                                 : Tamil4 F% n$ t4 t$ o1 `# |" x7 \+ w0 L
Default                                  : No
4 D( M' N! Z, C/ I( R8 iForced                                   : No( X) Q1 D; {9 _$ l+ Z( ~4 X6 w/ f
- n& t$ J/ m1 x9 E. h
Text #38
5 |% y% ^, g1 @* Q: WID                                       : 40
. t1 q! Q: F! n% [+ q1 kFormat                                   : UTF-8& N0 M6 t" r. D, ^3 w( W1 i1 Y
Codec ID                                 : S_TEXT/UTF86 Q7 f, |& P) W) Q. V5 [: ?: Q) j) R
Codec ID/Info                            : UTF-8 Plain Text
6 p  X" p  `" |3 u. u/ \+ kDuration                                 : 1 h 53 min: G' {  h4 _, e  F2 P- W
Bit rate                                 : 93 b/s* E8 K6 ?* W+ [0 b" g
Count of elements                        : 1037
5 ~5 A+ \! F8 _6 {2 ?- i' Y5 h( fStream size                              : 77.6 KiB (0%)
7 V* m+ O+ V; X) k: H) [$ `Language                                 : Telugu
- G' ~; _" w$ \" G  |. \Default                                  : No
% O8 |/ o0 l5 I% L) g( d. tForced                                   : No& f# }4 ?9 r6 u& S9 l0 ^3 b2 ^( h
' U. j1 ]" o0 {! }
Text #392 S! m8 j8 U7 w2 [2 x5 o2 X
ID                                       : 418 u9 L7 N& b2 S1 Z4 _
Format                                   : UTF-8
- W( Y8 X5 u9 s. i3 ZCodec ID                                 : S_TEXT/UTF8* ^( }7 L  Z2 t" q/ |. u
Codec ID/Info                            : UTF-8 Plain Text( N3 n# ^/ e7 u; j) s1 M
Duration                                 : 1 h 53 min' O6 R/ q5 R* N9 t' d) ]
Bit rate                                 : 75 b/s5 W! Y7 [# m, t# w1 v1 G5 _
Count of elements                        : 1037
; N0 f* S! v/ h; q+ l" uStream size                              : 63.2 KiB (0%)% S% k: b' a2 F( R% P7 I
Language                                 : Thai. z  p# l* O3 a
Default                                  : No1 ~% M: h9 H# [4 a6 x* K0 d: H
Forced                                   : No5 ^9 X- O. G2 Q( k. ?

% E8 \! v6 ~) v0 Y* }1 LText #40' T' Q) J, M1 ~# I+ C3 w/ Q, C* r% E4 ?
ID                                       : 42
4 }8 }! C' w% ^, CFormat                                   : UTF-8
6 O4 H3 i# a' v# g2 S( O6 X) UCodec ID                                 : S_TEXT/UTF89 o. U: y$ P# |" w# V
Codec ID/Info                            : UTF-8 Plain Text/ o( u- i2 }4 A/ m# F, J
Duration                                 : 1 h 53 min
9 Y- J2 j- n& ?+ pBit rate                                 : 34 b/s9 i+ ~5 F9 A- E  }7 U) K' Y
Count of elements                        : 10206 Q+ q; d. g* c: B* ]1 [! F
Stream size                              : 29.0 KiB (0%)
/ {# N. X* K/ f5 x$ T: k9 FLanguage                                 : Turkish
4 @2 ~/ T/ h$ oDefault                                  : No  u9 C6 }  g* g
Forced                                   : No
) w- Q7 X$ V9 \0 u. i4 E* C8 V
' c3 S& z9 t" y6 P# YText #41- Y# a' a. o! B! o
ID                                       : 43
" B/ n0 i5 Q% E. R0 XFormat                                   : UTF-88 v. a- q" T$ J) t  w' N; {
Codec ID                                 : S_TEXT/UTF8% ^8 p9 O% c, h/ u4 {
Codec ID/Info                            : UTF-8 Plain Text
! O& P& e' R* i6 @9 B& ]Duration                                 : 1 h 53 min
: @5 w: T. ?/ X& l+ CBit rate                                 : 52 b/s2 C4 G- n8 T7 J! X1 L& \0 n
Count of elements                        : 1035( Q/ ]! ^7 i7 b! Q4 _+ b
Stream size                              : 44.0 KiB (0%)- I  V1 M; U6 l  L- J
Language                                 : Ukrainian" X1 J& M. ?" R1 J4 U; n
Default                                  : No
7 d1 S1 F. M, e6 V( xForced                                   : No, K& Z: b' g( L$ F/ C

7 v5 V5 G1 p0 J5 Z! ]Text #42
6 b# S- b- ?2 F* _ID                                       : 44
2 Y/ ^8 H! w+ s! n; ~Format                                   : UTF-8
3 {" C+ b$ v/ U4 p; @Codec ID                                 : S_TEXT/UTF82 ?" g/ K. }& T' @8 n" X
Codec ID/Info                            : UTF-8 Plain Text/ D9 _( s. q* Y
Duration                                 : 1 h 53 min
7 o' _9 O& J* BBit rate                                 : 42 b/s; `" K1 [* I7 a& h% \# U( S
Count of elements                        : 10231 `% L; i' a% X' X! x
Stream size                              : 35.4 KiB (0%)# G2 M& G: G5 {) f
Language                                 : Vietnamese
5 L/ p1 d6 X7 T$ F$ DDefault                                  : No3 D4 `  k4 F5 _
Forced                                   : No
6 g7 f' `1 x3 R: }9 m) Z) B( \# b6 A) x: ?. h
Text #43
% }7 _# {, }- F- {  L9 h2 o% ~' p; n/ dID                                       : 45* Y; w3 z& a0 O3 s- Y) O
Format                                   : UTF-8( d# a' H; j( K8 m3 h0 V0 i
Codec ID                                 : S_TEXT/UTF83 n( e. I. {, [; w8 H- d0 F7 w
Codec ID/Info                            : UTF-8 Plain Text
( R% k' Z: k9 FDuration                                 : 1 h 53 min( N& u3 N( K* T  M
Bit rate                                 : 32 b/s; r+ K: O3 }5 V/ t
Count of elements                        : 1039
  M8 m  W$ j+ LStream size                              : 26.8 KiB (0%)
4 J- I4 U2 O, R% q) Q! @2 ITitle                                    : Cantonese
$ {8 S. R9 e* p( ]; v$ JLanguage                                 : Chinese
# |$ ^" i8 ]5 u. ]* nDefault                                  : No* W( q) R$ Z: s) J) t* ~
Forced                                   : No

- i( C4 c4 v' \/ L5 S7 ]
游客,查看本帖隐藏内容请回复 | 加入VIP贵宾可免积分免回复 了解详情 | 还不是会员:点击获取邀请码 Invitation Code

0

主题

374

帖子

1468

积分

Sponsor

金币
58 枚
体力
655 点
sebarstean 发表于 2021-11-5 19:56:57 | 显示全部楼层
每天都来蓝光论坛看看,我爱蓝光电影。! ]) b/ T( f7 \$ x3 U& a! z
The decisive Replies sink is I get the sinking feeling great sense of accomplishment!& u* n! e5 {8 J( S7 [( M9 H0 \: J" y

0

主题

56

帖子

420

积分

Sponsor

金币
37 枚
体力
259 点
hardyzhang 发表于 2021-11-5 20:46:39 | 显示全部楼层
汤姆汉克斯,偶像啊

0

主题

46

帖子

1万

积分

蓝光评委

金币
4585 枚
体力
6530 点
icatang 发表于 2021-11-7 13:53:10 | 显示全部楼层
每天都来蓝光论坛看看,我爱蓝光电影
哈哈哈哈哈 ...

0

主题

56

帖子

379

积分

Sponsor

金币
58 枚
体力
197 点
xingfu 发表于 2021-11-16 20:39:34 | 显示全部楼层
每天都来蓝光论坛看看,我爱蓝光电影。6 u- q3 q' y6 q# t- j7 f1 `
Bluraycd.com movie updates really fast, also did not release issued, whether you believe it or not, anyway, I believed!

0

主题

200

帖子

829

积分

Sponsor

金币
4 枚
体力
449 点
90years 发表于 2021-11-17 12:54:40 | 显示全部楼层
非常喜欢这类片子

0

主题

78

帖子

419

积分

Sponsor

金币
57 枚
体力
206 点
QQ
vivaking44 发表于 2021-11-17 16:24:25 | 显示全部楼层
感谢大佬分享优质电影

0

主题

101

帖子

620

积分

Sponsor

金币
6 枚
体力
397 点
138092291 发表于 2021-11-18 18:33:27 | 显示全部楼层
谢谢楼主分享

0

主题

120

帖子

1143

积分

Sponsor

金币
367 枚
体力
479 点
XN15 发表于 7 天前 | 显示全部楼层
民代表大会常务委员会第五次会议上被任命为江西省人民政府副省

本版积分规则

小黑屋|Archiver|蓝光电影资源网

GMT+8, 2021-12-3 00:37

Copyright © 2001-2022, Tencent Cloud.

快速回复 返回顶部 返回列表