BluRayCD Forum

 找回密码
 立即注册【分享大片】
查看: 189|回复: 18
收起左侧

[科幻恐怖] 毒液2:屠杀开始/毒魔:血战大屠杀/猛毒2:血蜘蛛 Venom Let There Be Carnage 2021 1080p AMZN WEBRip DDP5.1 x264-alfaHD 4.97GB

[复制链接]
论坛网友
论坛网友  发表于 2021-11-7 04:38:19 |阅读模式
% ~; y4 N6 N, a( z+ m
; M; o2 a) Q: c" v& q
◎译  名 毒液2/毒魔:血战大屠杀(港)/猛毒2:血蜘蛛(台)/毒液2:屠杀开始/毒液:屠杀开始/毒液:放纵屠杀/毒液2:屠杀将至8 H) o5 l9 L0 I7 z2 v) y: R
◎片  名 Venom: Let There Be Carnage / Venom 2
! E' L& ~  R% i◎年  代 20213 C3 q$ @7 k- y, }  l
◎产  地 美国: R$ q: O) T3 x- o
◎类  别 动作/科幻/惊悚% Z* B: x) I8 _  V! |" I1 O" ~
◎语  言 英语! w" E! a8 l8 f
◎上映日期 2021(中国大陆)/2021-10-01(美国)/2021-10(英国); [% D9 v0 [: [1 H# r) ]8 w
◎IMDb评分  6.3/10 from 54,915 users
2 g/ B$ z1 Q( K  l: {8 r◎IMDb链接  https://www.imdb.com/title/tt7097896/( q8 k6 T& n6 c) U- a1 C1 z
◎豆瓣评分 5.7/10 from 13,702 users/ T' \+ |. o6 C5 \4 Y
◎豆瓣链接 https://movie.douban.com/subject/30382416/7 R+ r6 Q4 T4 z/ {- ?
◎片  长 1 h 37 min, l. I/ ~& o& b6 W
◎导  演 安迪·瑟金斯 Andy Serkis
7 L! ~5 ~- n. s) \# Q! J( L8 p◎编  剧 凯莉·马塞尔 Kelly Marcel+ E, H# ?$ X" h( g( h! k
       汤姆·哈迪 Tom Hardy9 a, o2 }* c+ a. h/ Z3 b- y, D
◎主  演 汤姆·哈迪 Tom Hardy
3 A  Y/ h7 M' Z/ x5 C7 c* d       伍迪·哈里森 Woody Harrelson
! ~: h) {; B  e+ R: w% O8 }       米歇尔·威廉姆斯 Michelle Williams
) A) R5 ^+ v9 A  Z- }       娜奥米·哈里斯 Naomie Harris
4 M" t- _! |3 d- N" f* f% V+ ?+ w       瑞德·斯科特 Reid Scott
3 @/ u+ n* D  r6 [1 o       斯蒂芬·格拉汉姆 Stephen Graham' a2 \1 w5 U$ p7 J+ J9 y
       汤姆·赫兰德 Tom Holland
$ |8 S  X  f# J       里斯·谢尔史密斯 Reece Shearsmith+ W4 k% y4 X* t& K' D* ?
       肖恩·德兰尼 Sean Delaney
8 h% w% q" X: \& j       佩吉·陆 Peggy Lu
1 e' ^. V5 W* `  S       劳伦斯·斯佩尔曼 Laurence Spellman" `. |7 M  J  z' y. K) X- m4 N5 l: p
       杰克·班戴拉 Jack Bandeira
5 W5 s+ a( b5 N" B; s* T% H       斯克鲁比斯·皮普 Scroobius Pip5 W% C$ d, B% O# `' w- ~
       阿姆·阿勒卡迪 Amrou Al-Kadhi
* [7 T8 A* k5 F       斯图尔特·亚历山大 Stewart Alexander  v/ }) A$ f  c9 h! h( i
       克里斯托弗戈德温 Christopher Godwin
0 I% C1 C7 F6 b, v2 B! q       格雷戈·洛基特 Greg Lockett' {3 Z+ m$ Z& ^' Z: H5 _
       桑尼·阿什本·瑟金斯 Sonny Ashbourne Serkis
* a% b0 i) a9 _       雷切尔·汉德肖 Rachel Handshaw
8 I% Q' K4 o0 m/ R       小田部阿基 Akie Kotabe
/ R. j3 g: G5 V' ~  I       埃里克·西格蒙德森 Eric Sigmundsson
  i, Q' m4 K) u, p       何塞‧帕尔马 Jose Palma- J5 ?) t1 o& F, [# O# E2 F4 c
       Rosie Marcel
, U# O; b) I. ?$ k       艾略特·凯博尔 Elliot Cable! n) _6 x9 C1 \) |9 M" ~
       威廉·W·巴伯 William W. Barbour
8 I$ A" _: Z" g5 u  c" b5 |& ^       埃尔文·费利西达 Erwin Felicilda3 {- b- Q  K# \
       露丝·霍洛克斯 Ruth Horrocks
* |' [( l% `' P( H' s7 G2 n       约翰·洛巴托 John Lobato, \. l5 e8 K. F: H
       迪索·拉莫斯 Diezel Ramos* L3 E7 s# d+ o( p8 L" V4 a4 t
       迈克尔·安德鲁·里德 Michael Andrew Reed$ e" H, h0 |- q- s, ~, C3 a
       里克·理查森 Rick Richardson
$ h5 K" ?, r4 ]- e' W       安珀·西耶娜 Amber Sienna
  l: l2 o, ?, y( W0 |       艾蒂安·维克 Etienne Vick* ?2 a3 V# I8 U' Y
       杰茜·维宁 Jessie Vinning
% W; X3 v! m  u" B" g: [0 q( U: ?3 m6 c* Q  [! O
◎标  签 漫威 | 毒液 | 科幻 | 超级英雄 | 美国 | 动作 | 2021 | 漫画改编
7 D# p2 q* {) o+ E  s' R) q* u& m( v% Z1 X
◎简  介   - @  \5 S! T, k, o2 n: _. z1 b; s

( ?, U4 w" F& `! ?9 I/ q, @6 J9 |  电影讲述了外星共生体“毒液”与宿主埃迪(汤姆·哈迪 饰)这对“最佳拍档”遇上致命反派共生体“卡内奇”(伍迪·哈里森 饰),超级英雄和邪恶反派的宿命之战即将开始。
/ e8 c/ S# ]. N2 E, b# k2 U0 G1 P4 _5 a
  Eddie Brock attempts to reignite his career by interviewing serial killer Cletus Kasady, who becomes the host of the symbiote Carnage and escapes prison after a failed execution.
: O) A' J/ S- v& m( T/ r, o1 ^
Video: r7 W0 ~; b. S! }2 T7 @$ L
ID                                       : 1
+ {/ U! J7 G; b' v6 _Format                                   : AVC
& B9 T6 s5 }5 g1 i4 ?Format/Info                              : Advanced Video Codec; S5 F. U. i. J( K7 O3 L: F0 |
Format profile                           : [email protected]" m+ ^/ e( x3 a- Z6 |
Format settings                          : CABAC / 4 Ref Frames: i0 R+ z( S! {- v5 `
Format settings, CABAC                   : Yes( `. Q+ [3 t7 Y
Format settings, Reference frames        : 4 frames
6 f0 k! c* t; W) V1 SCodec ID                                 : V_MPEG4/ISO/AVC
7 ^' }6 S; ~9 xDuration                                 : 1 h 37 min0 Q) O/ M2 f9 ^, F: h/ W5 Y
Bit rate mode                            : Constant: V# Q: ], b- q2 D( o) y
Bit rate                                 : 6 654 kb/s
2 {1 u8 S* c) D9 N. K/ `2 K9 _) H7 N9 sNominal bit rate                         : 10 000 kb/s2 b  X: K" \: E/ `* X* s; {* ^  }
Width                                    : 1 920 pixels. j3 z: f# G! o8 O2 [$ q) x* E
Height                                   : 1 040 pixels8 ~* V( M2 ?( Q7 V5 K. J
Display aspect ratio                     : 1.85:1
, P$ H1 Y2 z+ b0 g- YFrame rate mode                          : Constant1 W! a2 N6 j' |. X
Frame rate                               : 23.976 (24000/1001/189150) FPS- v) x; R/ j6 g2 B; I
Color space                              : YUV
+ z7 k3 {: _. b' c6 W) l* ^3 t/ oChroma subsampling                       : 4:2:0
8 ^1 F0 N9 z" G: F# uBit depth                                : 8 bits
0 a/ b% u2 h$ w5 ?1 m; v% D5 ZScan type                                : Progressive
, Z0 F- g5 N6 J9 G: ^: lBits/(Pixel*Frame)                       : 0.139
# c* Z7 N( H0 H! J% OStream size                              : 4.53 GiB (90%)
2 m8 A/ Y* T9 u# [6 R' k. VDefault                                  : Yes6 ?& o: E  M6 g( J
Forced                                   : No: z6 C, ?4 r) ?# M/ ~  h* `
Color range                              : Limited' ?( r/ d7 j3 B
Color primaries                          : BT.709/ `, t6 F9 X) |9 y0 E  E6 C) p" p9 i
Transfer characteristics                 : BT.709' }' r9 Q3 }! u- S+ P* }$ t
Matrix coefficients                      : BT.709& Q6 {; X) f) R. j1 o) ^! @* C

. Y" \- F$ k" E) ?Audio
( h7 ?  u3 X; k9 TID                                       : 2$ R% v; z  q5 V: e$ w: [2 e
Format                                   : E-AC-3 JOC
8 D9 h# ^  q( [6 MFormat/Info                              : Enhanced AC-3 with Joint Object Coding) _$ H! X4 B2 L
Commercial name                          : Dolby Digital Plus with Dolby Atmos
6 S3 C+ P4 F# e2 z5 h  {Codec ID                                 : A_EAC3
( T! g5 Y; q* I2 ^5 ?Duration                                 : 1 h 37 min
) L' M2 |0 ?: ~1 d- ]Bit rate mode                            : Constant
: b# ]" J* g; R3 R/ |Bit rate                                 : 768 kb/s( B$ w- S# D7 Y; n1 i; ^
Channel(s)                               : 6 channels2 R2 }, s; G0 `/ Q* J
Channel layout                           : L R C LFE Ls Rs5 I# v7 J0 t! c4 w2 i
Sampling rate                            : 48.0 kHz/ q& |2 Z$ x" _, I; f1 ]
Frame rate                               : 31.250 FPS (1536 SPF)7 V" x/ r! ~6 c6 |7 P' ?. R* G& Y
Compression mode                         : Lossy: r( N; ]3 C& ^/ Z
Stream size                              : 534 MiB (10%)
) J( D. J3 }6 P- R; q  NTitle                                    : English/ q, R& r1 @7 }
Language                                 : English
/ R8 H! a$ R- f2 D% S/ u' `5 MService kind                             : Complete Main
9 C3 c9 W; _! c7 rDefault                                  : No: y; r' S6 r  T! P5 Z, q* j
Forced                                   : No
" S) q  f4 ^  o8 s' h$ }- XComplexity index                         : 16& C9 i6 i2 `/ b+ ~0 L
Number of dynamic objects                : 15
; u, T- _8 r8 C$ UBed channel count                        : 1 channel+ o6 p' W. o! K) a; ^, H3 O
Bed channel configuration                : LFE
! s8 l$ n% |, p) _
& G( @0 a5 l# t" t/ s( vText #1
. D& }5 r# j/ |( J5 f6 F" }ID                                       : 3  J) d$ Z0 M9 J& [7 j1 S
Format                                   : UTF-8
+ {" H, b% T$ O$ XCodec ID                                 : S_TEXT/UTF87 e7 Q# z0 j/ f, |* I
Codec ID/Info                            : UTF-8 Plain Text
7 q- N4 M  d7 S& [) R- _1 k8 e1 HDuration                                 : 1 h 35 min7 w" n& I. L9 M, A) h
Bit rate                                 : 60 b/s  ^3 W' Z+ N1 B7 Q* C& S( U
Count of elements                        : 1495
" v5 i) o2 j  l5 I0 z: pStream size                              : 42.3 KiB (0%)7 r7 O4 x' m# B$ Z) [  b, w
Language                                 : English6 X( P8 a8 {9 C. W4 i0 W  A# U4 G9 X
Default                                  : No
. \; e3 n' p$ c$ |9 V8 ]8 oForced                                   : No
0 A3 p7 Z0 ]) W' E( N8 Z: T! }8 m7 }( Y4 Y/ ?* w: p" c
Text #2# B9 k* T" [. E% D! B  g
ID                                       : 4
3 d7 m! |* }2 X& P) ~Format                                   : UTF-8
: ?# b3 t) P2 z- H/ ICodec ID                                 : S_TEXT/UTF8- v- Z  i/ Q8 n3 e; r
Codec ID/Info                            : UTF-8 Plain Text1 ^* c. H" C) c
Duration                                 : 1 h 36 min
( n/ `! F, A7 R! Q' `Bit rate                                 : 71 b/s
% B. w5 Z& `! h$ qCount of elements                        : 1860
, _8 Q7 w; r. a5 P) ^Stream size                              : 50.5 KiB (0%)9 U% B7 m+ n9 Y% r
Title                                    : SDH0 S# @' U" J( T
Language                                 : English
3 B2 K8 L  u9 C3 C! DDefault                                  : No: ^+ S+ _: r* N. u( h5 v+ j( _2 t* m
Forced                                   : No! C" o/ D& W1 y7 }) w) {& Y
% ]8 g0 U- h6 L, c2 `3 d3 y
Text #3
6 [% n  M5 `2 \& x  f) s: ]! xID                                       : 5
6 w. G4 q& S3 ]  S$ ^1 b& hFormat                                   : UTF-8
/ x0 _7 a" L; q2 S+ x! K- uCodec ID                                 : S_TEXT/UTF8
1 M4 |' g. N' e. h+ t0 VCodec ID/Info                            : UTF-8 Plain Text# z' ~5 ]6 N! b/ T( ~
Duration                                 : 1 h 36 min7 T! {) j: r* N- u; _
Bit rate                                 : 46 b/s  ], F8 R- P% l* C4 ~) T
Count of elements                        : 10871 K2 z' ?, {) @8 }) y
Stream size                              : 32.5 KiB (0%)
8 m9 Y/ I8 y3 M; G" ~$ p, G% {& STitle                                    : Latinoamérica
2 ~' Q4 @) i/ N% n5 pLanguage                                 : Spanish) M  B( `% }' |3 u
Default                                  : No
8 \6 h  k' v5 F0 ~7 D' O) O5 QForced                                   : No
1 B7 L* L$ z+ w+ S$ }
& Z4 ~3 }' {. e5 {+ g, x0 zText #4: G( Q+ z$ p/ D: l/ x
ID                                       : 65 B( Z/ V; J; _' D
Format                                   : UTF-8
7 n; S% H2 H& aCodec ID                                 : S_TEXT/UTF8
. A& f( k% O9 o3 F( M: y4 p8 TCodec ID/Info                            : UTF-8 Plain Text
% x# V5 }. o: W3 pDuration                                 : 1 h 36 min7 Z$ s" N/ s" A. [. {  P! f, D8 c; j
Bit rate                                 : 48 b/s3 [: E. e+ K- N1 U4 q
Count of elements                        : 1099
8 Y5 Q% p6 z9 P9 F$ N  IStream size                              : 34.0 KiB (0%)
! |1 W7 i- H  |2 Q6 YTitle                                    : Espa?a
; z, J" K7 R( W$ p% e5 \Language                                 : Spanish
: c; L. g2 O5 |4 M& O: GDefault                                  : No
( h; [0 }% S4 \% s8 P% \Forced                                   : No- O0 f4 L. S) G% B: v0 Z2 Y$ |. k
/ B+ r5 w0 T9 n; E! t
Text #5
6 [5 f& R8 S. w3 b# J$ X! ]ID                                       : 7) G  m/ p$ Y. {
Format                                   : UTF-8# U+ [$ I3 [/ @
Codec ID                                 : S_TEXT/UTF8
) [/ D+ `  Q4 a, t( z7 [Codec ID/Info                            : UTF-8 Plain Text2 _! g% ?' P5 Z. z( _
Duration                                 : 1 h 36 min4 n! G1 ~# Q  M3 f& x
Bit rate                                 : 48 b/s
4 X& c" x! Z) Z6 y0 z5 LCount of elements                        : 1057. r' ^: R) D# C  i# G
Stream size                              : 34.4 KiB (0%)
7 L7 V7 M: A1 C9 Y. g0 `5 s) n. rLanguage                                 : Italian
' e: b9 @# ?5 T1 @3 K* JDefault                                  : No
, B! e* q+ N& o( ]$ B8 j9 ]: XForced                                   : No
9 T. d% S/ s1 Q
/ n! M$ M" a8 ~5 |, l" {. c& ]. LText #6
3 j; q- D5 h1 ?% e' i6 c7 ]ID                                       : 82 u  p: y6 q+ Z* O# m( _
Format                                   : UTF-8
0 I' \4 h* @6 U5 m" a( mCodec ID                                 : S_TEXT/UTF87 \3 {; Z8 e& a# ~$ y
Codec ID/Info                            : UTF-8 Plain Text/ ?. n' b& _9 s6 J* Z3 [
Duration                                 : 1 h 36 min
" E9 ~3 }$ f: n/ R3 aBit rate                                 : 47 b/s
' X+ N9 m6 C. t+ G& @- O  ZCount of elements                        : 1077' h5 i3 s( I0 Y9 ^% a) j9 T0 f/ ~& q
Stream size                              : 33.3 KiB (0%)
: j. ?4 J, D6 u4 c" E2 iLanguage                                 : Portuguese9 w* A: p5 B7 I
Default                                  : No
% w/ b7 g, p8 O9 T7 k4 RForced                                   : No+ l$ g0 E) u1 F; h0 ^% X  E

; ~& T- z8 ?, G# E6 d. [8 lMenu
) J" R7 A  X- a9 @# |00:00:00.000                             : en:Chapter 1
, X" H; w5 p  c  @6 P* l5 w00:05:25.949                             : en:Chapter 2
& W( x8 T; k6 u- L/ I00:11:33.485                             : en:Chapter 38 V( K0 a1 c3 r- f
00:18:22.434                             : en:Chapter 4' X6 R! ]7 {% a
00:23:00.630                             : en:Chapter 5- n) y7 i. w; e+ h
00:30:27.160                             : en:Chapter 6
& Y) V' H1 [' ]1 z- l% g00:35:03.769                             : en:Chapter 75 I1 w6 J9 q% j- Q  G" c( w2 ], ^" q
00:43:09.130                             : en:Chapter 83 y( f; Q% i' N( c& h! }1 `# l+ I
00:47:27.347                             : en:Chapter 9. R! P1 V, ?- N( X- l
00:54:53.418                             : en:Chapter 10" b8 M3 f9 x) q& m# c7 C
01:01:32.817                             : en:Chapter 110 G1 C/ r6 Z* Z2 M
01:06:19.478                             : en:Chapter 12
$ Y0 F8 J% D1 d! j9 q( C$ s* E01:11:49.184                             : en:Chapter 13
& |2 c1 q! Q0 [( `' W; [( T01:18:03.725                             : en:Chapter 146 _3 J# t/ U$ O$ l5 ?0 d" R
01:21:52.494                             : en:Chapter 15
0 D7 ?9 U% N& A01:26:41.326                             : en:Chapter 16
- b' }$ c, `7 o% ^4 @; {9 ~/ O
游客,查看本帖隐藏内容请回复 | 加入VIP贵宾可免积分免回复 了解详情 | 还不是会员:点击获取邀请码 Invitation Code

0

主题

26

帖子

252

积分

Sponsor

金币
107 枚
体力
90 点
xiaoshatao 发表于 2021-11-23 16:51:31 | 显示全部楼层
毒液2:屠杀开始/毒魔:血战大屠杀/猛毒2:血蜘蛛 Venom Let There Be Carnage 2021 1080p WEB-HDRip Dual Audio x264 AAC DD2.0 By Full4Movies 1.86GB [修改]

0

主题

148

帖子

769

积分

Sponsor

金币
5 枚
体力
470 点
狐狸打扮也是猫 发表于 2021-11-23 16:24:24 | 显示全部楼层
其实我一直觉得楼主的品味不错!呵呵!
3 R9 W$ e7 }( n8 t2 EBluraycd.com movie updates really fast, also did not release issued, whether you believe it or not, anyway, I believed!

0

主题

223

帖子

1072

积分

Sponsor

金币
194 枚
体力
402 点
lfvvzc 发表于 2021-11-18 15:37:47 | 显示全部楼层
姐顶的不是帖子,是寂寞!# Q# C; [, b4 @
Bluraycd.com movie updates really fast, also did not release issued, whether you believe it or not, anyway, I believed!

77

主题

3618

帖子

1万

积分

Sponsor

金币
1918 枚
体力
5205 点
lanpanshuma 发表于 2021-11-7 06:16:34 | 显示全部楼层
Bluraycd又有新电影发布了,激动中……!. L! v: z* |! `
In fact, I have always felt that the landlord of good taste! Ha ha!$ Q8 G0 r- V0 ^; L* ~( s

0

主题

56

帖子

420

积分

Sponsor

金币
37 枚
体力
259 点
hardyzhang 发表于 2021-11-7 17:01:08 | 显示全部楼层
先看为爽啊

738

主题

2423

帖子

1万

积分

VIP advanced

金币
2487 枚
体力
5556 点

公主勋章卓越贡献勋章

21cn 发表于 2021-11-8 04:27:23 | 显示全部楼层
等待蓝光版的发布

0

主题

25

帖子

363

积分

Sponsor

金币
107 枚
体力
201 点
lushiming 发表于 2021-11-8 05:31:47 | 显示全部楼层
沙发是抢的而不是占的!
2 j0 L: Y0 K' d- m) Z1 A2 G& [: xNot see, I am a novice, the inadequacies of the first Please bear with me!6 ]% M" u) N% E2 h# T

0

主题

21

帖子

215

积分

Sponsor

金币
119 枚
体力
53 点
kentitan 发表于 2021-11-8 10:40:57 | 显示全部楼层
好好好好好好好好好好好好好好好好好好好好好好好好好好好好好好好好好好好好好

0

主题

40

帖子

329

积分

Sponsor

金币
90 枚
体力
156 点
QQ
hqk 发表于 2021-11-9 20:08:53 | 显示全部楼层
最好能有字幕匹配

0

主题

95

帖子

764

积分

Sponsor

金币
93 枚
体力
405 点
QQ
dsx 发表于 2021-11-10 16:35:23 | 显示全部楼层
毒液2:屠杀开始/毒魔:血战大屠杀/猛毒2:血蜘蛛

0

主题

7

帖子

214

积分

Sponsor

金币
145 枚
体力
48 点
housong 发表于 2021-11-10 22:58:03 | 显示全部楼层
想看毒液2,虐杀狠,谢谢分享+ `- G0 r+ m- @, d$ L0 I, Q1 G

本版积分规则

小黑屋|Archiver|蓝光电影资源网

GMT+8, 2021-12-3 00:58

Copyright © 2001-2022, Tencent Cloud.

快速回复 返回顶部 返回列表