BluRayCD Forum

 找回密码
 立即注册【分享大片】
查看: 189|回复: 10
收起左侧

[4K极清电影] 信使/铁幕行动/军情谍报 [4K REMUX无损版] The Courier 2020 2160p BluRaycd REMUX HEVC DTS-HD MA 5.1-FGT 67.98GB

[复制链接]

6407

主题

6581

帖子

7万

积分

Post Share

金币
14984 枚
体力
21119 点

卓越贡献勋章

黄金嫖客 发表于 2021-11-8 05:07:15 | 显示全部楼层 |阅读模式

( V$ u- ?- D) V$ W" Y! c# W; i3 a+ C$ D" P) w9 X2 ^# Z
◎译  名 信使/铁幕行动(台)/军情谍报(港)/情报人员/铁皮木: W% E/ U% X/ D" _4 t3 Z- r1 B7 Q$ x3 \
◎片  名 The Courier / Ironbark3 B8 Z( c! {2 K
◎年  代 2020
3 ^) h5 Z/ a( I  w$ [5 y- {◎产  地 英国/美国) X9 S2 a0 S9 i- X* p9 e
◎类  别 剧情/历史/惊悚/战争8 }- D4 j8 l+ a+ g
◎语  言 英语/俄语
+ c4 [, c) p2 y& n' I+ l◎上映日期 2020-01-24(圣丹斯电影节)/2021-03-19(美国)/2021-05-17(英国)
4 B4 z8 Z- F% z  y◎IMDb评分  7.1/10 from 38,330 users
* ~: }* K6 b+ i) {. Y◎IMDb链接  https://www.imdb.com/title/tt8368512/4 X: n7 [$ q) Q7 C+ D9 b$ S
◎豆瓣评分 7.3/10 from 10,657 users
) i1 O% [9 s, Q$ @  E, {◎豆瓣链接 https://movie.douban.com/subject/30212001/$ A+ I# f; N, R
◎文件格式 x265 + DTS  
3 I# O* t) F4 p$ E' u+ T* x◎视频尺寸 3840 x 2160; l& w7 G& I* H' l0 g
◎文件大小 1DVD 67.98 GiB6 ?' u9 W8 w0 e% S$ ~: @
◎片  长 1 h 51 min0 g3 ^" o+ _2 a1 o6 }1 `+ E
◎导  演 多米尼克·库克 Dominic Cooke
' Q1 H5 }* ~. K3 ^◎编  剧 汤姆·奥康纳 Tom O'Connor
! R3 ^& e0 b* D0 z  e, S+ d◎主  演 本尼迪克特·康伯巴奇 Benedict Cumberbatch
2 `( V8 b7 r! I. ^4 C8 C       瑞秋·布罗斯纳安 Rachel Brosnahan
0 L% x+ D7 w, f3 U" z! @" x$ k  \       梅拉布·尼尼泽 Merab Ninidze
! m9 V8 G  ?5 J  z       玛丽亚·米罗诺娃 Mariya Mironova  g9 C  _1 C  H0 y: {
       安东·莱瑟 Anton Lesser( O( I4 {, R/ @9 l
       安格斯·瑞特 Angus Wright' i: q; {3 L1 U
       大卫·巴克·琼斯 David Bark-Jones1 b" Q9 r$ }' z  @* j8 F4 C
       米尔斯·理查森 Miles Richardson
% S6 x( I* M+ _) X# `# R       杰西·巴克利 Jessie Buckley
+ C- ?" u0 I+ O8 N) J, W       基里尔·彼洛高夫 Kirill Pirogov1 ]4 V: G. l& m: x
       Yuri Klimov& T6 G* k7 Q$ {! Q
       马里安·洛伦西克 Marian Lorencik
( {! o* {/ X: _1 N1 ]       艾丽丝·奥尔尤因 Alice Orr-Ewing9 N  Y; _5 ?& n3 s, b' P  ^
       乔纳森·哈登 Jonathan Harden
$ I6 e' N4 Y1 P7 D       伊莲娜·艾尔米纳斯 Elina Alminas
' W( S% }( C4 E: z0 W, {5 c& f  r( ?6 K       阿勒斯·比利克 Ales Bilík
6 [* A7 B8 G2 C: m+ t+ U       安德烈·库尔加诺夫 Andrey Kurganov; Z! `  I5 i$ W
       奥德·马利 Ondrej Maly
1 o  H, j" ^* ^! V& [5 _       贝恩·科拉科 Bern Collaço
/ p0 X! _' n' M* B/ u       迪诺·布加迪 Deano Bugatti
) I0 g3 v  J1 X5 @6 T+ L       Emma Penzina
5 C$ ~. R% D' d5 j4 z% i- [       Fred Haig
5 S, l* G8 S# ]) ?  V7 l, i& y6 }       查尔斯·沃尔特斯 Charles Walters: |+ k$ v- t: Y
       James Schofield" v' Q6 \# A8 {# w" ~. @7 _
       Keir Hills
5 G3 v$ Y! _' K. h/ T+ o       Vladimir Chuprikov! q9 O) H' Z) ^6 \
       拉塞尔·巴洛格 Russell Balogh
- v* W; l3 E1 S1 m; \  H$ Q       约瑟夫·巴德拉玛 Joseph Balderrama
! t4 C" Z7 `6 c0 W+ F' [# x% ^       Angus Wright8 m  t) b. X+ T* z

! p) L/ i9 _& f: [, O, l◎标  签 间谍 | 冷战 | 英国 | 卷福 | 战争 | 英国电影 | 2020 | BenedictCumberbatch
& U- b. E  }1 N, `! U7 H, s5 _7 v# `' \
◎简  介     
3 |5 p7 r7 i8 k" `0 T* X: X: R1 j6 G  I1 x  n" F: n* S: E8 m& }
  根据英国商人葛雷维尔韦恩的真实故事改编。9 |+ h# i7 n" ~$ a

$ U4 T, T6 A9 Q0 a! P( C4 Q  本片描述葛雷维尔(本尼迪克特·康伯巴奇 饰)在冷战期间与苏联线人欧列格潘科夫斯基(Oleg Penkovsky),暗中协助中情局渗透苏联的核子计划,并提供了成功阻止古巴导弹危机的重要情报。  r+ q! ]9 P- }& m6 O! R- g0 R

! t3 q/ X8 z% i  Cold War spy Greville Wynne and his Russian source try to put an end to the Cuban Missile Crisis.
" E: m; x4 w$ |( l& H; X! }6 v' b
% p) l7 d. w+ B5 p! U0 T
The.Courier.2020.2160p.BluRayCD.REMUX.HEVC.DTS-HD.MA.5.1-FGT7 W4 }: g: ?& \
7 q. w/ n0 E* N, o2 f8 D) Z
Video5 m/ K0 Q' j: ]4 {" i% L7 D
ID : 1
5 Z) q6 ]$ x- P, W2 Z# TID in the original source medium : 4113 (0x1011)5 J8 _% ^, @/ H6 s6 c* a
Format : HEVC
" q* B6 K, a6 N  D/ TFormat/Info : High Efficiency Video Coding
% t) a/ F5 g* ?' ZFormat profile : Main 10@L5.1@High, |! N( b2 \2 ?3 A" j
HDR format : SMPTE ST 2086, HDR10 compatible; o0 T- u- G: s6 m0 t% ~% |4 t
Codec ID : V_MPEGH/ISO/HEVC
+ r( A; h8 u/ {8 RDuration : 1 h 51 min
8 a# P8 J& K6 E2 E% i; N8 \Bit rate : 78.1 Mb/s9 u! R! x! s, \8 e: I' k
Width : 3 840 pixels
) o, q" A9 N3 r: u# M! P  J5 u. P  uHeight : 2 160 pixels
5 A$ Y6 Z9 E/ fDisplay aspect ratio : 16:93 a$ \( R( o4 J0 T: T
Frame rate mode : Constant
9 [! E# d  [: g- L1 uFrame rate : 24.000 FPS
5 b) o( P; |, ^' V1 xColor space : YUV
+ k$ l$ @8 d- z- CChroma subsampling : 4:2:0 (Type 2)* k) v1 U. J) r0 @) h) \6 h
Bit depth : 10 bits
& U9 ~/ X7 ~- O1 s# t3 lBits/(Pixel*Frame) : 0.392) g: p' t" Z1 L" b2 E; }
Stream size : 60.9 GiB (90%)7 ]: C/ p/ C# V: `& Z3 y
Writing library : x265 3.0_RC+11-9a975542fe39:[Windows][GCC 9.0.0][64 bit] 10bit1 O/ Q7 u" K6 u- g
Encoding settings : cpuid=1111039 / frame-threads=6 / numa-pools=64,0 / wpp / no-pmode / no-pme / no-psnr / no-ssim / log-level=2 / input-csp=1 / input-res=3840x2160 / interlace=0 / total-frames=0 / level-idc=51 / high-tier=1 / uhd-bd=1 / ref=4 / no-allow-non-conformance / repeat-headers / annexb / aud / hrd / info / hash=0 / no-temporal-layers / no-open-gop / min-keyint=1 / keyint=24 / gop-lookahead=0 / bframes=4 / b-adapt=2 / b-pyramid / bframe-bias=0 / rc-lookahead=25 / lookahead-slices=4 / scenecut=40 / radl=0 / no-splice / no-intra-refresh / ctu=64 / min-cu-size=8 / rect / no-amp / max-tu-size=32 / tu-inter-depth=1 / tu-intra-depth=1 / limit-tu=0 / rdoq-level=2 / dynamic-rd=0.00 / no-ssim-rd / signhide / no-tskip / nr-intra=0 / nr-inter=0 / no-constrained-intra / strong-intra-smoothing / max-merge=3 / limit-refs=3 / limit-modes / me=3 / subme=3 / merange=57 / temporal-mvp / weightp / no-weightb / no-analyze-src-pics / deblock=0:0 / sao / no-sao-non-deblock / rd=4 / no-early-skip / rskip / no-fast-intra / no-tskip-fast / no-cu-lossless / no-b-intra / no-splitrd-skip / rdpenalty=0 / psy-rd=2.00 / psy-rdoq=1.00 / no-rd-refine / no-lossless / cbqpoffs=0 / crqpoffs=0 / rc=abr / bitrate=80000 / qcomp=0.60 / qpstep=4 / stats-write=0 / stats-read=2 / cplxblur=20.0 / qblur=0.5 / vbv-maxrate=85000 / vbv-bufsize=85000 / vbv-init=0.9 / ipratio=1.40 / pbratio=1.30 / aq-mode=2 / aq-strength=1.00 / cutree / zone-count=0 / no-strict-cbr / qg-size=32 / no-rc-grain / qpmax=69 / qpmin=0 / no-const-vbv / sar=1 / overscan=0 / videoformat=5 / range=0 / colorprim=9 / transfer=16 / colormatrix=9 / chromaloc=1 / chromaloc-top=2 / chromaloc-bottom=2 / display-window=0 / master-display=G(13250,34500)B(7500,3000)R(34000,16000)WP(15635,16450)L(10000000,1) / max-cll=514,26 / min-luma=0 / max-luma=1023 / log2-max-poc-lsb=8 / vui-timing-info / vui-hrd-info / slices=1 / no-opt-qp-pps / no-opt-ref-list-length-pps / no-multi-pass-opt-rps / scenecut-bias=0.05 / no-opt-cu-delta-qp / no-aq-motion / hdr / hdr-opt / no-dhdr10-opt / no-idr-recovery-sei / analysis-reuse-level=5 / scale-factor=0 / refine-intra=0 / refine-inter=0 / refine-mv=0 / refine-ctu-distortion=0 / no-limit-sao / ctu-info=0 / no-lowpass-dct / refine-analysis-type=0 / copy-pic=1 / max-ausize-factor=1.0 / no-dynamic-refine / no-single-sei / no-hevc-aq / qp-adaptation-range=1.000 z) x, p5 m: g' A; {0 z
Language : English
/ s) u$ L: l$ l  |5 {" EDefault : No3 r% y7 P4 V8 X4 O' P2 y2 M6 A2 U3 ~
Forced : No
3 ^0 A3 l4 \3 @Color range : Limited9 q- m& a  {0 B& x& [: ]
Color primaries : BT.2020. n6 @/ Y9 a5 v* M! |. ~( v
Transfer characteristics : PQ
* {5 h6 E9 L  Y( R! r- }4 LMatrix coefficients : BT.2020 non-constant
( U6 n3 ?0 Z* EMastering display color primaries : Display P33 g+ C; z0 ~* q& q' N' j
Mastering display luminance : min: 0.0001 cd/m2, max: 1000 cd/m2
; }2 C0 e  u2 V" S2 M/ ?" rMaximum Content Light Level : 514 cd/m27 w, X7 u; @' }( D4 s
Maximum Frame-Average Light Level : 26 cd/m22 [3 g9 R3 G# e6 c3 E! R. J
Original source medium : Blu-ray2 m0 [( \% g3 h" w5 m4 ]

. }5 v2 I( i9 f( Y% rAudio #1/ K; _, }8 L! O4 y0 G1 {
ID : 2) Q2 I; {2 W! [- s, c! K9 w
ID in the original source medium : 4353 (0x1101)& C) u* q' g$ J1 D" P  P
Format : DTS XLL' j% P  ~# r# W$ W8 D0 i! s: D# C
Format/Info : Digital Theater Systems/ O0 }* `) I  E  y1 Y, G- _/ L
Commercial name : DTS-HD Master Audio
2 v/ k7 u/ C( B2 l; [2 i# LCodec ID : A_DTS
' S( R: p# c: CDuration : 1 h 51 min4 `1 }% q3 Y# X+ n
Bit rate mode : Variable
" G0 r& V+ Q5 `/ B" ^Bit rate : 4 050 kb/s
+ s% J1 k2 s% k" V5 h1 b' UChannel(s) : 6 channels. V% V' _; D* ]2 N) n: O- G& @7 V
Channel layout : C L R Ls Rs LFE$ U; C1 Y0 }4 g2 M
Sampling rate : 48.0 kHz
: c* S4 f% G( f; `  L$ DFrame rate : 93.750 FPS (512 SPF)9 Q3 z2 M8 P; g1 g# z$ @  U/ g
Bit depth : 24 bits
! G  J3 l1 F0 ?0 Q# PCompression mode : Lossless+ |6 K# \" b2 Y; U8 _" h
Stream size : 3.16 GiB (5%)) t9 t6 O: I0 o  {6 w+ ]; U
Title : DTS-HD MA 5.1" S+ j1 M1 G4 F- l& B' [
Language : English
* T# h# S  T6 g& h, ^* xDefault : Yes
1 s# X7 n2 ~1 f' _# e2 WForced : No
  B8 l7 x% j- @5 \Original source medium : Blu-ray
' w  }! ]) q. T6 v! Z3 P$ h4 _
$ t. C$ X5 p; S4 P$ gAudio #2+ X4 S) A. C1 D% G
ID : 39 e; {! N4 h6 I& S5 \8 m# j
Format : AC-3  E: M. Z! J& U
Format/Info : Audio Coding 3
' R/ m  ]  A2 w# `5 dCommercial name : Dolby Digital9 P3 R+ o. x" f% J( }5 ?
Codec ID : A_AC3/ @; H) ~# d; t) a9 S: I! O
Duration : 1 h 51 min' d  G5 A4 l3 g  w4 p
Bit rate mode : Constant5 }4 X+ |! ]7 T
Bit rate : 640 kb/s( ]# X0 `7 K( L2 i  r2 V
Channel(s) : 6 channels
1 c8 a- \& z( q: J: q" c5 S3 JChannel layout : L R C LFE Ls Rs3 t6 g' d8 t% r/ o  b
Sampling rate : 48.0 kHz6 Q0 a* z! x& m9 v& e
Frame rate : 31.250 FPS (1536 SPF)% {3 W& T2 ]9 ]4 N
Compression mode : Lossy
# H4 N% X3 g  C, FStream size : 511 MiB (1%)6 |7 {" u. i4 S( u" N6 V; b2 J
Title : DD 5.1
" C" M- k( t& \: L- s4 FLanguage : English
% a* X8 u, s) ]2 Y9 |Service kind : Complete Main0 r$ J. t. D; C! U+ J. |
Default : No
: U/ q, D8 n) ~& u) H' y/ `( RForced : No- T- ?* }0 ?4 [* S& y
$ ~' @6 r$ G! \" n- y
Audio #3
* n0 J# z; e; d/ s2 ]ID : 4
8 e" ?3 O" U0 ^% e/ O/ PID in the original source medium : 4352 (0x1100)6 e$ a% a' W- r
Format : DTS XLL
, `  \# ^4 l! x: wFormat/Info : Digital Theater Systems
1 h7 z/ h" p; E8 ~) m% bCommercial name : DTS-HD Master Audio+ m" D8 L1 Z+ T- A9 t0 q4 ?& D
Codec ID : A_DTS
! g" R5 h, Z6 v/ R5 g% XDuration : 1 h 51 min
: I+ o$ l& r. G) \8 D7 {2 a: y9 gBit rate mode : Variable# k- e2 q" J- O. a0 y$ O- T
Bit rate : 4 309 kb/s% o) A2 D, H6 w
Channel(s) : 6 channels! G* n9 I. ?3 P* q* V: ~6 s" O& v
Channel layout : C L R Ls Rs LFE2 \5 V. A5 S2 B, L9 p/ C1 |% G8 y
Sampling rate : 48.0 kHz" V* K) {  N& [; e
Frame rate : 93.750 FPS (512 SPF)
" ]- w6 L/ w( u5 ]4 zBit depth : 24 bits! C2 p7 u+ P& d$ j( J. ]
Compression mode : Lossless
# q  y- _2 d2 m" Z/ U* Z. C) IStream size : 3.36 GiB (5%); L1 \* }; I7 C# |) {
Title : DTS-HD MA 5.12 [, H) a, ^% ~# N2 h) _
Language : Italian
* d3 x& R# ?/ Q3 BDefault : No
' N4 Z- m) F7 iForced : No
! {4 f' A9 i9 z( Y/ z. uOriginal source medium : Blu-ray
  f/ }$ t; E& k1 {9 T9 ^
9 o( B. A+ g/ V) g: [' ~8 \Text #1
" _0 f% B+ L( b7 y& S2 OID : 50 A3 J8 s3 l4 h6 Z1 f  g
Format : UTF-8
9 S6 e% U& Y8 p' ZCodec ID : S_TEXT/UTF8
' g' C4 o- @: v  E3 X, h0 KCodec ID/Info : UTF-8 Plain Text
; a" K: }+ v1 p( x, ]& MDuration : 1 h 43 min
7 }6 _4 ?: Z* uBit rate : 5 b/s6 u2 q; f5 T8 ]; k, w) b) X
Count of elements : 136
4 L- W# W! O2 m* O" y6 uStream size : 4.48 KiB (0%)
( K% `1 U( o/ V  _. XTitle : FORCED+ b/ o% }4 G& T+ b/ ?: ]0 e; |- o6 m
Language : English( |  y' @4 M  u! g# j
Default : No
$ P5 ?/ ?' U& h, v5 aForced : Yes
4 i! G) B! ^; A7 ^4 F" c& }& R, b, h% C. n8 d
Text #2- ?! L: [) V: h( t0 r. b% K7 @2 M
ID : 6
, e1 v) |- N- d$ N% n2 XFormat : UTF-8& Q% l+ v2 g9 r7 k* `" W
Codec ID : S_TEXT/UTF8
; ?+ l; Y9 p9 f. }Codec ID/Info : UTF-8 Plain Text
2 m; x" u: K2 a9 G% R3 [8 TDuration : 1 h 43 min
5 L% `2 l. r4 t! p  H! vBit rate : 52 b/s0 i: z# u8 W) z2 B2 b  @" ]: g
Count of elements : 1130$ J) ~0 l2 |7 H
Stream size : 39.6 KiB (0%)" x; i$ D0 U: _# g( m
Language : English- N# p1 c: h; N
Default : Yes
' R' U- v$ K& NForced : No
. Z2 j3 u; `2 x5 D! I. K
1 _- k, ~& M1 F! K& WText #3
  p, Z: i: ]5 O8 G$ \% S/ VID : 7
0 h. F7 g% H4 {) t+ X7 yID in the original source medium : 4768 (0x12A0)
5 [( Q  E# r% {4 bFormat : PGS4 @; z0 t! t$ x9 ?' d" @
Muxing mode : zlib
& D9 i0 l2 ]0 F+ i# u- JCodec ID : S_HDMV/PGS
' h3 `* u5 {* ?. J1 qCodec ID/Info : Picture based subtitle format used on BDs/HD-DVDs
2 N$ p, H+ F# ]. X. [- YDuration : 1 h 43 min: q0 p3 y6 K! {3 j5 q0 h; Q) q
Bit rate : 28.7 kb/s
. Z. W% f1 v$ o" b% l% D% Q% k$ ~Count of elements : 21720 s, i: W% k: @; V1 l4 `5 n- l9 M3 @
Stream size : 21.2 MiB (0%)) W1 P" H  G6 j
Language : Italian
6 K7 M# \/ D6 Y! ^. _# zDefault : No
/ z  k! ], V: p" Y! W4 g/ G* N! YForced : No
3 k& P3 Q6 ~3 `! {; K/ D+ f9 fOriginal source medium : Blu-ray
1 n6 {; K7 a# b# N6 F, A& f
* q, `% x5 Y5 Y8 ?% kText #4
9 I" Z% J0 Q  n. R" cID : 8
* J( e3 E0 A9 ?6 u4 n& UID in the original source medium : 4769 (0x12A1)" j. S* ^# [6 g" E- L/ K
Format : PGS
4 l5 G6 Z4 v" j3 i  Z$ NMuxing mode : zlib2 p, B9 |9 T! G7 K4 ~7 ]
Codec ID : S_HDMV/PGS! @" I( u: D, G
Codec ID/Info : Picture based subtitle format used on BDs/HD-DVDs8 S3 v/ P& r, c  }
Duration : 1 h 16 min6 O' A3 S5 k) X$ F( t6 y
Bit rate : 2 918 b/s4 A. M: |8 v9 L8 r+ O
Count of elements : 2389 u% I/ J% A) f& H
Stream size : 1.59 MiB (0%)
0 m' G2 T5 S  S! }! P4 B5 [+ yTitle : FORCED
9 a6 S' B, E; |; h% @- d3 cLanguage : Italian1 n1 \: y  t7 U4 W
Default : No
/ _( S- O+ t: ]Forced : No. d+ u4 I( {  b6 h& I) S- k1 v  V
Original source medium : Blu-ray  x7 ?/ G+ G' \/ |/ K8 }7 u; ]

  H2 G& y4 M4 ?Text #5
: I; V& M' n. u) tID : 96 E4 l# X) P* \) N2 ^9 n; R
ID in the original source medium : 4770 (0x12A2)
/ C" p& n& i4 ]9 PFormat : PGS  T% E/ t7 ^5 E; F6 F1 u; N0 Q
Muxing mode : zlib; {( R3 l2 G% X/ C; R  B* d
Codec ID : S_HDMV/PGS
" j* S6 o# Q! C$ g+ wCodec ID/Info : Picture based subtitle format used on BDs/HD-DVDs4 c" J& h# D3 H
Duration : 1 h 43 min1 e7 y, `3 T) W9 D4 U
Bit rate : 29.8 kb/s# b. W- Y8 l" C6 X- ?( }
Count of elements : 22622 c1 W1 i( u: f& j8 @0 Z' d
Stream size : 22.1 MiB (0%)
4 }: b  Z/ T6 w! b; C% }Language : English# u# K& K1 o* a9 R( s' Z
Default : No
! E2 b5 r" f1 \3 QForced : No
7 a8 y) E; [  L6 [Original source medium : Blu-ray  ^5 R, W% D- c8 z; [# y- z
( O" ?8 _/ y. P, |8 e
Text #6
# h& B% `0 o& g5 ~) {0 f9 PID : 108 z, ?( f$ W4 B+ m* v' b2 Z
ID in the original source medium : 4771 (0x12A3)
+ M; C4 t* c' o) }Format : PGS
8 K1 o$ W3 B8 ^1 P' L5 VMuxing mode : zlib
# Z6 T+ b  e5 w% }0 x, ACodec ID : S_HDMV/PGS3 r% p3 |. y3 C7 B0 m/ u
Codec ID/Info : Picture based subtitle format used on BDs/HD-DVDs
3 d4 m1 D, A2 r; ?6 BDuration : 1 h 43 min4 p* ?$ `1 n8 {% ]. f" H- v9 N1 z
Bit rate : 2 690 b/s) E0 w6 x% K; H3 H5 h8 ~2 U: ?5 X
Count of elements : 2722 C: c) o/ F+ E4 G9 z/ N  {. d/ `
Stream size : 1.99 MiB (0%)
* C1 X) ]; p% W6 {9 cTitle : FORCED
! v( ], d8 S; V! RLanguage : English
; h$ x  @% i" v7 u; tDefault : No  R/ Y6 ^, n' s3 [8 U, w
Forced : No" h0 _% F( t9 r! D+ k' t8 O
Original source medium : Blu-ray, l( @# g' P" d! I5 O- L. x

/ Q: F# c" p$ Q0 u- XMenu- K% K! R. S, h! f
00:00:00.000 : en:Chapter 01$ ^0 I' _8 z$ |& O' z* r
00:10:06.041 : en:Chapter 02# j( ?) s9 J1 j5 M9 y' a
00:19:13.500 : en:Chapter 03) G5 U! l$ F0 m' c+ Y
00:28:18.166 : en:Chapter 04
& i2 w- w5 }! Q4 q8 ^" Z9 a1 X00:37:20.833 : en:Chapter 05
5 @- I; H7 R& O7 G7 y: E5 L00:46:18.833 : en:Chapter 06
/ `9 Z) }' |+ u6 A" k00:56:47.125 : en:Chapter 075 D- N: E, J$ ^* P& Q; U
01:05:48.291 : en:Chapter 08
2 d. H8 o: {8 q! w01:15:44.500 : en:Chapter 09
1 F6 e, z7 V6 \+ X7 {6 V2 }01:25:25.416 : en:Chapter 10
% _. z. T& N5 p1 S( S01:31:40.791 : en:Chapter 11) {- ?. \/ }: f+ A
01:41:02.000 : en:Chapter 12& A9 q( N# |' H4 U+ o) D( h, A3 \
01:51:41.458 : en:Chapter 13
2 U4 D/ [" o& j  F) U
游客,查看本帖隐藏内容请回复 | 加入VIP贵宾可免积分免回复 了解详情 | 还不是会员:点击获取邀请码 Invitation Code

77

主题

3618

帖子

1万

积分

Sponsor

金币
1918 枚
体力
5205 点
lanpanshuma 发表于 2021-11-8 05:44:22 | 显示全部楼层
每天都来蓝光论坛看看,我爱蓝光电影。
! @8 O) ?1 `3 W, l, V: ^要想蓝光电影论坛发展好,资源多,就靠你我他!To the development of Blu-ray movies forum, resources and more depend on you and me!& f) n9 q! [! O& x

27

主题

438

帖子

2409

积分

Sponsor

金币
12 枚
体力
1443 点
wyyo 发表于 2021-11-9 10:00:19 | 显示全部楼层
每天都来蓝光论坛看看,我爱蓝光电影。
' \8 e+ _: }4 e- b' j$ VYour resources, well, I am very satisfied!; {# J9 [! _1 F( ?; U0 r

4

主题

1240

帖子

3946

积分

Sponsor

金币
43 枚
体力
1426 点
QQ
davidqin 发表于 2021-11-10 19:42:52 | 显示全部楼层
Bluraycd又有新电影发布了,激动中……!2 o6 }* ~. y. |+ q
Blu-ray Film Forum: I will always support you!( [' A. I+ o, m7 a( ^

0

主题

53

帖子

319

积分

Sponsor

金币
52 枚
体力
145 点
xaland 发表于 2021-11-16 23:51:49 | 显示全部楼层
经典的影片

0

主题

170

帖子

858

积分

Sponsor

金币
86 枚
体力
401 点
QQ
fangfang789 发表于 2021-11-17 16:07:16 | 显示全部楼层
每天都来蓝光论坛看看,我爱蓝光电影。7 ]$ Q# g1 [, L1 K& X1 a
Your resources, well, I am very satisfied!
- v; y. v" ?, e" X: K

0

主题

120

帖子

1143

积分

Sponsor

金币
367 枚
体力
479 点
XN15 发表于 2021-11-20 17:07:43 | 显示全部楼层
尚气与十环传奇

0

主题

150

帖子

714

积分

Sponsor

金币
104 枚
体力
301 点
chnajr 发表于 2021-11-23 10:33:31 | 显示全部楼层
啥也不说了,楼主就是给力!
, I) d/ G$ Y6 y4 p+ [' Q# z5 nI love your Blu-ray movies Forum!
: F* J6 A0 A4 M* I7 X4 W( I

2

主题

357

帖子

2045

积分

Sponsor

金币
367 枚
体力
1012 点
QQ
ccfys888 发表于 2021-11-23 17:54:10 | 显示全部楼层
啥也不说了,楼主就是给力!
+ l5 Z7 a) u; L; Z. M. LYour resources, well, I am very satisfied!
! H  N$ O6 t9 u' h8 T9 _* V  e

0

主题

491

帖子

2174

积分

Sponsor

金币
1 枚
体力
1210 点
QQ
neilwang1982 发表于 6 天前 | 显示全部楼层
感谢分享精彩电影

本版积分规则

小黑屋|Archiver|蓝光电影资源网

GMT+8, 2021-12-2 23:08

Copyright © 2001-2022, Tencent Cloud.

快速回复 返回顶部 返回列表