BluRayCD Forum

 找回密码
 立即注册【分享大片】
查看: 264|回复: 25
收起左侧

[2160P极清] 毒液2:屠杀开始 [4K高清版] Venom Let There Be Carnage 2021 2160p BCORE WEB-DL x265 10bit HDR DDP5.1 Atmos-BLUTONiUM 54.88GB

[复制链接]

7636

主题

8015

帖子

8万

积分

Post Share

金币
18255 枚
体力
15189 点

卓越贡献勋章

mvods 发表于 2021-11-24 12:15:56 | 显示全部楼层 |阅读模式

& Y0 w- O% b1 Q$ w& M
5 f5 {) g$ `- D( Z  b◎译  名 毒液2/毒液:屠杀开始/毒液:放纵屠杀/毒液2:屠杀将至/毒液2:屠杀开始/毒魔:血战大屠杀(港)/猛毒2:血蜘蛛(台)
" m/ S  h" x4 Y0 {7 |/ ^◎片  名 Venom: Let There Be Carnage / Venom 2' c4 n; q. K2 Z* {6 v  P
◎年  代 2021' \, i3 I6 q" a/ O
◎产  地 美国9 U+ O( f% |0 o' @" Q/ ?8 x1 Y; \7 T
◎类  别 动作/科幻/惊悚: Y$ h" O9 }4 }' W/ i5 t
◎语  言 英语
' F3 L9 c: ]; z; O$ a7 P◎上映日期 2021(中国大陆)/2021-10-01(美国)/2021-10(英国)
( i7 J/ p, n8 u◎IMDb评分  6.2/10 from 75,047 users
2 r# Z4 N/ B. T◎IMDb链接  https://www.imdb.com/title/tt7097896/: S4 {! F4 c7 u! P5 d
◎豆瓣评分 5.1/10 from 40,671 users
8 X3 p( Y$ Y' D$ w◎豆瓣链接 https://movie.douban.com/subject/30382416/
! D  F; G, ]7 w# l8 }$ t, K◎片  长 1 h 37 min
4 I/ Q% U* V0 ~+ B/ s6 Q0 v  G) j◎导  演 安迪·瑟金斯 Andy Serkis
7 I* Z$ D( w1 b/ M. L7 c◎编  剧 凯莉·马塞尔 Kelly Marcel : V. o: ~" ?# B' v' \
       汤姆·哈迪 Tom Hardy
3 D" O  C& x' y- U◎主  演 汤姆·哈迪 Tom Hardy, a: _3 x2 Q3 k% _4 H2 D% k; K
       伍迪·哈里森 Woody Harrelson4 t* p3 E  P( r2 _# N( H
       米歇尔·威廉姆斯 Michelle Williams( ^: o& O  k3 J, ?
       娜奥米·哈里斯 Naomie Harris1 E- S6 G* v, U; N: W4 a; q
       瑞德·斯科特 Reid Scott0 A, }% e3 l4 l& t
       斯蒂芬·格拉汉姆 Stephen Graham# y( A) }4 L  A: [( O) P. S5 S0 z
       汤姆·赫兰德 Tom Holland
4 K, A. W* u/ K: Y       里斯·谢尔史密斯 Reece Shearsmith) Q, ]6 s4 R* n. y
       肖恩·德兰尼 Sean Delaney
. `# J! q6 F: P5 j       佩吉·陆 Peggy Lu
+ w* _: S* v5 w4 @- b  O       劳伦斯·斯佩尔曼 Laurence Spellman
; M4 Y- H) O( @3 b3 G       杰克·班戴拉 Jack Bandeira, }/ \: E' T) K% K6 R' s
       斯克鲁比斯·皮普 Scroobius Pip
) R7 j' S, `0 m, G8 O0 F       阿姆·阿勒卡迪 Amrou Al-Kadhi
, x3 c7 C4 G) H) G$ @9 K       斯图尔特·亚历山大 Stewart Alexander
: I/ [& |4 @( o! c8 g1 Q: L       克里斯托弗戈德温 Christopher Godwin
! U( M9 Y5 G) G& q0 h       格雷戈·洛基特 Greg Lockett  A/ P8 V. e/ y8 R
       桑尼·阿什本·瑟金斯 Sonny Ashbourne Serkis
6 W' u2 ~' @$ r       雷切尔·汉德肖 Rachel Handshaw
, X, a" D- j) ]       小田部阿基 Akie Kotabe
- `: Z6 O3 X% S- j1 E$ |       埃里克·西格蒙德森 Eric Sigmundsson
. @2 H  a1 D  B! k3 @       何塞‧帕尔马 Jose Palma; ~1 m# ]. m8 b
       Rosie Marcel . I  W$ b4 y- j4 H5 n" |7 j
       艾略特·凯博尔 Elliot Cable
: a% r+ x) T" ~+ A/ m8 K       威廉·W·巴伯 William W. Barbour, e2 k' p  ^1 d' W
       埃尔文·费利西达 Erwin Felicilda7 w$ ?# G/ T: Y+ h' W$ O% j5 V
       露丝·霍洛克斯 Ruth Horrocks
( q3 A+ e) r% F. ]& ?       约翰·洛巴托 John Lobato( p& y/ U, C. z- O. ~' u2 r6 O
       迪索·拉莫斯 Diezel Ramos- H! ^% [" E' e& W3 M
       迈克尔·安德鲁·里德 Michael Andrew Reed
& R0 ^$ m7 E* E7 T& N/ ^       里克·理查森 Rick Richardson& }( L+ d" m1 x7 U0 j2 a# v
       安珀·西耶娜 Amber Sienna
( U# k5 ?0 s4 M7 F% `9 ]8 Y, _$ E$ J       艾蒂安·维克 Etienne Vick
% H* Q1 P1 _4 M" e       杰茜·维宁 Jessie Vinning
  ?" Y5 }9 ]2 T8 z       中川翔子 Sh?ko Nakagawa/ q( v' G$ c9 @) a5 y+ t
       Michelle Greenidge' C. ?3 ?3 ?# C) M' C
       Sian Webber4 v6 l& d' M9 ^# {
       罗伯·鲍恩 Rob Bowen
4 U- l% X% w. V. q% P       Little Simz
6 ?8 H/ ?- Z3 Y" W       Olumide Olorunfemi0 R# u; ?& l$ J: n7 Z& H. N
) T$ |7 C0 T0 ~: d/ V
◎标  签 漫威 | 毒液 | 科幻 | 超级英雄 | 美国 | 动作 | 2021 | 漫画改编
4 G/ A( l: D/ W' L  g8 q# \6 W) H
1 L! d( A( V) @; m, z# e: s+ c' G◎简  介   
, ~. v$ W8 i9 x8 C" {; t! C
( @3 n3 B8 M& U4 @" L- D% h  电影讲述了外星共生体“毒液”与宿主埃迪(汤姆·哈迪 饰)这对“最佳拍档”遇上致命反派共生体“卡内奇”(伍迪·哈里森 饰),超级英雄和邪恶反派的宿命之战即将开始。
4 Z, q0 n: h+ k1 b: U" o4 @$ N' \( l* n! d
  Eddie Brock attempts to reignite his career by interviewing serial killer Cletus Kasady, who becomes the host of the symbiote Carnage and escapes prison after a failed execution.9 o0 w7 K/ q, {: S' O: S1 g: R8 j3 _
8 M2 r7 O3 ]# ~& S9 B* a8 U
◎获奖情况
/ C5 E! V. @/ q6 h3 m" Z( q
+ J2 b9 _: h# p% g  第7届豆瓣电影年度榜单 (2020)
9 _8 L' y  O7 K3 D3 L/ U2 [7 p9 p  最值得期待的外语电影(提名)
/ c0 f  O- {1 N7 ?( L) Y+ ^  
; H" U6 I8 Y5 `% E- Y  第6届豆瓣电影年度榜单 (2019)* d6 N2 [" V$ w% W. z- m* p: k& [
  最值得期待的外语电影(提名)3 F* t0 a- g7 Z5 ?$ W" e
Venom.Let.There.Be.Carnage.2021.2160p.BCORE.WEB-DL.x265.10bit.HDR.DDP5.1.Atmos-BLUTONiUM 54.88 GB
Venom.Let.There.Be.Carnage.2021.2160p.WEB-DL.x265.10bit.HDR10Plus.DDP5.1.Atmos-NOGRP 10.57 GB3 c) u. {0 g! Z! Q( v
! k( b/ p* _- f
Video
: U* U8 w- ?7 Q0 |# B) G5 mID                                       : 1
+ |9 n" l9 |; S, k( o, HFormat                                   : HEVC
4 _+ {! H; b/ M2 a6 J6 G. @Format/Info                              : High Efficiency Video Coding
3 o. D" T& ]' L. c) M' uFormat profile                           : Main [email protected]@Main
7 ~; ~2 H* m' sHDR format                               : SMPTE ST 2094 App 4, Version 1, HDR10+ Profile B compatible
" P# U! l& S+ T# `/ A; Y" ?Codec ID                                 : V_MPEGH/ISO/HEVC
* F5 ]: m9 e' `( CDuration                                 : 1 h 37 min4 e, r, P& V' X; |) X& q% ]  j
Bit rate                                 : 14.8 Mb/s
3 g8 V: U0 m% @% n& ?Width                                    : 3 840 pixels9 O# f3 O: b. J! s0 T. F. j* Z
Height                                   : 2 080 pixels5 B  Q) K6 [# r" u( R# c
Display aspect ratio                     : 1.85:1
( N; r/ u! g5 s) p" \Frame rate mode                          : Constant
, M1 v; M! P$ `7 |& lFrame rate                               : 23.976 (24000/1001/189150) FPS! N# `0 ~) d$ M6 E( Q8 L7 _
Color space                              : YUV% O4 z5 g; T3 u& A! D' c1 ~' w; X( V
Chroma subsampling                       : 4:2:0
' L- n9 D  V( I0 ~Bit depth                                : 10 bits( ~9 p4 X9 Q* \5 N" N+ ~
Bits/(Pixel*Frame)                       : 0.077
( j: E* ]/ k/ o# c. d1 J/ j5 B8 pStream size                              : 10.0 GiB (95%)! p1 C& w. c# i9 o; K# [# V0 c: m2 B
Default                                  : Yes' w6 [& ^; C. v, J
Forced                                   : No# v& |7 o& `6 G; [
Color range                              : Limited
8 M7 [$ F4 [- u/ nColor primaries                          : BT.2020- y3 d) R7 d2 |: q
Transfer characteristics                 : PQ' X. J5 |: h9 q% {
Matrix coefficients                      : BT.2020 non-constant
+ l* }/ T2 Y  [/ H" f5 CMastering display color primaries        : BT.2020" @" m# f, P4 C/ o& M
Mastering display luminance              : min: 0.0001 cd/m2, max: 1000 cd/m2
3 _0 a5 a. r$ x/ M/ ]5 uMaximum Content Light Level              : 5681 cd/m2$ c: e7 J/ V( y0 S* J+ m0 s/ s
Maximum Frame-Average Light Level        : 522 cd/m2
2 c! M  L  _( q: Z5 m7 l: e+ m8 K! m7 f5 T; B
Audio2 a$ b6 E& z; d4 G
ID                                       : 2
. J% o1 P  G1 V6 t: R7 YFormat                                   : E-AC-3 JOC
% M5 f' p7 U; X+ Q  J) bFormat/Info                              : Enhanced AC-3 with Joint Object Coding/ J& v8 ~  C1 ^1 p5 ~) d; C
Commercial name                          : Dolby Digital Plus with Dolby Atmos
2 q8 `6 }7 P5 s% E: }/ o3 vCodec ID                                 : A_EAC3
. n" ?4 z) g2 P1 R; ^1 MDuration                                 : 1 h 37 min
4 n  d3 K5 `2 W- BBit rate mode                            : Constant- A. F" p+ F/ c$ Z
Bit rate                                 : 768 kb/s2 H! k# N' D. I0 J  g; g/ _, _9 e
Channel(s)                               : 6 channels
+ r6 I9 J% J: s7 {6 x% @) ]" VChannel layout                           : L R C LFE Ls Rs8 G  \! ^. E$ R3 P
Sampling rate                            : 48.0 kHz
$ J) }. C9 }8 y( L8 lFrame rate                               : 31.250 FPS (1536 SPF)
# N. L1 ?" a/ d, \* G1 U: X2 ^% p1 |Compression mode                         : Lossy
5 y/ G. d: V; D- SStream size                              : 534 MiB (5%)" |9 f' n- K5 Q) l, I
Title                                    : English
5 e9 ~7 P' }; @/ K* ~+ {, T/ Y0 G  ?Language                                 : English
$ k1 x6 B5 _1 h6 ~  KService kind                             : Complete Main4 h: }: }, ~+ H. b+ U; c
Default                                  : No
5 M( q2 {" K6 n6 V. o% BForced                                   : No
$ Q$ w9 F3 g/ C3 QComplexity index                         : 16
0 D6 ^9 K: }% W6 V1 v" zNumber of dynamic objects                : 156 @# J* Z0 S2 m" D- j4 {
Bed channel count                        : 1 channel
9 B2 a1 q# _. L/ m# RBed channel configuration                : LFE6 N- H$ o" L0 u; t

% z8 l6 k$ b' {1 _Text #1
' J+ M1 u! Z, w+ V/ T+ ~5 |- GID                                       : 3
# r; v: Y! A- _Format                                   : UTF-8
8 _5 m- b8 g  W0 p& J) L" BCodec ID                                 : S_TEXT/UTF8( L- ]9 T/ O* F
Codec ID/Info                            : UTF-8 Plain Text, E. v( [' o* y  s9 N0 `
Duration                                 : 1 h 27 min% \# \1 w: q, g9 L1 e; A
Bit rate                                 : 57 b/s
& ^/ z( g: o, ^2 ~9 r! Y7 V7 qCount of elements                        : 1290  o) H8 N, I, a5 P
Stream size                              : 36.7 KiB (0%)
7 z  ]8 |/ g4 _( F- D0 n' y1 jLanguage                                 : English) Q1 Y( {9 O% H; @5 o9 m' d
Default                                  : Yes
, r, q, m# ~9 L! [  YForced                                   : No
# ^2 w# ?; Y1 S% f1 G# z, X3 _
: E2 i! }- e) `. M* K$ b) X& ^  BText #2
) c% P3 e! z/ S+ WID                                       : 48 d( [8 ?  I# c; \2 r
Format                                   : UTF-8
$ R! P/ T" `2 J& L: V8 a. eCodec ID                                 : S_TEXT/UTF8
$ S' ?. s5 u  J( a) T/ H" [' ?Codec ID/Info                            : UTF-8 Plain Text# M+ G4 ~$ ^4 ?8 \* G
Duration                                 : 1 h 36 min
+ J/ v9 o2 \6 A: t* d* o+ q) g! s2 jBit rate                                 : 79 b/s& e" H) |1 X* J! i; H
Count of elements                        : 1862
2 e2 v" d$ o4 C: B; R9 [" _Stream size                              : 55.9 KiB (0%)4 r, U2 ~% c! U; ]
Title                                    : SDH
* T% t* A5 w" {% w4 o+ ~0 i$ i' I7 sLanguage                                 : English$ q# z6 U. `) \0 P$ \1 I( s. m
Default                                  : No; R' Q* t, U- }2 Y7 j8 j
Forced                                   : No2 {8 R$ }% f* |' c( {  d1 b

9 v/ @$ W* v$ o- FText #3, _& `; y' n) h
ID                                       : 5
3 `$ [- |% ~) k/ |" `Format                                   : UTF-8
0 @7 i- n' m. P7 J& |  K& c5 aCodec ID                                 : S_TEXT/UTF8( T" T: r: r+ ^& q+ r
Codec ID/Info                            : UTF-8 Plain Text
8 L6 N2 _9 U9 p6 [' GDuration                                 : 1 h 36 min
1 X  v+ Y" A7 C+ C$ c6 BBit rate                                 : 43 b/s  U! q/ A$ N$ e  h
Count of elements                        : 1087
2 W5 I, P) v2 pStream size                              : 30.5 KiB (0%)" M; ?6 w, r  L! G! A
Title                                    : Latin American
8 Y2 E6 q. L+ r8 K/ LLanguage                                 : Spanish
- {' T0 h/ Q: E8 ADefault                                  : No
% o9 k. N- @7 f3 C" hForced                                   : No
! P; ]! p9 B( g) Q1 m1 |' k7 @$ v+ a9 _
Text #4( g) s2 V3 Z# E: z  D8 b0 Q" E
ID                                       : 6
  e/ C$ g8 |! n- ]5 u& dFormat                                   : UTF-8
6 Z  i+ \# C6 a# k6 X4 K$ VCodec ID                                 : S_TEXT/UTF8
9 o4 S% G% s5 rCodec ID/Info                            : UTF-8 Plain Text
  p: N! K9 @- S8 @9 \$ X: YDuration                                 : 1 h 35 min
5 G' X+ t' C; ?7 B6 |; X# mBit rate                                 : 45 b/s
* P: {" y6 D) n, xCount of elements                        : 1125- f9 J$ W$ g$ r' b* W1 g
Stream size                              : 32.3 KiB (0%)
; j8 M2 E1 w5 l7 H9 ULanguage                                 : Korean. d: q" z& D; b
Default                                  : No4 I! Y2 P8 t8 @( c
Forced                                   : No) X) G2 z3 v3 O$ f
/ F9 K8 g* C, [% u' A9 h* V  m
Text #55 [) i. x4 E0 Z. A. m# w1 d
ID                                       : 7
2 H! t) w( D$ v3 i9 x" z6 f1 Q7 BFormat                                   : UTF-8
! x+ o, j8 U1 l! W# a- `Codec ID                                 : S_TEXT/UTF8) v- J4 V+ e3 R2 A1 j& j
Codec ID/Info                            : UTF-8 Plain Text- `! J* d. W! f" P5 T
Duration                                 : 1 h 36 min- r9 F2 Y) h  C7 k. |
Bit rate                                 : 44 b/s
& l/ ^. \6 p" `, Q! q. JCount of elements                        : 1077
4 C- W- y! O3 R8 @& o, O* lStream size                              : 31.3 KiB (0%)4 |! E6 T0 W2 C  E
Title                                    : Brazilian
! J. v% |. V* O' Q% p9 _* p( t; X' GLanguage                                 : Portuguese
+ n- \0 D2 [% B5 w- F% tDefault                                  : No
0 p5 {4 b2 G3 f5 S" ?% g' iForced                                   : No
; I1 j. X+ h. E! L0 M) V! J% B* ~5 c
Menu
+ ^" [4 i$ W& e! ]00:00:00.000                             : en:Chapter 1
- L) G7 l% B2 l; L: K00:05:25.949                             : en:Chapter 2
% t: y. x. x3 K: W2 x* J, s00:11:33.485                             : en:Chapter 3# F& T2 _8 s+ M9 ?( X
00:18:22.434                             : en:Chapter 4
, ~  Z' E' q& b4 b2 D9 M: `# U00:23:00.630                             : en:Chapter 50 X/ U4 N! ]) V1 c# n3 j! X
00:30:27.160                             : en:Chapter 63 W5 L- S4 J% R& @! M+ k) S! j
00:35:03.769                             : en:Chapter 7
+ ?1 z% t3 P4 Q00:43:09.130                             : en:Chapter 8
9 n3 q: V- L' M1 w( W2 a1 g' i9 P) x00:47:27.347                             : en:Chapter 9
- K  r- }9 j4 [4 {- {  x- P00:54:53.418                             : en:Chapter 10
$ f3 v5 \! z3 M0 {. E' ]01:01:32.817                             : en:Chapter 11
7 t( s4 @" S0 W0 G) f3 g01:06:19.478                             : en:Chapter 12
( ?$ w: ?  v' @* ?( O01:11:49.184                             : en:Chapter 13
# l+ S, G: W4 M& _) s9 w& Y01:18:03.725                             : en:Chapter 14
$ b" H' A. |% Q3 u+ ^01:21:52.494                             : en:Chapter 15
+ C1 z" {/ f4 v/ L" v01:26:41.326                             : en:Chapter 16
Venom.Let.There.Be.Carnage.2021.2160p.WEB-DL.x265.10bit.SDR.DDP5.1.Atmos-TEPES 8.59 GB
( H5 Q, t. J4 C) }- S
/ m* T+ b8 L3 V2 z! ?* a( [0 [Video
* J9 S$ f  k) L7 q! _7 m# o9 JID                                       : 1
; Z1 D( C, K" s% U3 ]4 PFormat                                   : HEVC" ]9 P& @" x3 Q1 v* ^
Format/Info                              : High Efficiency Video Coding
. T$ V9 L0 Y. {1 }/ LFormat profile                           : Main [email protected]@Main
; C# B+ I) ?; U' q( y, |HDR format                               : SMPTE ST 2094 App 4, Version 1, HDR10+ Profile B compatible; X  M% o7 V1 c4 P% C4 p
Codec ID                                 : V_MPEGH/ISO/HEVC5 p4 g9 R; X: o+ ~) G! {
Duration                                 : 1 h 37 min# X, {2 W2 L! ^& ~1 J7 d7 p( n( d
Bit rate                                 : 14.8 Mb/s% @7 a; P# P9 F$ Z% J8 A
Width                                    : 3 840 pixels. Y6 B$ D8 x' l
Height                                   : 2 080 pixels
" U$ P/ J$ F# \$ O% WDisplay aspect ratio                     : 1.85:15 G' n) W; F7 P4 m! q2 `
Frame rate mode                          : Constant4 N6 [  _' K9 |6 N- S; S
Frame rate                               : 23.976 (24000/1001/189150) FPS; Y0 M$ g% t4 A
Color space                              : YUV
. @  G* S( A5 Z8 K% ~" U- o3 WChroma subsampling                       : 4:2:0
0 M3 D. t" S1 M. @Bit depth                                : 10 bits. e* u% m$ @4 U( ]% ~4 p; v
Bits/(Pixel*Frame)                       : 0.077* t6 P6 J$ \; K( U
Stream size                              : 10.0 GiB (96%)
, B+ `# p: F; S6 Y& L4 C2 xDefault                                  : Yes, ]" M4 _/ U# k/ w/ Z
Forced                                   : No
/ L3 s  m  ^3 dColor range                              : Limited
8 M  G: V- a& F8 M, H9 PColor primaries                          : BT.2020) X" S$ Y1 c, k  D' u+ \. g
Transfer characteristics                 : PQ1 r7 g# c. U  B8 x
Matrix coefficients                      : BT.2020 non-constant' e7 h7 S" G4 a
Mastering display color primaries        : BT.2020! L6 l) ~0 T( ?
Mastering display luminance              : min: 0.0001 cd/m2, max: 1000 cd/m24 q, C1 K) @) N: O: Z
Maximum Content Light Level              : 5681 cd/m2& f* R0 m$ |  {1 d5 R
Maximum Frame-Average Light Level        : 522 cd/m23 k4 m5 t$ U3 b/ n
7 a# I9 V: r9 z" L9 h" F0 G
Audio
) ~. f0 D. f7 i7 s! }ID                                       : 2
0 o2 l3 l; w% V- L* ~: I" qFormat                                   : E-AC-3" @/ R$ f, F- q! c  c! w. c
Format/Info                              : Enhanced AC-37 T4 o1 q% Z) |
Commercial name                          : Dolby Digital Plus
% j- ]! [7 A; Q7 P% H! l5 ~1 DCodec ID                                 : A_EAC3
% \% v, ?; h) x. Q. {Duration                                 : 1 h 37 min9 l9 j, P; `" P( f. u# _
Bit rate mode                            : Constant
) Y& |# P' u) o9 n) y$ vBit rate                                 : 640 kb/s- C* s& b( l7 G0 n/ m$ S4 }# j% [
Channel(s)                               : 6 channels, f$ x6 {) Q4 U# I7 \
Channel layout                           : L R C LFE Ls Rs9 Z$ K; d0 ]+ z  R" Y  ~" o9 L
Sampling rate                            : 48.0 kHz( i4 i5 K5 [- X: f
Frame rate                               : 31.250 FPS (1536 SPF)/ I, K+ N8 F6 W2 E
Compression mode                         : Lossy
0 W/ x2 T5 Z: R. \3 p, S3 `3 LStream size                              : 445 MiB (4%)2 x8 z! e  x( W: V$ v3 p
Title                                    : English
3 y8 H+ H  V) Y! E/ U0 rLanguage                                 : English
' d" M" K, t9 f) K$ ]' rService kind                             : Complete Main( P! S% J1 s- ]* L% V! W4 P1 e
Default                                  : No6 P3 J2 G( y, o/ _/ [) A
Forced                                   : No
9 x; y4 a% D% {# V1 U( W/ V& Q. Y7 B: a  [6 ?1 i; J  N
Text #1
3 [4 s3 a$ i5 Z  U( Z3 `+ J3 m. BID                                       : 30 S4 z: R2 G9 _3 Y
Format                                   : UTF-8
1 @3 Y& h0 P' v3 e4 W5 bCodec ID                                 : S_TEXT/UTF82 }/ U1 v- S# g# T) Y
Codec ID/Info                            : UTF-8 Plain Text
! ]5 J9 B0 W$ Q, i: ADuration                                 : 1 h 36 min5 p% r$ Z$ ~% ^' f* }: Y# {7 I& x+ l
Bit rate                                 : 56 b/s
6 \7 o5 U" E7 t" gCount of elements                        : 1658) A- w6 h" w  h3 ~. E) V2 O; O
Stream size                              : 40.0 KiB (0%)4 T6 E* Y/ u) ~1 g
Title                                    : English+ I3 C1 r4 `/ c( V! M
Language                                 : English
/ M8 {/ R8 n% J- G# A" h7 [Default                                  : No' g/ h1 z* C1 [- D9 ?2 ?
Forced                                   : No* P% x; n8 E) H* E3 n1 _6 J- J
) j+ G* |# K8 W* ?
Text #2; ~3 `+ X0 `- Z! d/ Y
ID                                       : 45 y* B! |. j4 I/ |" d
Format                                   : UTF-8( T* `9 t2 Y; a% Y( R8 ?
Codec ID                                 : S_TEXT/UTF8
2 Q$ U4 ~, u! k" }: K' \4 ^+ lCodec ID/Info                            : UTF-8 Plain Text
! D. K# l3 H$ o+ wDuration                                 : 1 h 36 min. \% P  w- Z* J0 l! F8 ?. y
Bit rate                                 : 71 b/s1 T4 {5 d7 r1 {2 I1 O4 H
Count of elements                        : 1863$ l2 T6 T* H3 G; k/ ?4 K
Stream size                              : 50.5 KiB (0%)
3 o8 v+ _# S: s% d5 PTitle                                    : English [SDH]7 T1 [0 o  F7 M$ S' n& F9 ?$ f& q
Language                                 : English1 m0 C7 X" l( K0 T
Default                                  : No8 o2 k2 o& o$ ]8 e( x7 }
Forced                                   : No
Video
: ^+ J, B7 |2 BID                                       : 1! S% {. D3 F" M
Format                                   : HEVC& N) N9 E7 F/ ~# c# h
Format/Info                              : High Efficiency Video Coding0 n# A0 Y3 [' r8 w+ b) _. p5 y
Format profile                           : Main [email protected]@High
( I. d0 L' i! n; F: m+ Z$ `+ ^Codec ID                                 : V_MPEGH/ISO/HEVC
; T3 O- S* Y: _3 I7 dDuration                                 : 1 h 37 min" r# t9 P# B7 B" H
Bit rate                                 : 11.9 Mb/s
" Z- f+ Z, v! ?Width                                    : 3 840 pixels
* n4 [6 K( C- f: T/ l* i0 ?6 G- C& {Height                                   : 2 068 pixels/ S+ L+ X" M- i) e. V* Z* h
Display aspect ratio                     : 1.85:1) i% ~4 H3 V/ Z8 H
Frame rate mode                          : Constant! B, w) m! |1 \/ y3 c3 F- m
Frame rate                               : 23.976 FPS2 p4 z; `/ u$ C$ ^
Color space                              : YUV- d' @: E- y& L1 c% d
Chroma subsampling                       : 4:2:0$ o0 q$ [2 U0 f: j
Bit depth                                : 10 bits. e, n! J' K' H3 l" r- j- Q7 P
Bits/(Pixel*Frame)                       : 0.062
4 D* u2 n6 g' R$ L  P6 x% LStream size                              : 8.07 GiB (94%)5 J1 x1 [/ }+ g' ?* J6 Q
Default                                  : Yes
! F' w2 J: `: L  Z2 O+ S  W3 MForced                                   : No! C, |( U8 p) v  b& P% E! A6 c
Color range                              : Limited
# p2 G5 c/ o6 B( ]  rColor primaries                          : BT.709
' [# _6 q+ @# TTransfer characteristics                 : BT.709
" l( ]0 P9 r+ z' d, S: RMatrix coefficients                      : BT.7099 R3 {2 v8 {4 G8 x! F+ U

" W$ E2 L8 j0 sAudio
1 S% f- ]+ P" n: Y& D- W+ bID                                       : 2
2 j* @) w$ Y& |  J) C; ?9 I; UFormat                                   : E-AC-3 JOC$ Q2 {, c6 p% F1 g: l7 i
Format/Info                              : Enhanced AC-3 with Joint Object Coding. l% {# Q* Z+ O! r' u; A
Commercial name                          : Dolby Digital Plus with Dolby Atmos' [! r, z4 f  p: K
Codec ID                                 : A_EAC3
: e7 A' E" Y( Z0 s4 M7 s: IDuration                                 : 1 h 37 min: @% c7 R# j" P6 w% M
Bit rate mode                            : Constant
- W4 Z( Q' J. y9 i: ^Bit rate                                 : 768 kb/s# k, K+ |& Q- j2 Z: h8 T# D! y
Channel(s)                               : 6 channels
- r% A+ ?! d. H$ K1 L6 ^, U- O# S) cChannel layout                           : L R C LFE Ls Rs' `% k: l, W/ o3 Q3 ?* p
Sampling rate                            : 48.0 kHz& |. e' `& T9 S6 _' r
Frame rate                               : 31.250 FPS (1536 SPF)7 d5 z8 X( Y) o9 @- G8 U3 O
Compression mode                         : Lossy
) e4 O1 E1 ~" k2 wStream size                              : 534 MiB (6%)
9 ]$ ^% p8 [; f8 k+ [+ STitle                                    : English1 j) E0 y  r: `4 u' f" }
Language                                 : English
$ S9 `; d6 B" N/ y' M: l. v" HService kind                             : Complete Main2 b7 e+ `% D( A. }  U6 _1 @$ B. v
Default                                  : No$ M5 k+ C( g) V% P* c
Forced                                   : No
+ F4 n7 O# k2 `) MComplexity index                         : 16
6 e& T# ]. Z- [" p$ uNumber of dynamic objects                : 15
. _- r/ |; @% y; m% M9 GBed channel count                        : 1 channel
2 y( B3 R1 x" X- VBed channel configuration                : LFE
( m; B! U) _7 G7 X. U
1 y9 V1 H( g9 r; c) o7 {/ OText #1
. u. s/ e6 P+ ~9 q0 m- y  l: t3 U6 aID                                       : 3
, l" ]( w2 P- r- f1 w2 o& gFormat                                   : UTF-8
: o4 c) Z3 C! D. q) R1 TCodec ID                                 : S_TEXT/UTF8
, \9 [( u% l  o& cCodec ID/Info                            : UTF-8 Plain Text
- Q& s2 w6 ]1 j) E( I& FDuration                                 : 1 h 27 min5 F1 V6 @4 z8 g7 c5 M# {
Bit rate                                 : 57 b/s0 q& V6 ^- X0 o. M' v. t$ n
Count of elements                        : 12904 k' w$ [9 \% X' ^  v
Stream size                              : 36.7 KiB (0%)
$ b; |1 F& F9 C$ h- U: uLanguage                                 : English
' c0 L4 E- E9 U* |) K1 g; TDefault                                  : No' D8 `2 I3 E; E( a; f
Forced                                   : No2 C& L  N6 @! j  g
6 `! ]; d! k, ?" y, K
Text #2
2 E4 g& B$ Z! @ID                                       : 4, A+ Z3 H1 Q/ d4 c* m2 P  B
Format                                   : UTF-8
, W9 ?2 N  O* k5 ~) FCodec ID                                 : S_TEXT/UTF85 S' l1 E: K" _2 q  @
Codec ID/Info                            : UTF-8 Plain Text
+ y; ]- U9 F0 z' h5 Y! B9 PDuration                                 : 1 h 36 min
/ y" i& O- ], ?7 t/ aBit rate                                 : 79 b/s, R9 w6 X: b* }) O: S* b6 Z) i9 Q
Count of elements                        : 1862
3 C2 j- o: \2 m% bStream size                              : 55.9 KiB (0%)
' j3 p6 m" X5 y# @' ATitle                                    : SDH
8 |1 G1 v( p6 m) vLanguage                                 : English1 W7 p0 L, ^! D  N
Default                                  : No0 q  E8 h$ R7 b/ W! |
Forced                                   : No
# k+ M9 M# q9 {0 {
* v! S' L' C: O- ^Text #3
2 _$ s/ A; k: G2 {- V& r+ yID                                       : 5( Y$ J. u; [* ~
Format                                   : UTF-8" t# K8 U. X' m+ U3 r# u: M3 @
Codec ID                                 : S_TEXT/UTF8% j  y, L8 e. ?
Codec ID/Info                            : UTF-8 Plain Text
3 z- C2 a, t% o3 \Duration                                 : 1 h 36 min
% R# p, {" \9 W, W( @Bit rate                                 : 43 b/s
& J" n3 h4 H. cCount of elements                        : 1087
8 |: I6 a/ N. C* g0 m9 JStream size                              : 30.5 KiB (0%)
* T+ }+ s" t9 E0 MTitle                                    : Latin American$ t7 `6 U' O+ w. Z* N
Language                                 : Spanish
5 T! N& I0 c0 t  `  s. W; MDefault                                  : No
$ g# k+ h$ v0 n8 |Forced                                   : No* F5 }# C: d7 T1 F5 a* \0 c2 k5 c
4 D  R! S; [5 Y
Text #42 q+ H/ r. a4 b* H3 u0 x; W
ID                                       : 6
& Z% I. m1 h  |2 S( M! c9 dFormat                                   : UTF-8
, h. u! H$ l( N7 e# x: e. Z0 KCodec ID                                 : S_TEXT/UTF8" x; a5 I' q! ]0 c' B. L
Codec ID/Info                            : UTF-8 Plain Text$ t, ]" {0 L, X  ^
Duration                                 : 1 h 35 min
- p& h. O8 y, e& ?9 j7 iBit rate                                 : 45 b/s  y1 t3 m1 B8 ]4 V  n4 ]( `
Count of elements                        : 1125* t8 @( F' P. T4 x+ G
Stream size                              : 32.3 KiB (0%)0 L8 A4 X1 m* i& P
Language                                 : Korean
9 S3 f: e, y" p" g: u( N) h2 IDefault                                  : No
# V7 _; \& g( k: M& W  KForced                                   : No
# ^2 W2 ]. @+ \! D9 u$ E5 i+ n1 v8 x, f( J, j% o/ j
Text #5- v$ a! }# Z' {. u6 Y2 T# m
ID                                       : 79 B- V! C; y0 \
Format                                   : UTF-8+ ?( V' `& L& h4 d, {; |
Codec ID                                 : S_TEXT/UTF8! p# S5 T6 s& r  R& o
Codec ID/Info                            : UTF-8 Plain Text6 p) ?: W4 r5 \
Duration                                 : 1 h 36 min
" S- u7 R, t# j0 a9 q, p2 j3 vBit rate                                 : 44 b/s- k6 O3 Y2 k7 p' v3 |
Count of elements                        : 1077
2 k2 v0 t0 @0 ]0 \Stream size                              : 31.3 KiB (0%)
0 c4 r" K: a4 a# n( k4 j+ \6 `Title                                    : Brazilian
% M" G3 Y2 k: }" A7 xLanguage                                 : Portuguese- u! _- e. J# ]7 D& N2 c
Default                                  : No
+ }* g/ M$ [& F& pForced                                   : No
/ ~2 T% R1 s6 e& }5 H/ {& \
( h/ o) S9 c1 E8 ^Menu
( h' j9 R! Y3 a00:00:00.000                             : en:Chapter 1
# l) o: ?8 f  q, u' J* \00:05:25.949                             : en:Chapter 2
. F8 K, \5 q3 t- T2 K00:11:33.485                             : en:Chapter 38 q& G7 x0 R: }1 w; P
00:18:22.434                             : en:Chapter 4
6 o& Y/ h1 S) ?1 Y00:23:00.630                             : en:Chapter 5
0 V+ a- c: ^0 F5 n+ n00:30:27.160                             : en:Chapter 6
0 n# h2 f/ S# I00:35:03.769                             : en:Chapter 7
, S; D0 t# X2 a1 q00:43:09.130                             : en:Chapter 8
4 E. W+ J5 C, I1 K. f2 C00:47:27.347                             : en:Chapter 9
+ w, V5 _" n2 y/ @00:54:53.418                             : en:Chapter 10' O( r2 [' Z7 Q5 s7 R
01:01:32.817                             : en:Chapter 11
4 E* o. I2 d* `' n01:06:19.478                             : en:Chapter 12' _* N8 p$ W7 T, U) W
01:11:49.184                             : en:Chapter 13
( R" r# b6 \- T! R' e6 S' m. n' I01:18:03.725                             : en:Chapter 147 m8 b; c, ~2 l  B
01:21:52.494                             : en:Chapter 155 s3 Z! T; q3 I% p" O# U+ T2 _
01:26:41.326                             : en:Chapter 16

9 F  i. K% {* J) `) O( q
游客,查看本帖隐藏内容请回复 | 加入VIP贵宾可免积分免回复 了解详情 | 还不是会员:点击获取邀请码 Invitation Code

0

主题

108

帖子

541

积分

Sponsor

金币
61 枚
体力
259 点
zheojian 发表于 昨天 09:37 | 显示全部楼层
每天都来蓝光论坛看看,我爱蓝光电影。
" H( m# z) |! n9 F, k7 F% o+ n要想蓝光电影论坛发展好,资源多,就靠你我他!To the development of Blu-ray movies forum, resources and more depend on you and me!" Z: m' g" v) u1 a( g

4

主题

1240

帖子

3946

积分

Sponsor

金币
43 枚
体力
1426 点
QQ
davidqin 发表于 昨天 09:55 | 显示全部楼层
这么好的帖子不回对不起自己!
3 W* P3 p% i+ H5 J, k( G至少是现在,我一天没有访问蓝光电影论坛就不爽!At least now, my day did not visit the Blu-ray Film Forum on unhappy!9 e. q4 w4 `6 }! \  m' q4 d; |) b

0

主题

26

帖子

252

积分

Sponsor

金币
107 枚
体力
90 点
xiaoshatao 发表于 3 天前 | 显示全部楼层
RE: 毒液2:屠杀开始 [4K高清版] Venom Let There Be Carnage 2021 2160p WEB-DL x265 10bit HDR10Plus DDP5.1 Atmos-NOGRP 10.57GB & 8.59GB [修改]

0

主题

148

帖子

769

积分

Sponsor

金币
5 枚
体力
470 点
狐狸打扮也是猫 发表于 2021-11-24 15:12:43 | 显示全部楼层
这么好的帖子不回对不起自己!
" W+ ?' f# T' ^- t9 P3 PNot see, I am a novice, the inadequacies of the first Please bear with me!
, T. \  U' l% ^/ T

0

主题

134

帖子

1511

积分

Sponsor

金币
60 枚
体力
1184 点
mycjk 发表于 2021-11-24 19:31:52 | 显示全部楼层
啥也不说了,楼主就是给力!
+ c9 F1 h$ q: l& w! `, z) C8 j至少是现在,我一天没有访问蓝光电影论坛就不爽!At least now, my day did not visit the Blu-ray Film Forum on unhappy!
& Y0 [+ t, |; E. \1 R

0

主题

215

帖子

2520

积分

Sponsor

金币
446 枚
体力
1315 点
QQ
scaner1009 发表于 2021-11-24 20:20:42 | 显示全部楼层
啥也不说了,楼主就是给力!

0

主题

30

帖子

259

积分

Sponsor

金币
99 枚
体力
93 点
matrix 发表于 2021-11-24 20:43:56 | 显示全部楼层
希望比1更出色

0

主题

90

帖子

659

积分

Sponsor

金币
195 枚
体力
280 点
aacq 发表于 2021-11-24 22:05:52 | 显示全部楼层
谢谢楼主分享精彩片子,电影院去不成,家里看

77

主题

3618

帖子

1万

积分

Sponsor

金币
1918 枚
体力
5205 点
lanpanshuma 发表于 2021-11-25 05:35:10 | 显示全部楼层
楼主发贴辛苦了,I*老*虎*U!# @. ~1 E0 T  D) a2 E5 h
I love your Blu-ray movies Forum!( u) P4 F- n/ {5 e* S1 \$ O/ c, j

0

主题

78

帖子

419

积分

Sponsor

金币
57 枚
体力
206 点
QQ
vivaking44 发表于 2021-11-25 19:38:24 | 显示全部楼层
感谢大佬分享好电影~~~

0

主题

142

帖子

1114

积分

VIP Primary

金币
97 枚
体力
651 点
alien 发表于 2021-11-25 19:56:20 | 显示全部楼层
楼主发贴辛苦了,I*老*虎*U!1 v" c6 b5 r/ J
In fact, I have always felt that the landlord of good taste! Ha ha!; m5 {' M7 M" ~' D

0

主题

36

帖子

269

积分

Sponsor

金币
91 枚
体力
100 点
nickleqiu 发表于 2021-11-25 21:03:43 | 显示全部楼层
等了好久的 片子下载了

本版积分规则

小黑屋|Archiver|蓝光电影资源网

GMT+8, 2021-12-3 00:50

Copyright © 2001-2022, Tencent Cloud.

快速回复 返回顶部 返回列表