BluRayCD Forum

 找回密码
 立即注册【分享大片】
查看: 7|回复: 0
收起左侧

[2160P极清] 鬼面公仆3 [4K HDR高码版 自带中字] Maniac Cop 3 Badge of Silence 1992 2160p UHD BluRaycd x265 10bit HDR TrueHD 7.1 Atmos-B0MBARDiERS 30.81GB

[复制链接]

6407

主题

6581

帖子

7万

积分

Post Share

金币
14984 枚
体力
21119 点

卓越贡献勋章

* G( A- c% [2 N
0 J7 t1 K8 i9 S: b/ y9 }
◎片  名 Maniac Cop 3: Badge of Silence% q: L1 G- }4 W9 [
◎译  名 鬼面公仆3/终极魔鬼战警/鬼面警察/暴力公仆/暴力警察; m3 {- ?9 R7 g
◎年  代 19931 E! U  z0 U8 Q1 J+ C" J8 r
◎产  地 美国
. a2 w# a6 j, g1 ]1 {' a◎类  别 动作/恐怖
6 x6 ~/ }) v5 w+ z◎语  言 英语& [6 I- B' f5 E% l. s4 d
◎上映日期 1992-12-10(美国)
- S; A3 u# F' w6 {& U◎IMDb评分  5.0/10 from 4,071 users& l6 c5 I7 N; C. }$ k6 \% J
◎IMDb链接  https://www.imdb.com/title/tt0104808/8 U, O- b" Y1 S9 X# A: j
◎豆瓣评分 6.1/10 from 111 users' i# i- o- I( A6 _8 ?; `* o. _
◎豆瓣链接 https://movie.douban.com/subject/3060427/* o- s; v" E1 H* E8 p
◎片  长 1 h 24 min
* z6 a4 N1 t: X! J% g2 F◎导  演 乔尔·苏瓦松 Joel Soisson- X8 l, Z% }0 k: \' U1 B* K$ _
       威廉·拉斯蒂格 William Lustig8 X- b6 ]. |3 w# {
◎编  剧 拉里·柯恩 Larry Cohen
  _4 ]+ P" D- V. Q+ N" c◎主  演 Andy Gill
6 A* V2 _3 p6 F' p) o& P; F       Harri James8 ^( r* {! D$ p, ^) x3 V% G$ C
       格兰德·L·布什 Grand L. Bush! k0 }0 u0 M! [. u1 C4 h2 R
       罗伯特·戴维 Robert Davi) X3 f" S& W; a; i0 O/ l
       杰基·厄尔·哈利 Jackie Earle Haley& _/ `1 h$ a3 s7 o3 f) Q& {
       丹尼·皮尔斯 Denney Pierce
9 v* f+ w  O0 A4 [2 T       道格·萨文特 Doug Savant
# K( K  f, G3 o% c0 E       罗伯特·齐达 Robert Z'Dar
% @2 u9 u" P2 l$ @# f       芭芭拉普莱恩 Barbara Pilavin
+ r  c# e, T" s* F- p) a       泰德·雷米 Ted Raimi, s8 m! x% N, L& C" m$ {, a) G
       凡妮莎·马尔克斯 Vanessa Marquez( B/ m6 V1 L1 [2 \$ n
       巴里·里维斯顿 Barry Livingston
6 Z) ^' u2 @# O" a* j       保罗·格里森 Paul Gleason
. r& d( k' g/ F+ ?1 o" V3 C       罗伯特·福斯特 Robert Forster% ?; M9 j9 E' H0 n# H) N
       Jophery C. Brown' [7 _1 R/ C6 Y* A
       尤利乌斯·哈里斯 Julius Harris
6 T" s* T. N: p. d1 r: O3 S7 }+ ?; c8 ^( O- z
◎标  签 恐怖 | 美国 | 惊悚 | 美国电影 | 犯罪 | 动作 | CULT | 1993
+ I/ t5 ~7 o8 u# p0 c! h
: ~- R: Y/ b! E9 c& U◎简  介   4 }- A/ T# C& g. I: K

  j1 E2 C# c3 {7 _7 v4 k7 s6 w. [  一位练习伏都教艺术的牧师让马特·科德尔复活,马特·科德尔拿了他的徽章,死而复生地执行他的命令。
5 T5 S6 `& o7 d, X2 {3 H
' E. Q7 E" k! e6 F) q3 k  A priest practicing the Voodoo arts resurrects Matt Cordell, who takes his badge and comes back from the dead to do his bidding." h* n4 L4 z3 ]6 D  |/ a

! R+ D  a3 ^: Z3 t: E7 p7 I
Maniac.Cop.3.Badge.of.Silence.1992.2160p.UHD.BluRayCD.x265.10bit.HDR.TrueHD.7.1.Atmos-B0MBARDiERS 30.81 GB* _, @7 @2 k# X) O9 C+ c5 A8 R7 f

, K3 d" _) E& s: T: k+ zVideo6 L  \) ^, D, d! n1 H- L
ID : 1
- q3 ]6 _; W/ W/ _Format : HEVC
( u' X6 |# @; [7 _7 D& aFormat/Info : High Efficiency Video Coding
) t( n& Y7 ~! Y8 \2 N( b$ D) Z/ [Format profile : Main 10@L5.1@High
7 j, x" T' [5 ~8 G- N) C4 gHDR format : SMPTE ST 2086, HDR10 compatible
, H( u. S, {' a* p1 nCodec ID : V_MPEGH/ISO/HEVC) j0 x0 }$ n4 F' T* @
Duration : 1 h 24 min
$ K* D1 j9 W- j) e! H9 eBit rate : 47.1 Mb/s
+ j' ~% o/ S) T) P+ L# [- QWidth : 3 840 pixels
/ r0 k; v) J* O6 F  cHeight : 1 604 pixels
+ x! U' B. p/ k: x0 R4 w. y8 c4 XDisplay aspect ratio : 2.40:1' z6 ]: f4 M2 f  `1 N& F8 P
Frame rate mode : Constant; }, ?; E: ]' v7 C" ~% v( N
Frame rate : 23.976 (24000/1001) FPS
0 N$ }* Y! k0 L& `! hColor space : YUV' _" m3 T1 Q2 O; G
Chroma subsampling : 4:2:0 (Type 2)4 L8 G0 A3 s: j( c
Bit depth : 10 bits
" ?% U, c) ?; x' i0 a3 fBits/(Pixel*Frame) : 0.319; X( o/ R8 J- o0 F! O0 N; B% [
Stream size : 27.8 GiB (90%)6 O0 X- p; J8 I" ?
Writing library : x265 3.5+19-8003e4382:[Windows][GCC 11.2.0][64 bit] 10bit
% d/ T9 `$ x9 ^% f; y# |Encoding settings : cpuid=1176575 / frame-threads=5 / numa-pools=36 / wpp / no-pmode / no-pme / no-psnr / no-ssim / log-level=2 / input-csp=1 / input-res=3840x1604 / interlace=0 / total-frames=121889 / level-idc=51 / high-tier=1 / uhd-bd=0 / ref=4 / no-allow-non-conformance / repeat-headers / annexb / aud / no-eob / no-eos / hrd / info / hash=0 / no-temporal-layers / open-gop / min-keyint=23 / keyint=250 / gop-lookahead=0 / bframes=4 / b-adapt=2 / b-pyramid / bframe-bias=0 / rc-lookahead=25 / lookahead-slices=4 / scenecut=40 / no-hist-scenecut / radl=0 / no-splice / no-intra-refresh / ctu=64 / min-cu-size=8 / rect / no-amp / max-tu-size=32 / tu-inter-depth=1 / tu-intra-depth=1 / limit-tu=0 / rdoq-level=2 / dynamic-rd=0.00 / no-ssim-rd / signhide / no-tskip / nr-intra=0 / nr-inter=0 / no-constrained-intra / strong-intra-smoothing / max-merge=3 / limit-refs=3 / limit-modes / me=3 / subme=3 / merange=57 / temporal-mvp / no-frame-dup / no-hme / weightp / no-weightb / no-analyze-src-pics / deblock=-3:-3 / no-sao / no-sao-non-deblock / rd=4 / selective-sao=0 / no-early-skip / rskip / no-fast-intra / no-tskip-fast / no-cu-lossless / no-b-intra / no-splitrd-skip / rdpenalty=0 / psy-rd=2.00 / psy-rdoq=1.00 / no-rd-refine / no-lossless / cbqpoffs=0 / crqpoffs=0 / rc=crf / crf=19.0 / qcomp=0.60 / qpstep=4 / stats-write=0 / stats-read=0 / vbv-maxrate=160000 / vbv-bufsize=160000 / vbv-init=0.9 / min-vbv-fullness=50.0 / max-vbv-fullness=80.0 / crf-max=0.0 / crf-min=0.0 / ipratio=1.40 / pbratio=1.30 / aq-mode=2 / aq-strength=1.00 / cutree / zone-count=0 / no-strict-cbr / qg-size=32 / no-rc-grain / qpmax=69 / qpmin=0 / no-const-vbv / sar=1 / overscan=0 / videoformat=5 / range=0 / colorprim=9 / transfer=16 / colormatrix=9 / chromaloc=1 / chromaloc-top=2 / chromaloc-bottom=2 / display-window=0 / master-display=G(8500,39850)B(6550,2300)R(35400,14600)WP(15635,16450)L(10000000,1) / cll=1000,725 / min-luma=0 / max-luma=1023 / log2-max-poc-lsb=8 / vui-timing-info / vui-hrd-info / slices=1 / no-opt-qp-pps / no-opt-ref-list-length-pps / no-multi-pass-opt-rps / scenecut-bias=0.05 / hist-threshold=0.03 / no-opt-cu-delta-qp / no-aq-motion / hdr10 / hdr10-opt / no-dhdr10-opt / no-idr-recovery-sei / analysis-reuse-level=0 / analysis-save-reuse-level=0 / analysis-load-reuse-level=0 / scale-factor=0 / refine-intra=0 / refine-inter=0 / refine-mv=1 / refine-ctu-distortion=0 / no-limit-sao / ctu-info=0 / no-lowpass-dct / refine-analysis-type=0 / copy-pic=1 / max-ausize-factor=1.0 / no-dynamic-refine / no-single-sei / no-hevc-aq / no-svt / no-field / qp-adaptation-range=1.00 / scenecut-aware-qp=0conformance-window-offsets / right=0 / bottom=0 / decoder-max-rate=0 / no-vbv-live-multi-pass0 x* _+ f% T+ x; C5 K& t! g
Default : Yes7 {0 Y' R/ ^! s9 U3 |7 K
Forced : No
5 A/ p, A" T) MColor range : Limited
! V! `3 j( B8 z  b  `: Z# p7 LColor primaries : BT.2020# {& I/ I% J- M
Transfer characteristics : PQ1 L/ K( y! ^; u7 O  V; b
Matrix coefficients : BT.2020 non-constant
" F, |1 N4 M  g, ]% f2 _! WMastering display color primaries : BT.2020
: F8 X1 e% G6 ~: n; W! MMastering display luminance : min: 0.0001 cd/m2, max: 1000 cd/m2: O0 Q. B* B" W; O' [- _2 a* Q+ A
Maximum Content Light Level : 1000 cd/m2
! m1 k4 A- \1 G5 sMaximum Frame-Average Light Level : 725 cd/m2# Q% e+ }% t( `- Y7 I' l
2 g0 i" [) r! F
Audio #1
) F1 d4 A# N# }, d. u* d8 H. PID : 2$ C6 H( d& R( G. T' w
Format : MLP FBA 16-ch* s2 a2 \+ d3 W
Format/Info : Meridian Lossless Packing FBA with 16-channel presentation! y+ j% b9 C/ s
Commercial name : Dolby TrueHD with Dolby Atmos
" ^/ W$ \" {7 ^4 i+ ICodec ID : A_TRUEHD
+ e- N7 g( O5 V2 I* }6 bDuration : 1 h 24 min2 r! u7 c4 T* c' g
Bit rate mode : Variable7 e' R3 _7 s& J3 S! h, S( S' H
Bit rate : 4 040 kb/s
$ d$ c/ c8 \# |/ L/ \Maximum bit rate : 6 126 kb/s/ ]; f# q' F: s
Channel(s) : 8 channels
! q9 k1 y( M: q* ]  IChannel layout : L R C LFE Ls Rs Lb Rb
4 V- t. {! W) x; [3 M4 }0 jSampling rate : 48.0 kHz  m3 x7 x1 P6 h/ I3 @, q
Frame rate : 1 200.000 FPS (40 SPF)
7 b  b8 p6 L0 s/ I" `, R: }, m( FCompression mode : Lossless: ?* U2 }, g" @' A2 E0 @* f7 v
Delay relative to video : 3 s 44 ms
7 k3 F  L4 D( q5 u& ~1 QStream size : 2.39 GiB (8%)  J4 c" _. o- p1 A
Language : English4 V( _5 v/ q6 T0 s* y5 v3 Y
Default : Yes4 F& B* M& B: L' Q
Forced : No
4 g$ E& ~& ?" BNumber of dynamic objects : 11* I. v$ K7 @8 c% N
Bed channel count : 1 channel
5 H8 c# l/ D/ V" j% J& jBed channel configuration : LFE
, i( a/ L1 r  X, ?* m; a/ D$ ~+ H& Q0 @+ @2 d9 q
Audio #2$ C/ a1 d7 A9 `# L4 M
ID : 3; p2 x0 V/ {2 Y9 S3 t  L% [# @& c" T
Format : AC-39 I1 r+ v& p& h6 B7 ~$ ]; B$ K
Format/Info : Audio Coding 3
/ K3 ?' u% G7 N) R7 |2 LCommercial name : Dolby Digital
* I. Q- ]  {" \' U5 T6 KCodec ID : A_AC3( r9 n$ K7 Q/ D8 a( s8 T* \, l
Duration : 1 h 24 min
, d" }9 e. X1 Y8 F5 v4 Y0 l( w' }Bit rate mode : Constant& b0 z& [8 Y2 U
Bit rate : 640 kb/s# I7 C5 O( ]+ W1 r5 H
Channel(s) : 6 channels$ \4 p" @# w! J9 [! \: q
Channel layout : L R C LFE Ls Rs% S! t1 l% f$ a0 G& P4 i+ D
Sampling rate : 48.0 kHz
* C% X  ^6 L6 Z0 _  c% bFrame rate : 31.250 FPS (1536 SPF)
- m5 O9 N9 Q6 L+ b4 e. PCompression mode : Lossy
$ j" q  T& e2 T# f9 wDelay relative to video : 3 s 44 ms& h" g* a! S! c$ R
Stream size : 388 MiB (1%). G* w. g" i, X
Language : English8 q; {9 w' S( i% R2 Z  W8 q
Service kind : Complete Main
- X! _2 |+ Y, eDefault : Yes
% p) t0 x; p, R: O1 @Forced : No
) {6 w) l1 O2 I2 `! a8 a( `4 N/ Z& |$ v. [  L
Audio #35 M% G9 G' S+ h- D/ a8 P9 M9 z
ID : 4
5 M0 M% m- C* j2 J/ j( U* {5 @" ZFormat : AAC LC4 o- v. D: _( S4 }* ?% [0 |! \
Format/Info : Advanced Audio Codec Low Complexity
# x; {6 m* f" y; Q0 z" PCodec ID : A_AAC-2
" x" M6 L" q8 Q, l6 ^8 L0 }Duration : 1 h 24 min& z: `# p( P  S: {$ S
Bit rate : 87.5 kb/s. _  E" ~$ p0 T
Channel(s) : 2 channels! i) Z7 Z4 t0 d+ D+ T9 F1 Q  z
Channel layout : L R3 R/ Z. J; [5 u6 l
Sampling rate : 48.0 kHz
. k( m3 h+ C+ O0 B; }- ]Frame rate : 46.875 FPS (1024 SPF)
- h( d: w+ [) wCompression mode : Lossy
/ j6 Z7 j: B1 s1 t, O0 r5 ZDelay relative to video : 9 ms
( C# G* {+ _9 K, o& _% @; rStream size : 53.0 MiB (0%)  k# O* w; b: ?
Title : Commentary2 U/ h& k! H& T) G- m$ p! y
Language : English; h) W* s9 u! _4 u; _& e' f4 b: O
Default : Yes9 C5 R/ r( |( |
Forced : No
4 i* c% {3 O: G1 J4 r4 `" T
/ \: H! [5 _6 b* v$ `$ _7 SText #1
$ O8 E3 j; z4 w  N, D- XID : 5; a- E( V: F# N& z) r: H% ]+ a7 ~* Z
Format : PGS
  H7 y5 |1 R8 c! x5 rMuxing mode : zlib
/ [+ H# I5 v! ~5 |5 ~Codec ID : S_HDMV/PGS
# L6 e! \& K4 _# WCodec ID/Info : Picture based subtitle format used on BDs/HD-DVDs$ Y$ P2 c, ?8 r8 f( o
Duration : 1 h 17 min" R8 Z8 @# h+ x' ]$ C7 b0 ~/ o1 _
Bit rate : 31.4 kb/s
) D6 z7 k% {- f" z4 NCount of elements : 16004 E" w6 h9 b6 m& Z4 _' w+ i
Stream size : 17.4 MiB (0%)
7 W/ }  i, K: r& cTitle : English SDH/ C' Z1 o& ?' Y/ N
Language : English
1 m% Y& r# q3 R3 h  P7 v) r( `5 HDefault : No
' ~. G; m4 L$ w0 @Forced : No8 V/ {  \0 u( P
# C, ]# H0 e: d( j
Text #2
0 T# P! y% M. i3 NID : 6
( ]5 |/ D& ?7 K$ p! }Format : PGS
7 L9 [7 o% D5 z& H/ |Muxing mode : zlib7 I8 h2 H4 W2 v% K- [- F
Codec ID : S_HDMV/PGS
% A' @' a7 W8 V( G; T; H7 HCodec ID/Info : Picture based subtitle format used on BDs/HD-DVDs
- t! Q3 q0 T, kDuration : 1 h 24 min
" g" Q( Q; F1 @% }% [0 OBit rate : 23.2 kb/s
( |, ]2 h# f2 Z7 mCount of elements : 13102 _* I: g% P- ~7 `) b3 S' T( e
Stream size : 14.0 MiB (0%)
; G$ H$ }) b# l) f& w) Z: LTitle : French% x4 v3 ]& F/ N
Language : French/ d( S! D4 r, F, X
Default : No7 _3 p; p- h3 J/ z* b0 z
Forced : No
( R) O1 p, P& b0 I  Z3 Q( @& i7 n
Text #36 ~' G5 ]* m, d1 T- [
ID : 7- ?4 I- Z3 W3 a1 \7 d9 }
Format : PGS
5 k; @. n1 |7 wMuxing mode : zlib+ @- P& g$ @  D8 O
Codec ID : S_HDMV/PGS& [! }- g4 k- A* ]2 g
Codec ID/Info : Picture based subtitle format used on BDs/HD-DVDs, I  ]9 Q2 B! Y: [/ v( k
Duration : 1 h 24 min7 O' d( G: e3 v* }! z1 |" ^3 w
Bit rate : 22.4 kb/s- Z' k. U( I( C+ r& s
Count of elements : 1292
# h3 d0 n$ \$ o8 E5 k. Y7 fStream size : 13.5 MiB (0%)
' }8 e/ e* v0 w# H$ \Title : Spanish* s0 x# z' l, B: a1 s
Language : Spanish
' ]9 j& q, Q3 V; ADefault : No
) v" n: X% y  F( S6 E1 M3 r8 C2 V( uForced : No$ [) l7 x( Z. M
, t$ D5 Q) S( y
Text #4, T5 U) C9 J7 q$ J1 y( f
ID : 82 }* N4 v  O4 k* F" |4 K7 Q
Format : PGS! e8 K6 D4 n0 z! }6 b' x" E
Muxing mode : zlib& |' n: F2 |0 p& _; O# Q- n
Codec ID : S_HDMV/PGS, b2 _  K! L( V% s: b! Z
Codec ID/Info : Picture based subtitle format used on BDs/HD-DVDs
3 _" ]) Q1 s5 c/ ADuration : 1 h 24 min
; x/ {" N! m/ X  QBit rate : 21.6 kb/s' t3 K1 [  a# w
Count of elements : 1306
. I9 {  ]5 R/ |; ?$ bStream size : 13.0 MiB (0%)
% G8 o0 |( |* o( T% |/ vTitle : Portuguese
9 A$ H# u0 R9 h7 lLanguage : Portuguese( j% t! m* y9 M  }8 X0 O
Default : No8 o+ S1 o) a# @2 C9 u( @+ p
Forced : No
0 i- m- O% Q( l# W2 P7 M
; U  Q, @4 C/ t8 m" kText #5
/ |/ x6 u5 R' h% j& @! e' V& rID : 9
6 p9 l7 e( }4 a: OFormat : PGS
7 O7 ~6 O, ~2 S- r$ XMuxing mode : zlib: X: d+ r: {0 n4 Q! Q0 V% S
Codec ID : S_HDMV/PGS* Z' L9 k! j" g. R  u+ |+ r
Codec ID/Info : Picture based subtitle format used on BDs/HD-DVDs
! M* y/ G) ^, e8 Y$ bDuration : 1 h 24 min
2 F2 _7 f* F% Q7 s% b% O, r  p7 w% NBit rate : 21.8 kb/s
% U  |0 ^, f' rCount of elements : 1250
) R$ N# t- T5 o8 u, v5 x5 ~Stream size : 13.1 MiB (0%)
$ J: |$ `. q: D$ WTitle : Spanish
3 }8 ^& O7 V" l4 Z2 H6 K3 ~Language : Spanish
; a* r/ E0 U, J  v2 xDefault : No; M2 S! n+ j7 G1 H. e8 X
Forced : No: i4 f& }" w. d% m3 [9 \4 t/ X- c
7 d; x* I, J+ E; i3 D( a. ^/ \
Text #6
) z2 I2 q& V# j0 ~' d  Y7 R" ?ID : 10
! M/ |6 K9 }  e8 f' w% p  s# o$ IFormat : PGS# _/ S+ D$ m) y: ?5 t
Muxing mode : zlib
6 u2 r/ F7 }  r+ _/ \2 D6 G, V3 VCodec ID : S_HDMV/PGS
( Q$ d- o: H/ h6 Y8 ?Codec ID/Info : Picture based subtitle format used on BDs/HD-DVDs
1 J6 j% A6 {# t* E. h& I$ [9 xDuration : 1 h 24 min) s( Z. ]5 T$ |7 d% x% I5 J
Bit rate : 25.2 kb/s
" J, @# D$ e  u! Z4 {Count of elements : 13109 G' k8 W* o* e' N6 s
Stream size : 15.2 MiB (0%)0 A6 t% @  u: }
Title : French
  t: N& Y6 b+ t8 C; B, ~) L- CLanguage : French0 ^/ j: s) j8 O
Default : No1 _' Y8 I) K, F' \7 |; N
Forced : No3 ^3 {  ^  Y3 J$ w
& a" k& X" k. L9 ^8 F8 x, g- b6 m
Text #7
9 A7 d+ ?# a! E, t: k# i5 WID : 11+ v4 |5 m- f( M6 y3 h$ c( O& D
Format : PGS
* f5 l6 B' l. ~; n8 {Muxing mode : zlib- a8 o+ D1 `8 W* c
Codec ID : S_HDMV/PGS
7 u3 s$ g. t8 [) F7 M/ v3 M/ ]Codec ID/Info : Picture based subtitle format used on BDs/HD-DVDs! `  p" x* V2 U( q' M4 q/ v4 {
Duration : 1 h 24 min! M$ b3 L# R( r7 ]
Bit rate : 26.0 kb/s/ {% m3 d  X+ h' S- o1 k
Count of elements : 1312/ Q3 G- j: Z5 t) h5 M
Stream size : 15.7 MiB (0%)' B6 `, J7 O: G: _! l9 `
Title : German9 p4 x+ h; E! o; b% H) ]% [
Language : German; I+ w# L& D( r0 M
Default : No
" p/ b6 A& I: H) SForced : No1 u' F8 o6 @+ O4 b" F& C/ `: o
1 }; Z4 [* e! ~7 z3 X) I
Text #8
: {, ?/ A* O# u3 A8 }ID : 12' Y9 s$ ]: F3 m& i9 `( D3 g, ^
Format : PGS5 G* ?9 ?' v! G' m, u0 Z
Muxing mode : zlib5 M: d7 t( _9 Q5 `6 O
Codec ID : S_HDMV/PGS
9 s% U0 r' e  o, u4 T" SCodec ID/Info : Picture based subtitle format used on BDs/HD-DVDs3 P& K8 O* p% u' w) K; e! J& N. z
Duration : 1 h 24 min
+ D9 F* [3 v8 o* pBit rate : 23.3 kb/s
2 B& Y- L( G% u2 d5 q1 OCount of elements : 1304
( h; C( D* J; s" {6 }6 p: uStream size : 14.0 MiB (0%)# W# |( `. B; G1 S2 c: U6 X
Title : Italian1 m0 r& n  b! ]& J( s! b1 q+ Q
Language : Italian/ v, {- b' z& V" ]/ i
Default : No
0 _  R8 a+ I" f( g" IForced : No0 P# E3 W& f. E( s

% _9 A2 s9 o0 W' o7 \& K! EText #9
! ?: b. O; ~1 o  g" Q9 _# cID : 13
/ _) c" z8 s% x2 |) EFormat : PGS  A) \" x" t' ^3 h3 p# s" {  d' L0 {
Muxing mode : zlib& C: _! t0 r( J
Codec ID : S_HDMV/PGS
9 \) o- y* j' F8 }, SCodec ID/Info : Picture based subtitle format used on BDs/HD-DVDs
5 E0 D0 B. e! t& xDuration : 1 h 24 min/ ?& {- N3 p. T2 Y; v0 O4 B
Bit rate : 19.6 kb/s' B! n' C) z* R. \1 L  |
Count of elements : 1378
! u" B1 b; p+ k: j% w; bStream size : 11.8 MiB (0%)4 T7 y; q- L: `0 Q- ~- l" b  j
Title : Chinese9 J3 o( `6 I6 {* }; m. b
Language : Chinese
2 A+ v" i6 L- y* v* D' SDefault : No
$ Z+ a2 P- M) fForced : No
: @/ D" U* r6 X/ j* b: `0 j( l; |: o$ d- z: P/ y
Text #10
9 z! {( |& t; k5 kID : 14
$ y$ n9 f" s- D: j0 {Format : PGS0 K6 E# ?: S+ @
Muxing mode : zlib, F) G! w0 Y* ~0 ^2 i# k
Codec ID : S_HDMV/PGS
% m% U( V, U  U, f: B! e* I2 G* fCodec ID/Info : Picture based subtitle format used on BDs/HD-DVDs) c9 {1 Z9 ]8 F9 d- ?
Duration : 1 h 24 min
+ f7 V5 k# V; C: aBit rate : 20.2 kb/s+ r% R) }4 [9 r% U; v( f& [: u  u  S4 Y* b
Count of elements : 1378! e) {; \5 j& A% D7 I7 i( |7 o
Stream size : 12.2 MiB (0%)$ G% @7 b' S; G- L
Title : Chinese
- P5 t: x4 m- ?4 `# P& ^/ a+ qLanguage : Chinese* Q; k$ t& z  `
Default : No) Z/ J) j7 z4 Y) S) p% a2 p1 \
Forced : No
9 l6 f1 b4 X6 c" @( ~7 `, G
2 n  z, _1 @, p0 H8 hText #11: J! c! o& H2 [1 O0 u- m* I3 q, C1 k
ID : 15" r7 E; r" q5 B3 X) K0 B& G
Format : PGS' c4 s; I7 t5 r+ B" f  R3 ^8 A2 `
Muxing mode : zlib
2 m" ~- P4 W% @# j2 W" W# lCodec ID : S_HDMV/PGS
9 v) |$ M7 Q6 J$ @( _Codec ID/Info : Picture based subtitle format used on BDs/HD-DVDs
$ K  w/ s9 k- a6 i0 N! S2 VDuration : 1 h 24 min0 L$ H+ a1 N' s, d( A# q* [
Bit rate : 16.8 kb/s$ ^% b6 ]9 t/ {
Count of elements : 1380
5 n  c' c! d6 \! }. o0 [Stream size : 10.1 MiB (0%)
/ `; I8 }: |+ _3 G* T4 o% s" nTitle : Korean" ]" _: s3 t  s9 b# T' M
Language : Korean: b6 U5 N, T# o
Default : No- k  i2 I0 `/ E2 u+ E% g: F- w* D
Forced : No
; J3 }: c' d: t  E: X, l. C8 s5 R0 x+ P2 R. ]! H
Text #12
5 @( b5 T$ m- c/ XID : 16
2 e  _* {' q9 b: C; JFormat : PGS0 O% I7 y+ y/ t5 E; @0 w3 S
Muxing mode : zlib4 F- p9 y! C3 Z9 @8 X
Codec ID : S_HDMV/PGS7 D# T7 p1 g% f" L
Codec ID/Info : Picture based subtitle format used on BDs/HD-DVDs5 a' k8 x9 n% S: S* c8 F; D
Duration : 1 h 24 min
) v: l" Z. K! H5 ]7 M* Z$ VBit rate : 15.4 kb/s: ^6 Q( Y& ^: ]3 f1 g' }" G
Count of elements : 1291
1 j) x, q! }, SStream size : 9.27 MiB (0%)
5 S5 J% C9 _6 B& ^( PTitle : Japanese% V: O$ G+ @/ ?. o) c+ a
Language : Japanese
. Z4 f  A9 O2 _. |) j( m: w4 iDefault : No
, O* E; t3 N$ L+ @* s  f/ }4 }Forced : No! p0 D7 j* X3 b* D5 O, \5 x
' c- l0 c  F2 l( l. M1 K' O
Text #131 f- G5 M: M* R; l
ID : 17
, j9 r( E! C1 u" R2 n) E- v; vFormat : PGS
5 d6 g& ]$ p+ k) }7 o5 G$ wMuxing mode : zlib
' f" c# Z. ]$ |! {Codec ID : S_HDMV/PGS
/ B; ?. _7 a% {) l, H& i% yCodec ID/Info : Picture based subtitle format used on BDs/HD-DVDs: H6 L( @# E5 ~0 A4 ^
Duration : 1 h 24 min, `& \( W) |/ M  D, K. \
Bit rate : 26.3 kb/s" l- c" g! p5 c5 d/ A3 X
Count of elements : 1316
+ m; Z: Q+ J4 A' }8 _Stream size : 15.8 MiB (0%)
3 c0 M+ [1 j/ y4 UTitle : Russian
6 `8 A5 @4 K0 L  |Language : Russian6 ^. T4 {) b! m! R2 _( i6 N
Default : No
6 Z- W0 s5 N5 |. h; b  _. U5 UForced : No
% @" g# R" s% F0 k4 Z( ^+ p/ x+ L* T7 Q; Q' J2 E5 Q9 e
Menu5 a$ Y) W4 W1 Z' `. e& w
00:00:00.000 : en:Chapter 01
4 B2 l2 V, C/ Z' M+ N3 C00:06:48.908 : en:Chapter 02) K6 w1 \! c* ^$ B" }5 p
00:10:50.149 : en:Chapter 03
* b; j3 a( ~5 _; @9 z" g7 g2 t00:15:03.236 : en:Chapter 04
  e3 b0 V# p5 E% }, H, W  b& g00:20:05.496 : en:Chapter 05
. }- ]) U) O( t: j8 m* W00:23:54.933 : en:Chapter 06" c0 q, O+ |4 ?2 C; I
00:29:19.299 : en:Chapter 073 {# y2 k6 {! a4 R/ T
00:33:49.236 : en:Chapter 08! u- E0 I9 m- N$ _( v) I
00:39:09.013 : en:Chapter 090 Z2 x9 A! H0 M* Z. i) }1 B
00:44:59.113 : en:Chapter 10! D1 d" z$ z8 S/ C
00:49:35.973 : en:Chapter 111 v4 O1 j3 w/ X9 y0 a* q( K" B
00:53:43.929 : en:Chapter 12
. @7 ~1 k6 C- n7 \* p* G00:58:12.656 : en:Chapter 131 U! ?( q, M0 ~' C% w4 w; k1 r
01:04:32.077 : en:Chapter 14
: r4 K: O# n" Z9 f* O8 B' b01:10:50.496 : en:Chapter 15& v' Q) w: V( T, N1 M. Q" A& |
01:16:15.821 : en:Chapter 16
  E" h9 V+ I- d* N' R) ]/ |  L01:20:54.308 : en:Chapter 17
+ H8 z2 g4 i+ z, D7 z, j8 U8 b01:24:43.537 : en:Chapter 18
) |& F# ?+ X- U0 p! ^
游客,查看本帖隐藏内容请回复 | 加入VIP贵宾可免积分免回复 了解详情 | 还不是会员:点击获取邀请码 Invitation Code

本版积分规则

小黑屋|Archiver|蓝光电影资源网

GMT+8, 2021-12-3 01:07

Copyright © 2001-2022, Tencent Cloud.

快速回复 返回顶部 返回列表