BluRayCD Forum

 找回密码
 立即注册【分享大片】
查看: 5|回复: 0
收起左侧

[2160P极清] 鬼面公仆3 [4K SDR高码版 自带中字] Maniac Cop 3 Badge of Silence 1992 2160p BluRaycd x265 10bit & 8bit SDR DTS-HD MA TrueHD 7.1 Atmos-SWTYBLZ 44.38GB & 47.54GB

[复制链接]

6407

主题

6581

帖子

7万

积分

Post Share

金币
14984 枚
体力
21119 点

卓越贡献勋章


$ o2 V( t3 R% X% X1 y
# U# T6 _, m( l. o' X◎片  名 Maniac Cop 3: Badge of Silence8 c5 H& v! w  P0 f- K
◎译  名 鬼面公仆3/鬼面警察/暴力公仆/终极魔鬼战警/暴力警察& ?4 |  W. G4 ~/ }) G; t) g$ `
◎年  代 19934 N1 ~* O  F4 g% I* u
◎产  地 美国/ _; x0 e4 R8 _) ?0 v& B7 j* r
◎类  别 动作/恐怖
: `4 k/ d7 b/ C2 d6 r$ |' a/ D◎语  言 英语
$ I: g  Q; x4 R2 s◎上映日期 1992-12-10(美国)1 }7 Y, ]2 _. ^5 P; f
◎IMDb评分  5.0/10 from 4,071 users& G/ j6 R: y5 n/ X8 C- i1 u% ~
◎IMDb链接  https://www.imdb.com/title/tt0104808/
# C0 v4 G* @- Q7 ~◎豆瓣评分 6.1/10 from 111 users
: i- {) N5 `) N$ ]9 Q◎豆瓣链接 https://movie.douban.com/subject/3060427/3 S4 u+ ]' @9 H6 I
◎片  长 1 h 24 min
% y% n9 v+ v8 R7 f- k& E. Z◎导  演 乔尔·苏瓦松 Joel Soisson# _! C; ~' z% p# [: v4 g
       威廉·拉斯蒂格 William Lustig1 l! l" F: C6 f1 f9 ^
◎编  剧 拉里·柯恩 Larry Cohen$ y- {) O/ E. Q# A" r- `8 ]/ i
◎主  演 Andy Gill  v: `5 Y' |- M
       Harri James
& T) d- a- j( A: o4 m* F2 b       格兰德·L·布什 Grand L. Bush& e, h5 o' ~! f- y
       罗伯特·戴维 Robert Davi
, H3 n4 N) N+ f) D% z       杰基·厄尔·哈利 Jackie Earle Haley
! `9 N0 w  X) Z. Z( |+ k* m! q8 n0 d8 O       丹尼·皮尔斯 Denney Pierce
2 s; {: T  m, q' N; c% `       道格·萨文特 Doug Savant
4 D  E( k! i0 h( Z! O/ x* \( ]& J8 H       罗伯特·齐达 Robert Z'Dar; H8 h1 f4 A; Q* n* h2 m
       芭芭拉普莱恩 Barbara Pilavin2 S2 R+ {0 ?1 C/ M7 V/ ^" `: q
       泰德·雷米 Ted Raimi& I3 E0 c9 @- h; ]1 j
       凡妮莎·马尔克斯 Vanessa Marquez5 N5 I: S$ v6 b; Y
       巴里·里维斯顿 Barry Livingston
: K6 M  N4 o7 I3 E$ j       保罗·格里森 Paul Gleason. H8 D! K2 ^# O' S
       罗伯特·福斯特 Robert Forster
9 l7 p: _, M. T- G* n8 u7 N       Jophery C. Brown
* f; _: h+ o' X7 L! O       尤利乌斯·哈里斯 Julius Harris
  V, b* j* D) u( w9 f  ?5 G, O
  E8 X- H6 h) k9 }1 @- ^' X◎标  签 恐怖 | 美国 | 惊悚 | 美国电影 | 犯罪 | 动作 | CULT | 19939 s1 E! e1 ]0 D
. H& J. s7 p$ ~
◎简  介     N5 v1 ]( j2 U& N: c& v

5 C; E2 z. B% n! @& ^; k  `- Q  一位练习伏都教艺术的牧师让马特·科德尔复活,马特·科德尔拿了他的徽章,死而复生地执行他的命令。
% ?3 b) @  s6 q: t+ Z" C5 u: @( K( d8 [8 A
  A female cop is gunned down and wrongly accused of using excessive force in a hostage rescue attempt. Maniac cop returns from the dead once more to seek revenge, destroying everthing and anyone that stands in his way.
) F# H4 O0 K% t# b( z' [. k
& M; T% p1 a& g. c# D
SWEATY BALLZ presents
5 g& L# s8 W* V" g
) T$ r' I% v( R- u8 WManiac.Cop.3.Badge.of.Silence.1992.2160p.BluRayCD.x265.10bit.SDR.DTS-HD.MA.TrueHD.7.1.Atmos-SWTYBLZ 44.38GB ' B0 }5 q& J* J9 C2 H* b9 }$ ~
Converted from 10 bit HDR to 10 bit SDR using tripple mixed Hable-Reinhard-JJ per scene+frame analysis algorithm5 u2 C. M1 a' Y
Screenshots are 8bit SDR  B3 Z, u- G8 u
0 p7 d- b6 j( \& d! m( C/ z
Video
) M# K' `  m) }6 O6 @% qID                                       : 1* r: ~# w% F- I5 o* ^, r
Format                                   : HEVC6 x2 ]+ r' n; Y4 k# i
Format/Info                              : High Efficiency Video Coding
+ s5 @8 m5 Q% a9 E1 MFormat profile                           : Main [email protected]@High
" B) i8 f( @# B, D& UCodec ID                                 : V_MPEGH/ISO/HEVC
! A' {) {3 A$ J- i/ IDuration                                 : 1 h 24 min
4 P% \* V7 s7 c* VBit rate                                 : 65.6 Mb/s
) [1 }5 X% o. u0 l8 X/ B' }2 B! oWidth                                    : 3 840 pixels
2 }2 J; H- [( ^4 f" R# l4 f- i+ tHeight                                   : 1 606 pixels
. n, `1 N' v( L; CDisplay aspect ratio                     : 2.40:13 }# M. \: A) R$ f/ W
Frame rate mode                          : Constant
* E/ b' a* `' ~! |3 {Frame rate                               : 23.976 (24000/1001/189150) FPS. C/ f0 P: W$ q' G
Color space                              : YUV
6 S3 N. e6 B2 O3 i( f1 NChroma subsampling                       : 4:2:06 y( v& u; h1 H. R: U/ C, R
Bit depth                                : 10 bits' I! E4 D5 ~! W3 p8 y
Bits/(Pixel*Frame)                       : 0.443
2 i* R  p4 l: f8 b! }Stream size                              : 38.8 GiB (88%). c6 c" j# V8 L, }0 V
Writing library                          : x265 3.0ed72af837053:[Windows][GCC 8.2.0][64 bit] 10bit
7 G; n5 V/ K! h- R. o3 kEncoding settings                        : cpuid=1111039 / frame-threads=6 / numa-pools=40 / wpp / no-pmode / no-pme / no-psnr / no-ssim / log-level=2 / input-csp=1 / input-res=3840x1606 / interlace=0 / total-frames=121889 / level-idc=51 / high-tier=1 / uhd-bd=0 / ref=3 / no-allow-non-conformance / repeat-headers / annexb / aud / hrd / info / hash=0 / no-temporal-layers / no-open-gop / min-keyint=1 / keyint=24 / gop-lookahead=0 / bframes=4 / b-adapt=2 / b-pyramid / bframe-bias=0 / rc-lookahead=25 / lookahead-slices=4 / scenecut=40 / radl=0 / no-splice / no-intra-refresh / ctu=64 / min-cu-size=8 / no-rect / no-amp / max-tu-size=32 / tu-inter-depth=1 / tu-intra-depth=1 / limit-tu=0 / rdoq-level=0 / dynamic-rd=0.00 / no-ssim-rd / signhide / no-tskip / nr-intra=0 / nr-inter=0 / no-constrained-intra / strong-intra-smoothing / max-merge=2 / limit-refs=3 / no-limit-modes / me=1 / subme=2 / merange=57 / temporal-mvp / weightp / no-weightb / no-analyze-src-pics / deblock=0:0 / no-sao / no-sao-non-deblock / rd=3 / no-early-skip / rskip / no-fast-intra / no-tskip-fast / no-cu-lossless / no-b-intra / no-splitrd-skip / rdpenalty=0 / psy-rd=2.00 / psy-rdoq=0.00 / no-rd-refine / no-lossless / cbqpoffs=0 / crqpoffs=0 / rc=crf / crf=20.0 / qcomp=0.60 / qpstep=4 / stats-write=0 / stats-read=0 / vbv-maxrate=160000 / vbv-bufsize=160000 / vbv-init=0.9 / crf-max=0.0 / crf-min=0.0 / ipratio=1.40 / pbratio=1.30 / aq-mode=1 / aq-strength=1.00 / cutree / zone-count=0 / no-strict-cbr / qg-size=32 / no-rc-grain / qpmax=69 / qpmin=0 / no-const-vbv / sar=1 / overscan=0 / videoformat=5 / range=0 / colorprim=2 / transfer=2 / colormatrix=2 / chromaloc=0 / display-window=0 / max-cll=0,0 / min-luma=0 / max-luma=1023 / log2-max-poc-lsb=8 / vui-timing-info / vui-hrd-info / slices=1 / opt-qp-pps / opt-ref-list-length-pps / no-multi-pass-opt-rps / scenecut-bias=0.05 / no-opt-cu-delta-qp / no-aq-motion / no-hdr / no-hdr-opt / no-dhdr10-opt / no-idr-recovery-sei / analysis-reuse-level=5 / scale-factor=0 / refine-intra=0 / refine-inter=0 / refine-mv=0 / refine-ctu-distortion=0 / no-limit-sao / ctu-info=0 / no-lowpass-dct / refine-analysis-type=0 / copy-pic=1 / max-ausize-factor=1.0 / no-dynamic-refine / no-single-sei / no-hevc-aq / qp-adaptation-range=1.00
( U) d* Z% t% j) G& N( Z7 |9 gDefault                                  : Yes) k3 Y  T; f! D3 ~: }" r" ?( s2 y
Forced                                   : No1 X$ W6 b! a' ^! z. z

) [+ x8 c) P% X' _; _* qAudio #1
; K, ]3 Q/ b3 O7 T: q7 j5 y  OID                                       : 2# ~: Y% O% A* E
ID in the original source medium         : 4352 (0x1100)
/ h* t4 `" p2 N9 h/ ]' eFormat                                   : MLP FBA 16-ch* X2 F  V) Z! o" _. M$ `: O+ K* V) ?
Format/Info                              : Meridian Lossless Packing FBA with 16-channel presentation
& n1 N" {( F1 p) J. ^7 r: VCommercial name                          : Dolby TrueHD with Dolby Atmos- {' N; ~4 p* [, |7 I& A5 L
Codec ID                                 : A_TRUEHD' m& d* j% ^0 y
Duration                                 : 1 h 24 min
2 t5 Y( |2 f8 [& ~' a# _4 oBit rate mode                            : Variable0 \4 z# Y$ ^, ^% s1 W* j/ ~
Bit rate                                 : 4 040 kb/s, p0 C0 v9 D& B$ l/ U
Maximum bit rate                         : 6 126 kb/s. u2 @: A0 Y1 `  ]+ U# |$ W& B
Channel(s)                               : 8 channels3 F" r: n1 N4 I+ \4 _5 h2 i7 u5 ^
Channel layout                           : L R C LFE Ls Rs Lb Rb9 N. k* x0 ], B3 \$ p( ^- f* V2 ~
Sampling rate                            : 48.0 kHz
: O: _9 k$ N/ ^5 N: e3 F, mFrame rate                               : 1 200.000 FPS (40 SPF)
& d- g# W' h2 o& V9 gBit depth                                : 24 bits
4 B/ d! \( t: p! }8 y2 WCompression mode                         : Lossless
1 b& B) \  ^' M% l. z! T. ?Delay relative to video                  : 3 s 45 ms" [' N3 J- W* P1 p) A
Stream size                              : 2.39 GiB (5%)* S7 N# D# G# X4 X
Title                                    : TrueHD 7.1 Atmos
$ R, @, I3 ~# q6 t( _Language                                 : English
; O/ I+ r  Y' t: R5 VDefault                                  : Yes8 W/ e, g7 a. }$ Y7 L6 c7 a
Forced                                   : No) _  a' p" @( ?
Original source medium                   : Blu-ray
0 ~2 u/ R- U; }$ R) D1 CNumber of dynamic objects                : 11
# k+ [2 G2 o, b& Y2 O3 \Bed channel count                        : 1 channel, g1 L! N7 C, O# P) [9 k6 A7 q
Bed channel configuration                : LFE. [/ t# e$ `- Z% w1 L6 I" ^9 T

0 ^8 N+ Y! l" r& fAudio #2
  @3 z3 }2 f  ?+ dID                                       : 3
. @. R% P* j5 i) K7 Q1 \! Y& DFormat                                   : DTS XLL
* z  S/ C, ~' ?Format/Info                              : Digital Theater Systems4 e' `* g+ W& v+ D
Commercial name                          : DTS-HD Master Audio: L. o+ {/ M) p$ K. J3 V5 c+ S
Codec ID                                 : A_DTS
  {9 h7 Z+ _8 C5 H4 x  `Duration                                 : 1 h 24 min
( W. ]2 }+ a  U; z! `Bit rate mode                            : Variable
: U9 g1 p# p/ \6 C% n$ D& f: k" ~  v! nBit rate                                 : 3 991 kb/s' }% M' K" P' a# L
Channel(s)                               : 8 channels
, W: \" `# A6 s" Q2 e3 \Channel layout                           : C L R LFE Lb Rb Lss Rss
7 V" n# i$ ]& z8 T* vSampling rate                            : 48.0 kHz! p: ]8 H' a, K; a: U
Frame rate                               : 93.750 FPS (512 SPF)' Y- D! d1 X& f& T4 ^, `
Bit depth                                : 24 bits! _' i) q  @( X. N8 G
Compression mode                         : Lossless' `' x) u2 O7 F) [  O. y
Stream size                              : 2.36 GiB (5%)
; T% V7 |+ C9 g$ gTitle                                    : DTS-HD MA 7.11 {) ~+ o; m( n. z0 C; W3 [1 O
Language                                 : English$ L3 x, P; ?- p  c1 v* s# X' X. G
Default                                  : No
! h7 h' E6 W( ~3 ^) M4 |Forced                                   : No
' U) x. Q* n+ F9 {' j4 ~* [
( ^" l2 a: l" ~! L9 W. hAudio #3( U. n4 k, D# ~9 ]3 w
ID                                       : 48 E: e$ U, A% w  ~2 g, N
ID in the original source medium         : 4352 (0x1100)
+ ]9 M% H9 q" a/ h5 ~Format                                   : AC-38 R7 D2 k+ U9 v( d
Format/Info                              : Audio Coding 3* I2 v2 @" ?3 d: c" `( r) l, ~  x
Commercial name                          : Dolby Digital
1 ]4 }, r1 ~' B7 w( ]Codec ID                                 : A_AC37 {/ ]2 Y2 D: H  F  d: ]1 s& ?
Duration                                 : 1 h 24 min
: `6 y; n0 ^4 z, r& L1 [, _( DBit rate mode                            : Constant
' y# B* n6 X+ s# O$ r; o4 s' T$ MBit rate                                 : 640 kb/s
# E- m: m9 l: [. M+ FChannel(s)                               : 6 channels
2 @9 @/ r' {1 o9 Q0 y- D1 UChannel layout                           : L R C LFE Ls Rs
( O+ w0 E1 ]0 cSampling rate                            : 48.0 kHz
( u  j- p6 k0 eFrame rate                               : 31.250 FPS (1536 SPF)% }7 b1 v) I/ Y8 z' R
Compression mode                         : Lossy
1 N6 f) n* S9 s) ]Delay relative to video                  : 3 s 45 ms7 B: O( Q, ^1 I! S6 s( s( Y
Stream size                              : 388 MiB (1%)
2 ~2 ~; x+ M" D6 S8 @. zTitle                                    : DD 5.1! `% |2 C+ [! I' A$ A/ m, s, L
Language                                 : English
! @6 m- {7 F, _. kService kind                             : Complete Main8 ]' L* D" w2 m; H) v
Default                                  : No0 s9 Q6 {3 U( s5 X
Forced                                   : No$ J& T/ n: d7 g
Original source medium                   : Blu-ray
2 x. p! o( |4 t
) F* y" r. z2 @4 y; F6 K8 s4 CText #1
2 K; v: d# m) mID                                       : 5
! y3 Z8 ]% H" R# A. C! K* b+ mFormat                                   : UTF-8
1 \" ]% f9 W8 J+ \% `9 ~" JCodec ID                                 : S_TEXT/UTF8
7 i7 ^% n8 a8 U! g5 }# r4 i: v, D3 RCodec ID/Info                            : UTF-8 Plain Text- u0 L. E* _+ B, k7 c5 F
Duration                                 : 1 h 15 min0 l/ d* A0 W1 W5 p% J) i
Bit rate                                 : 40 b/s4 M2 B# L. s6 S; J" D* O6 {
Count of elements                        : 652
& Q( `& D' I1 I& {3 RStream size                              : 22.5 KiB (0%)3 d* L% \- A& {) x& D: C2 W" Q0 |
Language                                 : English$ z. z/ F$ @8 c8 Q
Default                                  : Yes
7 w4 k$ _/ K" D* Z, T; c  TForced                                   : No0 B3 |6 }2 t! Q, p) p' ^. T2 R

) v9 t7 d, Z9 NText #2
9 g6 W( E, m: `  N- u8 EID                                       : 6
1 }; {) H8 E0 S' WFormat                                   : UTF-8
9 k6 h# N3 H( d# i8 wCodec ID                                 : S_TEXT/UTF8" n! b3 \+ b5 a5 x. u) t4 C
Codec ID/Info                            : UTF-8 Plain Text
4 F# v4 q7 P/ I. Z. m7 r1 A5 ^/ {Duration                                 : 1 h 17 min
/ Y/ s+ c8 ^0 qBit rate                                 : 46 b/s8 |0 l  l, @  m& N  k
Count of elements                        : 797
6 ]$ D8 \, c0 V7 i; [Stream size                              : 26.3 KiB (0%)
! e  Q1 r4 g% u5 o% K/ e! gTitle                                    : SDH5 q. @' c  t6 ^& a  G6 g
Language                                 : English# R% `" d& z4 K
Default                                  : No& c4 R$ E# y  x$ S# i' e% r
Forced                                   : No
, x5 [# z' d( x  ]# {" Q* O3 j9 U& M$ T) V
Text #3
# ]7 ^& h) B9 G! t* wID                                       : 7; D8 D) W  [* G/ B7 A, g$ G
ID in the original source medium         : 4768 (0x12A0)
4 K0 G. j4 v. B6 H; Q; RFormat                                   : PGS
9 j: Y1 Q* n( ]& o" E* |Muxing mode                              : zlib
7 m9 r; g2 B6 f2 D+ b% ICodec ID                                 : S_HDMV/PGS
* r+ {: I) {& z( H- i2 vCodec ID/Info                            : Picture based subtitle format used on BDs/HD-DVDs) q4 ^0 r6 @, [" T- I5 P0 M
Duration                                 : 1 h 17 min
8 ^5 P; g4 f; TBit rate                                 : 31.4 kb/s
/ K' J5 F, M( WCount of elements                        : 1600( L4 @; L1 J' q. C) J0 Y
Stream size                              : 17.4 MiB (0%)
3 v! j$ L5 G( x1 ]9 eLanguage                                 : English
5 M2 G- F% T: F# o8 RDefault                                  : No
  F- W( b: |: l5 Q2 N2 ], lForced                                   : No$ y) W+ ]4 r, i3 {& V( g
Original source medium                   : Blu-ray
# N0 P' t& T& q! m2 c: B1 c" q. H) F$ P; i- [7 U+ v
Text #47 Z  m2 v. ?" u: W
ID                                       : 81 n1 }! d6 B! S2 A( X+ H8 ~
ID in the original source medium         : 4769 (0x12A1)
2 T  k8 j2 i! u; m, _1 @Format                                   : PGS% ~1 H1 l+ [$ C2 l4 y# H% F+ R
Muxing mode                              : zlib$ h; Z! s6 |! @0 ?7 Y/ K3 j
Codec ID                                 : S_HDMV/PGS
0 u0 R# h7 i6 h+ TCodec ID/Info                            : Picture based subtitle format used on BDs/HD-DVDs
& f  a) S4 ]  ?; ]9 U: ?) ODuration                                 : 1 h 24 min
6 h9 V7 @" q, {  _. NBit rate                                 : 23.2 kb/s9 o9 B2 X( S9 g+ @( l
Count of elements                        : 1310- I' z. a" G( X0 m, q
Stream size                              : 14.0 MiB (0%): R& [% b% x6 K$ Q/ g4 \- Z
Language                                 : French
3 T0 J" `. L$ F( N1 o+ gDefault                                  : No
  {5 G* A5 @% j0 u& a, j3 RForced                                   : No
- u$ A+ W4 \, \; L  mOriginal source medium                   : Blu-ray' P9 q6 }, g$ ]0 e; J4 V
- R9 e0 n; d- I4 Y9 L5 N. v
Text #58 [) C( A3 ?4 V# u
ID                                       : 9( I& k$ N9 ^% e
ID in the original source medium         : 4770 (0x12A2)
& A- M" y" f" h3 u+ A' h/ l  dFormat                                   : PGS
3 F2 \  Z% h4 N4 l* o1 a" {Muxing mode                              : zlib
1 N! b4 P& a# e$ J) Q! i7 XCodec ID                                 : S_HDMV/PGS
$ [$ D% b6 d( [% ^  NCodec ID/Info                            : Picture based subtitle format used on BDs/HD-DVDs9 [! M9 j6 R) {4 S- ~- r5 }
Duration                                 : 1 h 24 min
: V& Y/ K3 S5 `% M1 @- y" K8 X2 tBit rate                                 : 22.4 kb/s2 w) [0 t& B! P
Count of elements                        : 1292
$ x% C' s7 g0 d# lStream size                              : 13.5 MiB (0%)6 W3 w: x# [' _' z$ |
Language                                 : Spanish
. ~: R& H0 E8 `- \/ u( pDefault                                  : No1 _2 N: I4 S% a; L( x) f% f1 ?
Forced                                   : No, E1 h- i* A. G
Original source medium                   : Blu-ray1 G" c% J! n' M
& X( O7 M7 J* W/ I: I
Text #6
* W' ^* D3 O9 Q8 I( ~, gID                                       : 10
7 V, o! Y  M6 q9 @0 x2 RID in the original source medium         : 4771 (0x12A3). X: A) s( k' I6 G( B6 L9 K
Format                                   : PGS
; a2 {3 U" E" l7 UMuxing mode                              : zlib( v3 s% G' Y4 S. b2 a8 j: P# }
Codec ID                                 : S_HDMV/PGS
% X% X4 S/ }, `Codec ID/Info                            : Picture based subtitle format used on BDs/HD-DVDs) w5 F$ S3 P( s8 o
Duration                                 : 1 h 24 min
8 d" A7 s- b- ]; t5 a6 ^4 qBit rate                                 : 21.6 kb/s0 M  m, j/ |& I( u0 z4 _; I1 r
Count of elements                        : 1306
7 V7 c7 E  V4 G; I, x) jStream size                              : 13.0 MiB (0%)2 m$ a% z" @+ T" L
Language                                 : Portuguese
6 x2 h0 V$ o) B+ b' Y1 UDefault                                  : No: m8 \/ s- P/ }/ V5 z* A; r9 M
Forced                                   : No3 ]& y8 G# x' Y6 {; b8 E) ?
Original source medium                   : Blu-ray
- `2 g" v/ U, [9 K' T) O2 f/ U  O4 C9 P
Text #7
$ q7 q" l, s5 W! r8 {ID                                       : 11; S" j+ l3 B: g8 {
ID in the original source medium         : 4772 (0x12A4)
* r" W+ d: }# R# h  A: zFormat                                   : PGS
/ h# n  r" k. J" w& P( P; AMuxing mode                              : zlib
3 |- S. ^0 Q  h$ I# ZCodec ID                                 : S_HDMV/PGS8 ^6 \9 x! x/ c
Codec ID/Info                            : Picture based subtitle format used on BDs/HD-DVDs
" t' a2 a; a$ h+ D7 A1 N( D3 fDuration                                 : 1 h 24 min
" [0 M5 ^0 l, ^' d# M5 aBit rate                                 : 21.8 kb/s& B! R+ Y- B- S/ M% ^" P4 h
Count of elements                        : 1250( m" w7 B2 h8 e/ X) t4 a5 c
Stream size                              : 13.1 MiB (0%)+ @2 ^% b1 |$ U. M) c* ?
Language                                 : Spanish
1 d! v5 Q' o5 @! {  J) Q" m" z. kDefault                                  : No
/ R  ?2 w# m* b7 y3 E: ?Forced                                   : No
6 ]$ r2 B2 v+ @. ?5 wOriginal source medium                   : Blu-ray
' j( j# p* B/ U8 t; E& T# k0 N- v& w4 b" x9 S( f! f
Text #8
; N) Q- R* S9 _3 PID                                       : 124 b$ E* z5 ]  B
ID in the original source medium         : 4773 (0x12A5)5 \( b' M0 h- p4 G5 e
Format                                   : PGS
  |1 p; I) Y% |) }+ g6 z0 TMuxing mode                              : zlib8 J. _( G, o- \6 W; k; k
Codec ID                                 : S_HDMV/PGS
2 g, J5 [" I7 {. w  @Codec ID/Info                            : Picture based subtitle format used on BDs/HD-DVDs
- r; G6 G- n) e, [( W! |9 YDuration                                 : 1 h 24 min" j- u6 _- A% w- D9 b% w; Z
Bit rate                                 : 25.2 kb/s  ~0 n1 X# l1 e
Count of elements                        : 1310
$ z* [& c3 N& ~1 B9 KStream size                              : 15.2 MiB (0%)
( N+ z% w# V9 @9 I( ILanguage                                 : French* h( d5 n, m' M3 _6 f' [* U
Default                                  : No
  m" H9 X- L9 v! g! ~5 QForced                                   : No
$ P6 ?! ^% i- L% V: ]Original source medium                   : Blu-ray5 B6 V# m  u1 G  |
# G6 c% P) z. |& K  g0 E( g6 f$ r
Text #97 y! c3 ^8 {* j6 I6 A1 h
ID                                       : 13
0 h  V/ t% s  kID in the original source medium         : 4774 (0x12A6)
  q: q  h! e9 O1 m6 K( lFormat                                   : PGS
. C5 ~5 {0 {- y2 w' e3 QMuxing mode                              : zlib, B4 B! D+ d/ I* q5 X
Codec ID                                 : S_HDMV/PGS
: Q2 [, \% G+ ~. F$ C' M* jCodec ID/Info                            : Picture based subtitle format used on BDs/HD-DVDs
* J: v4 S# v, |  lDuration                                 : 1 h 24 min7 I6 L* N  v( k
Bit rate                                 : 26.0 kb/s
" }9 X  G4 ^% ?" a9 g5 n# CCount of elements                        : 1312/ X1 q! h) o/ s" r7 {
Stream size                              : 15.7 MiB (0%)
; }5 P2 h" i! j/ {0 B8 A% dLanguage                                 : German
6 r. \$ q- V( A& ], l# lDefault                                  : No. W6 b  P" ^# A  E2 m, b  k  ~  \  m7 A, I
Forced                                   : No
# m! v- S6 y. J2 }& gOriginal source medium                   : Blu-ray
# S9 P# E4 n$ C" a# O) l+ |1 U1 p, Y( I* f
Text #105 ~& w: X) _) k
ID                                       : 14
1 Z" t2 ^; Y3 ^* `5 NID in the original source medium         : 4775 (0x12A7)
" a* b% Y  n* A0 k4 oFormat                                   : PGS) d3 U  R$ W) r& o
Muxing mode                              : zlib
1 \% ^1 m- A. K4 gCodec ID                                 : S_HDMV/PGS
( h3 D" x' Z5 @7 u6 W  ^$ L( `# MCodec ID/Info                            : Picture based subtitle format used on BDs/HD-DVDs. f" }6 K4 X, Z, v/ S
Duration                                 : 1 h 24 min4 }3 C/ b0 M" r% T0 v  S+ W+ B( F4 @: Q
Bit rate                                 : 23.3 kb/s
4 g  O( ^2 M3 h( U7 g; k2 ]Count of elements                        : 1304
6 S* f; [- ^# ]7 b6 EStream size                              : 14.0 MiB (0%)
. T# B; r( v9 ?. w  l4 }, v6 `9 K; lLanguage                                 : Italian' Q+ g7 V( H% C( ^8 e, ]' w
Default                                  : No1 S# x/ q- ]$ m" c) _
Forced                                   : No  v4 K3 L7 i( S$ |! V
Original source medium                   : Blu-ray1 y" P+ D! C) K- J4 |
/ c3 s+ ], a0 Y3 @
Text #11
0 o2 B7 T4 b. j. mID                                       : 156 q, Q0 t6 ~+ k4 X5 t9 n
ID in the original source medium         : 4776 (0x12A8)1 _! p2 P  h" K0 Q, K% e! g+ p
Format                                   : PGS
% R+ u$ h' d7 A1 S6 b2 n0 }Muxing mode                              : zlib
/ V6 W5 i) x" d1 M1 |) q; E* k+ ACodec ID                                 : S_HDMV/PGS( N- S0 t6 Z  n5 @1 ?, ?
Codec ID/Info                            : Picture based subtitle format used on BDs/HD-DVDs! ^6 N7 d" E- ]- \
Duration                                 : 1 h 24 min
5 ]9 A% {; n: y9 O; vBit rate                                 : 19.6 kb/s
& w4 i6 g6 P9 f# ]1 TCount of elements                        : 13786 T0 }7 Y' p' i3 V3 r6 @# w) i
Stream size                              : 11.8 MiB (0%)
, f/ u) q% g# y$ ]Language                                 : Chinese
5 K. s0 h1 j6 W1 lDefault                                  : No% O; a. N3 L& Z; R( d2 J
Forced                                   : No
: M! J1 [! L3 cOriginal source medium                   : Blu-ray7 Q0 O2 e: @$ Z' ~- i1 ]: `4 L" N
1 h+ b8 m) q+ ^9 K
Text #126 H* Q* o, I0 _7 z3 Q' B3 c
ID                                       : 16
4 s  q5 t) C* Y* y8 TID in the original source medium         : 4777 (0x12A9)
1 y4 V- T1 z1 M! e! U( \! W+ mFormat                                   : PGS
# K2 M/ p6 d6 u8 ~; Q. gMuxing mode                              : zlib" C, u8 |7 i  S' k* e% e
Codec ID                                 : S_HDMV/PGS; ?6 j' y6 L. Q7 k
Codec ID/Info                            : Picture based subtitle format used on BDs/HD-DVDs
7 [: ?7 u" P4 J! MDuration                                 : 1 h 24 min
" e1 X+ k- U% A- b8 iBit rate                                 : 20.2 kb/s3 R3 o5 G% ~: `2 P8 k
Count of elements                        : 1378
9 y. k* Z% L1 m# k" A; NStream size                              : 12.2 MiB (0%)
8 f. y' p. \8 I9 {/ }Language                                 : Chinese7 W; @, d( j, ?9 X, |
Default                                  : No* D0 H1 _$ z6 ^. v; a1 e
Forced                                   : No. R* Q# z) e: e" K, \
Original source medium                   : Blu-ray
. N+ C. D  [1 F! f2 ]% m, n8 B. M0 S0 B8 R
Text #13
" K1 F' `/ R7 J7 O9 v1 i2 }ID                                       : 17
; m& V, k& g% g. yID in the original source medium         : 4778 (0x12AA)
, q! r* y2 H8 EFormat                                   : PGS
; y( c, w8 X$ u# `2 v( V% b! T0 AMuxing mode                              : zlib
5 F$ I0 f) j% FCodec ID                                 : S_HDMV/PGS
  n  Z( w* P: HCodec ID/Info                            : Picture based subtitle format used on BDs/HD-DVDs
5 ~* v' ?/ U1 i/ H1 S) i8 qDuration                                 : 1 h 24 min
. `! ^9 U) P  _Bit rate                                 : 16.8 kb/s
/ I  F  w4 s  N* M0 m& m" }Count of elements                        : 1380
" i$ H4 h  D8 {  R! BStream size                              : 10.1 MiB (0%)& d4 V1 M' H5 y$ |
Language                                 : Korean
) p0 @/ j9 T4 P- `/ ]# }Default                                  : No
* q. B2 @" ?+ d: V1 j, W0 aForced                                   : No5 A- r/ Y9 f) |# s& P- Y2 f
Original source medium                   : Blu-ray
: W- U  e5 |) B4 Z' L
* ~  q- t) l1 y& f8 F2 e: J  jText #144 v2 `! B, n% C( U, h- Z
ID                                       : 185 X, g3 g0 `  e  d9 ^2 {% F
ID in the original source medium         : 4779 (0x12AB)
2 M8 k4 F( C) u0 lFormat                                   : PGS
" |# j0 d2 E2 a) h$ h; s0 r; S. lMuxing mode                              : zlib
2 X8 `+ _4 q0 ?0 [- `- A. X; wCodec ID                                 : S_HDMV/PGS
. C) g  ~, E" _5 F9 ?Codec ID/Info                            : Picture based subtitle format used on BDs/HD-DVDs
1 g  u! z" W2 i9 l" p: |: ~Duration                                 : 1 h 24 min
0 `7 S9 p4 F/ i) V3 g8 `Bit rate                                 : 15.4 kb/s9 q% y, |& C& A1 C" c( d
Count of elements                        : 1291
! u( f: R9 q& [* }Stream size                              : 9.27 MiB (0%)6 Y, q! M( J* f9 p' ^7 h0 f
Language                                 : Japanese& D, X9 m3 `2 W0 ?/ _' g
Default                                  : No  r* L1 J& P% _9 @) `& f1 F. L
Forced                                   : No
& q. d, o  h/ y- {Original source medium                   : Blu-ray
; C; f, q- n, y) S# t" U; P0 S- \9 e- o& i! v/ z; s7 M' T. ?/ U
Text #15
! @. T5 G+ U! |ID                                       : 19
( {6 u: \- |/ t( oID in the original source medium         : 4780 (0x12AC)8 b$ W4 C  c( I5 p8 g5 W7 w
Format                                   : PGS9 c. l4 I$ N; G% B  W5 \
Muxing mode                              : zlib$ j, c9 W9 v" [: o9 f
Codec ID                                 : S_HDMV/PGS# ^+ ^& X9 S' K! l6 ?+ m! V1 J
Codec ID/Info                            : Picture based subtitle format used on BDs/HD-DVDs
7 `8 a. w1 v' m- o8 I: \' F& k: wDuration                                 : 1 h 24 min
* o7 u& I9 D8 pBit rate                                 : 26.3 kb/s
+ `* U1 \( Q6 Q+ W* t& Q& BCount of elements                        : 1316
" W! O+ |0 M5 P( n9 BStream size                              : 15.8 MiB (0%)
. ~$ p( z$ L1 y# i. LLanguage                                 : Russian9 m. \  `! V6 ~6 J
Default                                  : No. z' c- D9 y7 e# I" ]
Forced                                   : No
& x5 g9 {& g% ^3 P: z3 L: v- AOriginal source medium                   : Blu-ray0 ]0 C: l6 e' w8 _9 P

4 D& h1 K6 d* ~  G3 D! }5 jMenu
; \; n8 ~3 H+ j00:00:00.000                             : en:Chapter 01
! F3 \7 [; C7 {4 F1 Y00:06:48.908                             : en:Chapter 02) N! Q6 H- D+ K( q& A0 Y& w' d3 v
00:10:50.149                             : en:Chapter 03
+ M2 Q1 {* H$ ^  m. n00:15:03.235                             : en:Chapter 046 Q# o' V" ^- ?" v8 F1 O
00:20:05.495                             : en:Chapter 05
; C( n/ d' c. ~- d$ _+ O- I( u00:23:54.933                             : en:Chapter 06" _' ?0 k+ {8 p( ?) V- D
00:29:19.299                             : en:Chapter 070 o; @) b7 E" X" @0 {8 W# I+ m
00:33:48.985                             : en:Chapter 08
* f  W* L, G' ]: J$ _00:39:08.846                             : en:Chapter 09' L: S' L" B$ K% ^
00:44:59.113                             : en:Chapter 10& ^: Q4 G% o" U# l9 w
00:49:35.973                             : en:Chapter 11
+ D+ F, [" C  }00:53:43.929                             : en:Chapter 12
( [3 ]2 D! W0 D% m00:58:12.655                             : en:Chapter 13  i  S" T2 e6 l$ B
01:04:31.868                             : en:Chapter 14( d5 s, F9 O% K! p, B  J
01:10:50.496                             : en:Chapter 15% k$ D+ K6 \( G, _+ X- i( h' h7 _
01:16:15.654                             : en:Chapter 16) o1 P) I; F3 T* {
01:20:53.974                             : en:Chapter 17
SWEATY BALLZ presents
* Z# e; d- l1 {0 s# r4 Z' I0 U: B$ C5 n) h/ C2 A
Maniac.Cop.3.Badge.of.Silence.1992.2160p.BluRaycd.x264.8bit.SDR.DTS-HD.MA.TrueHD.7.1.Atmos-SWTYBLZ 47.54 GB, N) \. t/ L) D2 J1 ~2 M4 ~
Converted from 10 bit HDR to 8 bit SDR using tripple mixed Hable-Reinhard-JJ per scene+frame analysis algorithm
) L5 r* D; H4 b$ N, E) U( o: C! @4 p1 h6 z9 O
Video
9 w5 v5 Z. A' A  n+ gID                                       : 1
; m0 n' j$ `- z* u1 z% oFormat                                   : AVC
* L/ J- l& `; b1 _' PFormat/Info                              : Advanced Video Codec
6 J: ?& S( d* IFormat profile                           : [email protected]3 `! c/ f+ c4 X! C
Format settings                          : CABAC / 5 Ref Frames
5 l9 j3 U9 p: E7 f$ l. ^8 v' ?Format settings, CABAC                   : Yes; N6 N. S. g* x$ I& g' b) J, G
Format settings, Reference frames        : 5 frames" V5 b6 J( w/ W0 a' ^3 M; H
Codec ID                                 : V_MPEG4/ISO/AVC! D0 V( Y3 H1 c) L$ Z, @
Duration                                 : 1 h 24 min7 W9 E6 h' J+ a6 G3 Y8 m7 A
Bit rate                                 : 70.9 Mb/s( L+ d& `) F, G7 C3 Y
Width                                    : 3 840 pixels
+ n4 o. J4 U+ H0 SHeight                                   : 1 606 pixels: |7 L9 o3 T. m
Display aspect ratio                     : 2.40:10 x: n. k5 n% A* A
Frame rate mode                          : Constant" b1 n1 b! r0 ?: D. U- n
Frame rate                               : 23.976 (24000/1001/189150) FPS3 i) j* y  O- U; B& B/ y; F7 T
Color space                              : YUV" @+ R' B7 t/ f; }+ g
Chroma subsampling                       : 4:2:0
2 a" `! _- K) N* JBit depth                                : 8 bits
7 T7 W% f' |/ m0 b0 S$ l! @Scan type                                : Progressive
" a1 X$ {) W% {. xBits/(Pixel*Frame)                       : 0.480: H# }5 X1 q1 l: D2 s
Stream size                              : 42.0 GiB (89%)
( g( K5 {! t! h7 k- JWriting library                          : x264 core 157 r2935 545de2f
% d% i2 Q" \' o5 Y( y3 ?Encoding settings                        : cabac=1 / ref=5 / deblock=1:-1:-1 / analyse=0x3:0x113 / me=umh / subme=10 / psy=1 / psy_rd=1.00:0.15 / mixed_ref=1 / me_range=48 / chroma_me=1 / trellis=2 / 8x8dct=1 / cqm=0 / deadzone=21,11 / fast_pskip=1 / chroma_qp_offset=-3 / threads=50 / lookahead_threads=4 / sliced_threads=0 / nr=0 / decimate=0 / interlaced=0 / bluray_compat=0 / constrained_intra=0 / bframes=3 / b_pyramid=2 / b_adapt=2 / b_bias=0 / direct=3 / weightb=1 / open_gop=0 / weightp=2 / keyint=250 / keyint_min=23 / scenecut=40 / intra_refresh=0 / rc_lookahead=50 / rc=crf / mbtree=1 / crf=22.0 / qcomp=0.60 / qpmin=0 / qpmax=69 / qpstep=4 / ip_ratio=1.40 / aq=1:1.00
0 `  N7 ^: z$ P' ~6 r1 YDefault                                  : Yes
& L: ~* V  h1 R" XForced                                   : No
" P; ^- c: F1 x6 g; {8 Y% ?) h* S1 |3 q. B. G; A; I- {9 Z
Audio #1
, \3 \7 s9 m5 L- s% I$ V7 h6 _ID                                       : 2
4 H. v' w& q- Z3 l1 m6 {7 XID in the original source medium         : 4352 (0x1100)
# b% Z4 \+ R7 {+ L% W) aFormat                                   : MLP FBA 16-ch
7 ~* e. \5 P; J2 p' J5 QFormat/Info                              : Meridian Lossless Packing FBA with 16-channel presentation
2 b% X( C9 X; U8 R( ~Commercial name                          : Dolby TrueHD with Dolby Atmos
" P1 X+ V& J: M# _: u3 YCodec ID                                 : A_TRUEHD* s4 c3 C1 d8 }* H" \! @" @
Duration                                 : 1 h 24 min$ u1 o) D2 Q/ X9 j  ]8 V
Bit rate mode                            : Variable; v0 a. d! X* b. f! O6 _7 X
Bit rate                                 : 4 040 kb/s
* |1 I6 G0 h. CMaximum bit rate                         : 6 126 kb/s
: l0 E8 W: A6 @) eChannel(s)                               : 8 channels
; t  i  y% u9 h; p1 hChannel layout                           : L R C LFE Ls Rs Lb Rb
- f5 a$ E8 a2 W. {% TSampling rate                            : 48.0 kHz
! W/ d) e2 A0 a8 f& UFrame rate                               : 1 200.000 FPS (40 SPF)
# t- y) P% N2 b# A$ N. `$ G! s1 TBit depth                                : 24 bits6 H: [( Q$ H$ f0 d
Compression mode                         : Lossless
# ]. `; J# T" vDelay relative to video                  : 3 s 45 ms
# T/ F% I& M0 uStream size                              : 2.39 GiB (5%)
/ z6 z4 @$ I8 M2 Z) P8 ?# ~- nTitle                                    : TrueHD 7.1 Atmos: P9 v- H/ S) }/ D/ b# i
Language                                 : English, y6 M6 d6 f0 ]) k
Default                                  : Yes3 @5 b/ P7 p" ]
Forced                                   : No
' r2 j5 {: }1 X9 `8 j4 EOriginal source medium                   : Blu-ray
% K- @: b. f6 j1 {8 Y$ n4 f/ rNumber of dynamic objects                : 11
! d" W6 t8 w( WBed channel count                        : 1 channel6 O; |! D6 a2 Q1 a
Bed channel configuration                : LFE
! v0 e# E( f+ E; E
8 N: D& E; u) ?( }Audio #2
) Y; P. z! ?* l& X$ R, FID                                       : 3
: Y" c$ s; Q7 e1 [Format                                   : DTS XLL4 j! B' ?, P; F& `) ~
Format/Info                              : Digital Theater Systems
( X& z3 l7 }  x- c; l, J+ X/ g: vCommercial name                          : DTS-HD Master Audio/ n: q/ m9 d, p: Z  c
Codec ID                                 : A_DTS4 }; H9 |2 z# P0 Q- r; Q. ~
Duration                                 : 1 h 24 min
4 b% }  z# ]' i* k; l' s* Q: ABit rate mode                            : Variable
; e; U. w# s; @9 e" M" ^& kBit rate                                 : 3 991 kb/s* D" K3 b) n4 T7 ^( O  u
Channel(s)                               : 8 channels- D- B9 h2 Z. t( `1 R1 _8 U
Channel layout                           : C L R LFE Lb Rb Lss Rss
- y1 I$ V5 N7 F" `5 tSampling rate                            : 48.0 kHz0 r* A& ]% T& Q* Z6 _1 o$ @; x0 y8 k
Frame rate                               : 93.750 FPS (512 SPF)+ F0 a: y" L- d- ?$ S" L
Bit depth                                : 24 bits
1 A4 [& @6 v* e; y9 G% n! `; sCompression mode                         : Lossless
! H! G+ l0 c# i+ N; `& rStream size                              : 2.36 GiB (5%)/ |. ^2 d5 ^5 i- [
Title                                    : DTS-HD MA 7.1
1 ?2 D8 O5 {, h1 K. WLanguage                                 : English
  o4 u2 q2 ~2 O8 M) D5 }. a& EDefault                                  : No
5 b) O1 u  n/ @6 n# r( aForced                                   : No
. G# k7 {3 W; a4 r2 H
( q7 F: e/ j, t9 r) GAudio #31 o2 V4 ~; v" S
ID                                       : 4, B( l; Q/ {0 z
ID in the original source medium         : 4352 (0x1100)
9 w- Z0 \" S* T5 DFormat                                   : AC-3
# G6 }3 `& L  U! E# [Format/Info                              : Audio Coding 3
0 X" P( \! ^; F9 n$ DCommercial name                          : Dolby Digital
% v9 b$ K8 g6 Z* U- b2 |  L1 hCodec ID                                 : A_AC3
8 }& v2 O, Q8 `) \3 cDuration                                 : 1 h 24 min
8 `! I  q- d2 ^; P! ~9 ]Bit rate mode                            : Constant/ p! j: T+ Y: t; w( z3 t/ Q- v% [' p
Bit rate                                 : 640 kb/s
8 Z! l  Z+ J0 R0 z! W1 hChannel(s)                               : 6 channels) D5 U6 @! z4 z8 _9 o/ U+ j/ A# z
Channel layout                           : L R C LFE Ls Rs6 z4 v* O0 y8 _0 o- ?
Sampling rate                            : 48.0 kHz$ b  J" K& w. |  W) E. v
Frame rate                               : 31.250 FPS (1536 SPF)
; K( U$ z8 C; @. v/ ~" t! wCompression mode                         : Lossy  M; U: d5 r" f2 O1 t
Delay relative to video                  : 3 s 45 ms1 G$ f3 `: V1 X6 O' `& T* m
Stream size                              : 388 MiB (1%)5 c7 O! M+ l: ^$ W( `+ {2 H
Title                                    : DD 5.1' b6 {4 G( H, s9 L1 |; A  M- J
Language                                 : English
2 l/ [! E3 W8 G  B! u0 s% Y/ [Service kind                             : Complete Main
$ T, o9 f5 W. O& vDefault                                  : No8 J+ u& R9 d8 _4 W2 y
Forced                                   : No2 S& d8 L1 ~. o' s' v6 p5 F3 x$ n
Original source medium                   : Blu-ray
4 k$ Y" ~$ E9 |! M" {, g0 n) C$ B- Z5 F) f* l
Text #1
: V' ]2 ]4 F% A: o$ k" mID                                       : 5
1 L& L" f9 E- [* ^/ F8 zFormat                                   : UTF-8
0 n0 H8 K# `+ Q: hCodec ID                                 : S_TEXT/UTF8
" W/ h) |- h; Q( m7 K6 p% wCodec ID/Info                            : UTF-8 Plain Text
! U. p/ Q2 m, n" R! @1 t; a% G# k" [Duration                                 : 1 h 15 min
# Q$ W0 Z9 \4 k1 ]/ UBit rate                                 : 40 b/s2 a8 `' n# T+ J( i1 ~
Count of elements                        : 6522 t, H/ f% J; |# n- C
Stream size                              : 22.5 KiB (0%)
+ N: a0 K& ?+ g: {& ]9 DLanguage                                 : English( b4 B) I% e/ I% }) c' |( l
Default                                  : Yes
7 s/ C2 D( j* m6 ?Forced                                   : No, B& i" K, [6 D; ~+ m0 n
- s! a2 E3 P9 \9 i' _
Text #2
; n( L  G% {. a) hID                                       : 61 T  p* F( T) C( m& H7 I0 R
Format                                   : UTF-8( K/ ?% s/ C) ~# L* z+ b
Codec ID                                 : S_TEXT/UTF8
4 Y! d) ^$ B3 H, }2 @7 L( W+ o8 a$ CCodec ID/Info                            : UTF-8 Plain Text2 a! c9 Y$ c- |( O
Duration                                 : 1 h 17 min
! q( |' L; C- N  R3 p3 w. ?Bit rate                                 : 46 b/s/ K7 a- \+ A* F9 Y; Z8 T6 Y
Count of elements                        : 797" J3 q4 P5 i8 E6 r- X% E8 ]
Stream size                              : 26.3 KiB (0%); R8 @( [) N, G4 O( ^% I- w6 v3 Y
Title                                    : SDH
% j' }2 ^0 H  A; c  sLanguage                                 : English
& t/ B: O  Y* nDefault                                  : No
# a# X7 L3 Y. ]  @6 L6 @Forced                                   : No* B/ b& ?* F% {
3 N7 C) f6 q$ ?7 M6 V
Text #3
; D8 V0 C0 X$ `+ J* j2 pID                                       : 7
0 {" m7 v1 ^' FID in the original source medium         : 4768 (0x12A0)
4 T5 n. N4 n: u( O" B5 [  d/ RFormat                                   : PGS; d& f0 S/ ]" [& X; V* @
Muxing mode                              : zlib1 i, j: k/ s9 d
Codec ID                                 : S_HDMV/PGS
/ n1 I4 Z" ^' l9 M% U! JCodec ID/Info                            : Picture based subtitle format used on BDs/HD-DVDs- {3 v1 R+ Y- _2 w, p; [
Duration                                 : 1 h 17 min0 E. N( a$ p0 j/ G6 ^1 B
Bit rate                                 : 31.4 kb/s, F7 ]; N; u, p) C1 x1 [
Count of elements                        : 1600) X+ I% b" i$ B" Z
Stream size                              : 17.4 MiB (0%)
0 R( J3 K9 [, J( WLanguage                                 : English
8 V$ B4 a+ s3 @Default                                  : No& B4 N% m1 s5 r* h" T. y* i/ ?( _
Forced                                   : No
5 r* j7 h% {3 |4 i, `, IOriginal source medium                   : Blu-ray
0 C* u- m  F* C2 [  G- l7 @3 _9 B* J; N- u
Text #4& G, m+ _/ h" d) {0 ]3 b
ID                                       : 8. X! }  k# N. M. j& r" X4 |
ID in the original source medium         : 4769 (0x12A1)  F+ c$ C' C# j9 i
Format                                   : PGS
/ @) t( G8 P" q6 d. GMuxing mode                              : zlib" ^1 j9 h9 o" U. q
Codec ID                                 : S_HDMV/PGS
. _# [! V! b# Z* YCodec ID/Info                            : Picture based subtitle format used on BDs/HD-DVDs& y; b5 C4 [8 M
Duration                                 : 1 h 24 min
* k7 t9 D& I1 f& A8 |! \* N; ZBit rate                                 : 23.2 kb/s" Z8 C- h3 N0 W- X; ^( z/ i
Count of elements                        : 1310
  S; P: Q' ~- f3 Y5 tStream size                              : 14.0 MiB (0%)) }% I6 m0 W. T# p1 c* t& ?9 |
Language                                 : French
$ T' V9 \3 X% [% C6 m  W- BDefault                                  : No2 S  o. v. {1 N9 z! m6 |$ U6 j& q
Forced                                   : No0 |, h$ V( n" U5 ?' B
Original source medium                   : Blu-ray$ l8 C# J8 z) m& D4 h2 `0 f

  t; n5 U# ?$ x2 N3 ZText #5
6 K7 ?$ R3 P- O0 w/ _9 Y/ C. gID                                       : 95 l; O0 ~9 c7 |: [
ID in the original source medium         : 4770 (0x12A2)* ?: z; T: u: t' j8 W& f  E9 V
Format                                   : PGS. ~3 W! K9 R1 Y! i; Y$ Q! ?7 V  M
Muxing mode                              : zlib
, U) U7 ?, e9 H# {* iCodec ID                                 : S_HDMV/PGS
* Z: @8 L6 V7 y' F; R5 ^+ T. z8 aCodec ID/Info                            : Picture based subtitle format used on BDs/HD-DVDs( K8 q+ k( u0 B! E# C/ f; x
Duration                                 : 1 h 24 min
" N+ D6 V' z. aBit rate                                 : 22.4 kb/s
/ _6 u; s7 m1 s9 ~0 s/ c+ Q9 VCount of elements                        : 1292
* H. E" h- {' _! uStream size                              : 13.5 MiB (0%)+ B4 r" \, l9 R& x& G) u
Language                                 : Spanish
6 o5 `: N& B8 H% x, \Default                                  : No
% I# M& M* e! N2 M2 PForced                                   : No' h3 i# F5 e4 b8 o! N/ U
Original source medium                   : Blu-ray1 a0 W9 S5 l% J9 e! @9 t. I/ X. l

, K% {1 k, l+ f  Y) {' Y) j' w5 XText #6# e1 G' U7 J; C; P+ b2 f# q
ID                                       : 105 u, M5 {, v7 W, G4 ?  O# ~
ID in the original source medium         : 4771 (0x12A3)
+ m3 E5 E! G6 P" a* M! ~& I2 hFormat                                   : PGS
% d8 S- \% l) eMuxing mode                              : zlib: X# U$ u/ q/ J/ @
Codec ID                                 : S_HDMV/PGS( x0 w" m4 o( H4 H% r7 S# n" D
Codec ID/Info                            : Picture based subtitle format used on BDs/HD-DVDs
  |# C$ u9 {% z% vDuration                                 : 1 h 24 min2 o" G9 ^- |7 _" s! a
Bit rate                                 : 21.6 kb/s& N3 V. O  Y+ N: i& G- l# v
Count of elements                        : 1306
$ O7 C9 {& }: H; t1 E) SStream size                              : 13.0 MiB (0%)
% r; I3 h: ?# f# ~3 @Language                                 : Portuguese
. }8 a. c. H( S9 r8 @Default                                  : No9 @5 G- Z+ I" h. ^. W% X
Forced                                   : No
; |( I5 q5 b' rOriginal source medium                   : Blu-ray  u$ [" [$ n3 j- |0 \. A' j- r

5 c* v& I$ l( ]: RText #7
. `7 S! X! }. \  h$ R  MID                                       : 11
: H4 ^/ f) g$ J) C4 b$ |ID in the original source medium         : 4772 (0x12A4)
, H+ `2 y; G4 G* Q$ H* Z7 pFormat                                   : PGS
6 h! Q3 o' e$ Q( |9 zMuxing mode                              : zlib# ~$ Z6 C0 k1 c0 I1 [1 B
Codec ID                                 : S_HDMV/PGS
/ \: X! d8 ~* j, N; R( {  l; ZCodec ID/Info                            : Picture based subtitle format used on BDs/HD-DVDs
* m( n  w9 X' O' Z' K# mDuration                                 : 1 h 24 min; W( }" r0 w( W* O+ G& y& Q
Bit rate                                 : 21.8 kb/s- P& h7 X' j' \& C: a/ y) A0 W
Count of elements                        : 1250
, c/ _! C) b5 o2 A9 G7 G2 h- p4 LStream size                              : 13.1 MiB (0%)+ I4 x2 [* Y6 Q( Y2 _6 B
Language                                 : Spanish
1 M& B- `' L6 K: n. y+ I4 p5 {) nDefault                                  : No1 @# I" W9 t( M/ N& K; m5 w
Forced                                   : No+ N9 y6 ~% d& p4 _# ?8 _) _
Original source medium                   : Blu-ray
; R: T" |! t! K  ~
( {6 z2 t7 a+ d9 j$ }2 l& _7 E! a8 ]Text #8' s2 F  R/ L  D1 ~& x% i5 U1 S
ID                                       : 12
, j! {3 _, |+ E( Q! ~0 ]ID in the original source medium         : 4773 (0x12A5)
1 G4 |( r( E, T. ^/ DFormat                                   : PGS& V* @- _4 n0 X$ q
Muxing mode                              : zlib
$ S! L8 M0 D' X  ]Codec ID                                 : S_HDMV/PGS
* h# l, O% p+ }* T  nCodec ID/Info                            : Picture based subtitle format used on BDs/HD-DVDs( ^$ D$ t( w! \0 t& g9 r: e
Duration                                 : 1 h 24 min$ U- X+ `# Q* z3 A& r( w
Bit rate                                 : 25.2 kb/s! o$ C, P: P' I# C- ?/ \3 `
Count of elements                        : 1310
6 Y# n: a, ]. X6 Q) G/ RStream size                              : 15.2 MiB (0%)
1 R9 N" e, L' Y8 z) _3 Y: z% a3 ALanguage                                 : French
: w  E2 |0 A  j  S4 j4 {Default                                  : No' l2 S8 A7 E$ P3 @% m
Forced                                   : No
- e! ~  t2 T# Z% `7 ]8 o) M5 eOriginal source medium                   : Blu-ray
2 x- u! c4 h! C5 {
! I, B' B! Q" e% gText #9
& h" D4 M' Y- V3 p9 XID                                       : 13- ]; g! C& Q  @( W3 ]7 ?% K& ^
ID in the original source medium         : 4774 (0x12A6)
1 j8 ]2 r6 b! j) y- PFormat                                   : PGS, [' c/ U9 L+ t6 k! @
Muxing mode                              : zlib
2 e" ~2 s2 Y+ QCodec ID                                 : S_HDMV/PGS% x# s: k( Q6 n5 ^& K
Codec ID/Info                            : Picture based subtitle format used on BDs/HD-DVDs
, t- z, _  p% l% R: zDuration                                 : 1 h 24 min
0 r3 t; s: W3 [, U* \! C- H' k4 |Bit rate                                 : 26.0 kb/s0 w0 N2 y. z) L( o. }( |" k
Count of elements                        : 1312% ~$ V2 c' A, h
Stream size                              : 15.7 MiB (0%)- O; l, Z$ ?6 u; p
Language                                 : German4 r3 ]) u/ I; G+ {& `6 B
Default                                  : No
7 x( @( {5 ^3 l' m1 QForced                                   : No
: \# T8 z0 T) `# B* {9 z5 c3 ?8 R; qOriginal source medium                   : Blu-ray' a% l3 V, c: J  i9 M, {8 J

6 U4 x1 R. W  E: U/ G9 C# jText #10$ r  H! N8 ]# Q4 h
ID                                       : 14
; n( l3 ]1 a$ y0 J1 q; H$ g1 W; kID in the original source medium         : 4775 (0x12A7)
9 N: v. b! D* v% }" ]Format                                   : PGS6 J1 M5 h0 H# ~0 u* U2 u6 D. A
Muxing mode                              : zlib9 |3 w9 d# N1 s8 \; a. I: F0 f
Codec ID                                 : S_HDMV/PGS6 ^0 H" T- T# ~5 w/ u* l0 g" }
Codec ID/Info                            : Picture based subtitle format used on BDs/HD-DVDs* i# U8 X+ k9 F5 I! U# M. ?
Duration                                 : 1 h 24 min0 _' I" ]9 Q# o0 d( m" R
Bit rate                                 : 23.3 kb/s' f* Z8 _+ D5 X( _
Count of elements                        : 1304
: G- b6 L3 M& P: ^Stream size                              : 14.0 MiB (0%)
# G. J$ I" g. o$ g* wLanguage                                 : Italian5 b8 r5 ]/ J1 \! q
Default                                  : No
6 ~9 n7 Y4 a' D2 e  w+ w& H% Z0 `! OForced                                   : No8 X) v0 l' A& l
Original source medium                   : Blu-ray
0 b+ M$ q. H: l9 C  d' m/ r" X0 R* F8 |3 \! \+ ^. }; G: x0 u1 o# ^
Text #11) j6 Y& w2 z; w4 p6 ^
ID                                       : 15
2 Z6 z' \1 b) f9 B, d2 w9 FID in the original source medium         : 4776 (0x12A8)
; L+ V- [7 F* IFormat                                   : PGS
& |; v+ h1 ]9 F6 h* ~( @$ Y* S$ D: KMuxing mode                              : zlib3 F* W# K9 R1 T1 F2 M3 w
Codec ID                                 : S_HDMV/PGS9 C  O) k- M9 b, |1 C' d5 T
Codec ID/Info                            : Picture based subtitle format used on BDs/HD-DVDs
: S. I! s1 ~2 v8 u" m. y0 zDuration                                 : 1 h 24 min
9 X4 M) K1 X$ z( ?Bit rate                                 : 19.6 kb/s
7 s5 q9 H1 y, P9 d2 u5 TCount of elements                        : 1378& c) T9 s/ C" n3 l& l# B, ]' Y4 c
Stream size                              : 11.8 MiB (0%)
; S( o+ n& P+ {1 s$ G/ E( G6 w* mLanguage                                 : Chinese# K! q8 }0 y& E0 F0 z
Default                                  : No% y; g6 O0 B" |
Forced                                   : No/ F* W" M" R% x* q
Original source medium                   : Blu-ray8 _- \+ Q2 V2 |! N
7 p. q3 R: x: {% @" O
Text #12
  d( l" r3 G& F# M! R& ~ID                                       : 16
/ ~$ \/ P: y$ v; s  rID in the original source medium         : 4777 (0x12A9)6 t" f9 w2 ]4 E3 w. [% h: J
Format                                   : PGS
; D& I) {# n+ `7 t6 |% A9 O; }Muxing mode                              : zlib
  a' Z, I$ U2 b5 Z1 j3 C8 nCodec ID                                 : S_HDMV/PGS
* B% {( [4 `7 u3 u7 o+ pCodec ID/Info                            : Picture based subtitle format used on BDs/HD-DVDs
4 ?$ U' s) r$ Q. Z( N1 ADuration                                 : 1 h 24 min
4 F7 I% H+ Y, l& g$ d. cBit rate                                 : 20.2 kb/s
5 }+ {" s4 c8 dCount of elements                        : 1378
! ], h2 O" ?0 Q4 Z$ o7 cStream size                              : 12.2 MiB (0%)
: A2 R( L6 e* m" S& ALanguage                                 : Chinese
: {7 k7 ?, y  W8 P8 @5 g5 K+ j7 O8 iDefault                                  : No
, g' e2 p& i0 _Forced                                   : No
/ Q. H/ I2 t  M5 I$ K- k& j% aOriginal source medium                   : Blu-ray
5 k# i. O( }; J" T* u1 F# y+ S6 U# q; i( W+ h
Text #133 D4 r( n: k3 L0 i2 @
ID                                       : 179 d% m" K( |+ D
ID in the original source medium         : 4778 (0x12AA)9 `+ V# {" L3 f' T% u: m! Q
Format                                   : PGS
; X9 o) ~, p3 b3 [Muxing mode                              : zlib: H" }3 n9 P  q+ M  b
Codec ID                                 : S_HDMV/PGS/ L* _4 ?- @! u3 C
Codec ID/Info                            : Picture based subtitle format used on BDs/HD-DVDs
+ a8 z- ]9 _2 }, g* pDuration                                 : 1 h 24 min
1 A$ e$ Q0 d0 }1 Z, iBit rate                                 : 16.8 kb/s: |1 _5 }+ b5 E, @7 h7 L# I# W$ `
Count of elements                        : 1380$ G# i, M. x1 ~- R" b0 l4 G
Stream size                              : 10.1 MiB (0%)
' M, H  `: V, v+ XLanguage                                 : Korean3 _. [4 C1 i, E1 ^7 p# Z  _5 N! {$ C
Default                                  : No
1 C# N9 M. T  \, f; H- K$ D+ k% LForced                                   : No
( e6 I5 v/ S2 O0 e! N) {& aOriginal source medium                   : Blu-ray: @: @1 H4 u" ~. s% T/ g( w1 }* _( J
) |/ J8 h" z2 Q' j9 C+ d8 l
Text #14
/ b6 t' o/ `( q, K$ L, jID                                       : 18
+ m: K; ^6 _% @" d* j4 v. z& CID in the original source medium         : 4779 (0x12AB)
5 i/ c. Q5 G; s* aFormat                                   : PGS" C/ j  M, K! y6 V
Muxing mode                              : zlib
2 C% e3 i, ?: H* mCodec ID                                 : S_HDMV/PGS
/ ~. Z$ I4 G7 Q' Q" i2 B( [4 W& `Codec ID/Info                            : Picture based subtitle format used on BDs/HD-DVDs& v1 f  Y" D) W4 E
Duration                                 : 1 h 24 min6 Q. c7 P! Y, }7 t6 v
Bit rate                                 : 15.4 kb/s) O# S, m6 y" X# H
Count of elements                        : 1291
' Q1 `9 k  R. [0 Y  I$ pStream size                              : 9.27 MiB (0%)
) U9 K1 P5 ~4 t( cLanguage                                 : Japanese
7 u' p, U9 S; t3 o% TDefault                                  : No6 I$ |. t( G+ W+ b$ X# l( Y- U7 K
Forced                                   : No) |  i1 ], e/ v' s
Original source medium                   : Blu-ray$ D. c% d& `) E5 `

( [! F& k" G0 x4 B. r: P' L7 aText #15
3 z4 Q& |5 ~  A% G% JID                                       : 199 o1 D$ G& Q: u1 w+ x5 _
ID in the original source medium         : 4780 (0x12AC)
  E* ~% B/ q  N) b8 a6 kFormat                                   : PGS( n/ I+ w" w8 H. J
Muxing mode                              : zlib4 b2 x* l( c8 l: S& }& B' d  ?; _
Codec ID                                 : S_HDMV/PGS
- o1 P5 r& z, ?% `Codec ID/Info                            : Picture based subtitle format used on BDs/HD-DVDs
: W: K1 P! N5 p% U  ~Duration                                 : 1 h 24 min
( U, n+ M* i/ u/ N5 e! A+ bBit rate                                 : 26.3 kb/s
# b7 o1 k4 ^. @+ D3 kCount of elements                        : 13169 u6 ?. f# ^5 J; U2 e$ b$ u
Stream size                              : 15.8 MiB (0%)
4 M3 B/ \6 H$ k, C5 {2 eLanguage                                 : Russian# Z7 B, o/ R( Z; J+ s  S
Default                                  : No
8 }1 w( C$ L0 k0 FForced                                   : No
. ~6 x- e. z- _- [7 d8 J  b$ [Original source medium                   : Blu-ray
4 U" ^4 m! g) P. G5 ^" O
3 T* [  }5 n$ Q) m9 oMenu
" p) K9 {8 w' ]00:00:00.000                             : en:Chapter 01
2 f* _& j4 ]: o. F8 G  m. U  B00:06:48.908                             : en:Chapter 02
4 ]5 k* A7 t( ]6 R" r00:10:50.149                             : en:Chapter 03
% e: ]: n- p# y+ B' x- \2 {. K. T% n00:15:03.235                             : en:Chapter 042 O; b  X/ d% t2 \5 Q( U) `! y9 G
00:20:05.495                             : en:Chapter 05
/ m1 i  d5 U' f# n! W; y7 H00:23:54.933                             : en:Chapter 06
; S( n) F( H' T0 [3 M: S00:29:19.299                             : en:Chapter 07# J3 a9 W  w) S: H, `
00:33:48.985                             : en:Chapter 08# f& C5 S/ ]6 c! \
00:39:08.846                             : en:Chapter 09% ~1 J1 Y% s$ a! b( [9 ~# {: N
00:44:59.113                             : en:Chapter 10. T& T6 r& G: G2 S1 \/ X: C+ Y6 [
00:49:35.973                             : en:Chapter 11
! P* y, @6 a5 q00:53:43.929                             : en:Chapter 12% O( P/ M9 f; _# [- B1 L
00:58:12.655                             : en:Chapter 13
  G% u, H0 H: V& Q" S+ N01:04:31.868                             : en:Chapter 14: v# J4 p# r# C
01:10:50.496                             : en:Chapter 15: Q3 E& V$ R! J' }7 T
01:16:15.654                             : en:Chapter 16
4 {( W6 b. v' |; l7 E3 F01:20:53.974                             : en:Chapter 17
7 H0 h; j/ Q9 \1 P1 O
游客,查看本帖隐藏内容请回复 | 加入VIP贵宾可免积分免回复 了解详情 | 还不是会员:点击获取邀请码 Invitation Code

本版积分规则

小黑屋|Archiver|蓝光电影资源网

GMT+8, 2021-12-3 00:43

Copyright © 2001-2022, Tencent Cloud.

快速回复 返回顶部 返回列表