BluRayCD Forum

 找回密码
 立即注册【分享大片】
查看: 147|回复: 3
收起左侧

[4K极清电影] 加勒比海盗5 [4K REMUX无损版 自带中字] Pirates of the Caribbean Dead Men Tell No Tales 2017 2160p BluRaycd REMUX HEVC DTS-HD MA TrueHD 7.1 Atmos-FGT 59.63GB

[复制链接]

6573

主题

6746

帖子

8万

积分

Post Share

金币
15239 枚
体力
21516 点

卓越贡献勋章

黄金嫖客 发表于 2021-12-20 07:07:31 | 显示全部楼层 |阅读模式
Captain Jack Sparrow searches for the trident of Poseidon." {7 Z0 F" [( F* M. Y6 p0 w

+ N& U, W- ?9 R+ \# Q' S6 m 01.jpg
* H! M! ^$ D: g) o6 d; f7 r" w3 c& J5 X
◎译  名 加勒比海盗5:死无对证/加勒比海盗 神鬼奇航:死无对证(台)/加勒比海盗:恶灵启航(港)/加勒比海盗5:亡灵的缄默/加勒比海盗5:亡者无言/加勒比海盗5:死人不会告密
+ P, {3 d" x/ ^" R8 L8 S* o' k◎片  名 Pirates of the Caribbean: Dead Men Tell No Tales / Pirates of the Caribbean 51 l4 c4 b) ^: f8 R7 E. O
◎年  代 20176 _0 y* L" U0 s' z7 H% M
◎产  地 美国
' h) `1 n8 K0 N5 c◎类  别 动作/奇幻/冒险' i1 `7 ~. v) c
◎语  言 英语, T8 H# }1 }# d4 T: O3 ]
◎上映日期 2017-05-26(中国大陆/美国)
/ e, Z* ?$ n3 @8 ^- J8 b2 Z◎IMDb评分  6.5/10 from 285,528 users9 _# T, B: Z" `: g) }# z
◎IMDb链接  https://www.imdb.com/title/tt1790809/% P  Y, i# k5 T$ P8 P: a1 d: c
◎豆瓣评分 7.2/10 from 331,406 users
5 p  a  {% ~2 E  i- i! {; e◎豆瓣链接 https://movie.douban.com/subject/6311303/
* p4 b/ w5 c" R* Y/ B( H◎文件格式 x265 + DTS + TrueHD. T7 t  ~1 m! Y, G9 c
◎视频尺寸 3840 x 2160  C% c$ ~! w' J! ]
◎文件大小 1DVD 59.63 GiB; Z% J, n2 w6 D
◎片  长 2 h 9 min
4 y; }  P0 R+ p9 y0 l◎导  演 艾斯彭·山德伯格 Espen Sandberg
; E+ R" P- B7 J/ L; B       乔阿吉姆·罗恩尼 Joachim R?nning
2 Z3 W( \# X$ R( L) k◎编  剧 特里·鲁西奥 Terry Rossio
' v; q* F4 o: {5 q& L! ?3 f       泰德·艾略特 Ted Elliott! q7 j) e6 v" [( R
       斯图尔特·贝亚蒂耶 Stuart Beattie
5 o, j3 u4 e; x' \/ o0 s# C% s' j       杰夫·内桑森 Jeff Nathanson
% e. A* o1 s9 B8 w$ k+ C; N       杰·沃尔伯特 Jay Wolpert
. i) H+ T' D% o: l◎主  演 约翰尼·德普 Johnny Depp. Z# V* y' S( C
       哈维尔·巴登 Javier Bardem
, Z9 o2 j4 d0 m0 ~       杰弗里·拉什 Geoffrey Rush5 D. |+ n8 h; z
       布伦顿·思韦茨 Brenton Thwaites
5 M; M' d- k/ J/ f2 H9 o6 Y       卡雅·斯考达里奥 Kaya Scodelario! A! ?' j1 i1 ?' f. i  D
       凯文·麦克纳利 Kevin McNally
3 p, ]' p0 k! z7 }$ B       格什菲·法拉哈尼 Golshifteh Farahani
" H- l* `! M" H+ T! ^4 l# [5 j       奥兰多·布鲁姆 Orlando Bloom: N0 {& {- E0 j0 Y: Z7 c. \
       凯拉·奈特莉 Keira Knightley6 e5 f" i3 `/ K; Z, g
       斯蒂芬·格拉汉姆 Stephen Graham0 z" u* w- b, A2 U' Z( b
       大卫·文翰 David Wenham
3 `# s- F1 E8 x% i  x       保罗·麦卡特尼 Paul McCartney
$ |0 _$ D6 X, n0 _       马丁·科勒巴 Martin Klebba8 j0 Q. A) K; ?) K2 A) ]& h3 [
       亚当·布朗 Adam Brown, l' D8 |- Q0 h0 f* i. D
       丹尼·基兰 Danny Kirrane6 T- O2 X$ N! F* |
       马赫什·扎杜 Mahesh Jadu" W" K' O" r/ J1 a. c) b. X) `
       胡安·卡洛斯·凡希多 Juan Carlos Vellido
3 V' b4 w3 X$ n8 F& k% y* }0 Y       安东尼·德拉托尔 Anthony De La Torre3 W+ I2 g% @( W' Z: u
       詹姆斯·麦凯 James Mackay& E4 Q9 u6 z0 J2 [8 w/ A) H9 y2 R& f
       罗伯特·摩根 Robert Morgan
# r; j  D, L# c8 f       派珀·奈恩 Piper Nairn) x. N3 ~2 E: p8 S" X1 T+ y: x
( b1 b/ @  f. z5 H6 R! M* U
◎标  签 海盗 | 冒险 | 美国 | 奇幻 | 魔幻 | 2017 | 经典 | 动作
; k" F8 f( X! q2 }6 ?! @7 \. O
8 r5 t: V, p$ V2 {: c5 E◎简  介   
) m* U; Q- s" [: x3 r7 ~( s2 W0 g6 x, k6 j2 h8 y3 \5 Z3 k) y
  故事发生在《加勒比海盗3:世界的尽头》沉船湾之战20年后。 男孩亨利(布兰顿·思怀兹 Brenton Thwaites 饰)随英国海军出航寻找被聚魂棺诅咒的父亲“深海阎王”威尔·特纳(奥兰多·布鲁姆 Orlando Bloom 饰),却在百慕大三角遭遇被解封的亡灵萨拉查船长(哈维尔·巴登 Javier Bardem 饰)。获取自由的萨拉查屠尽加勒比海盗,征服了整个海域,手刃了“黑胡子”爱德华·蒂奇(伊恩·麦柯肖恩 Ian McShane 饰)的里海海盗王赫克托·巴博萨船长(杰弗里·拉什 Geoffrey Rush 饰)在女巫Haifaa Meni(格什菲·法拉哈尼 Golshifteh Farahani 饰)口中得知了萨拉查的真实目的:为寻找他的宿敌杰克船长(约翰尼·德普 Johnny Depp 饰)。海盗的命运皆压在落魄的老杰克被封印的黑珍珠号,以及天文学家卡琳娜·史密斯(卡雅·斯考达里奥 Kaya Scodelario 饰)口中的远古三叉戟上。
( h2 t1 Q+ L" P
8 A6 A7 I" P. r: p  Captain Jack Sparrow is pursued by old rival Captain Salazar and a crew of deadly ghosts who have escaped from the Devil's Triangle. They're determined to kill every pirate at sea...notably Jack.) o- J& f! C9 I
. `$ m3 l: u, A% r
◎获奖情况   
8 S# o9 R: m9 ]. J, E6 u0 q. K: s! R6 L0 A/ W' y' g
  第38届金酸莓奖 (2018)  Q: r* Y; N3 K0 J1 N
  最差男主角(提名) 约翰尼·德普1 t9 o5 t$ j6 L6 ^3 L( ?
  最差银幕组合(提名) 约翰尼·德普
; v6 O" g. I3 z  @$ A( C2 l3 L  
% w0 M2 P, |9 K  j  第4届豆瓣电影年度榜单 (2017)
- T/ N$ r; y: o( Y  F  5月最受关注电影(提名)
5 N+ \5 f8 t0 n$ u% I9 V  # p3 w9 ?' T. x
  第3届豆瓣电影年度榜单 (2016)
7 V+ [5 V! ?" Z' F1 O  G  最值得期待的外语电影  m- R! l7 w9 B: u

& r  A. ^4 N/ l3 R
Video
" o# g0 P" T+ V9 \6 K' h5 Z! u9 E1 jID                                       : 1) S- N, s( Q. P
Format                                   : HEVC
/ ~& w$ ]( o* S: K& k4 k2 |1 XFormat/Info                              : High Efficiency Video Coding& V4 D3 m# e+ {" E: Z) X: O; A- m
Format profile                           : Main 10@L5.1@High
1 _3 P' p& h8 d4 p" U9 K1 Z. e0 eCodec ID                                 : V_MPEGH/ISO/HEVC" ?7 d+ F0 w- P$ ]
Duration                                 : 2 h 9 min
/ ~% i. [! i# G  [9 zBit rate                                 : 47.8 Mb/s' p" m4 y; Z  u/ L( `2 I, U
Width                                    : 3 840 pixels
7 L4 q9 E7 p- b8 AHeight                                   : 2 160 pixels. j' N+ M3 N' z- r- B3 B7 y
Display aspect ratio                     : 16:9% D( m4 X5 E. g( }6 @/ w, |0 H& Z
Frame rate mode                          : Constant
" c, F+ N8 I0 H  bFrame rate                               : 23.976 (24000/1001) FPS1 A3 g- [5 y( z2 T
Color space                              : YUV
& @* u* F8 p+ C( j/ iChroma subsampling                       : 4:2:0 (Type 2)) }+ H1 r1 ?# t1 h8 P( ^1 L# ?
Bit depth                                : 10 bits. P  `; ^/ H$ t+ N& }$ U- U/ w' [
Bits/(Pixel*Frame)                       : 0.240
" V; X: ], X1 lStream size                              : 43.1 GiB (72%)* K8 H0 C: [5 ^( O/ a( p& V. E
Title                                    : Pirates.of.the.Caribbean.Dead.Men.Tell.No.Tales.2017.2160p.BluRayCD.REMUX.HEVC.DTS-HD.MA.TrueHD.7.1.Atmos-FGT
* ~) O, {! s- H8 r1 G7 D8 WDefault                                  : Yes
* X7 }- E, R3 c- bForced                                   : No- V( Y; W+ Q2 m! _3 l" A2 C
Color range                              : Limited
( v# k# [+ E4 \/ ?6 l, E% F) y8 g- cColor primaries                          : BT.2020
8 \' L- C. x7 f9 c3 N. F' TTransfer characteristics                 : PQ
" ?" p9 _" {+ f/ lMatrix coefficients                      : BT.2020 non-constant0 b- o! e& n0 N( @6 A
Mastering display color primaries        : R: x=0.680000 y=0.320000, G: x=0.265000 y=0.690000, B: x=0.150000 y=0.060000, White point: x=0.312700 y=0.329000
: O, T/ t$ \7 a7 |Mastering display luminance              : min: 0.0050 cd/m2, max: 1000.0000 cd/m24 S/ G3 @1 A! x1 E

7 w: o' |$ L/ T9 |: H$ EAudio #1
+ B" `5 V' D& h. G, n- |1 F& hID                                       : 2
% |  {2 x- D8 u# ZFormat                                   : TrueHD
& B( e1 E) {5 q. D! c: pFormat profile                           : TrueHD+Atmos / TrueHD
( k# P- o7 r5 l0 V" s  ?; |Codec ID                                 : A_TRUEHD. [3 E* ~- i# x6 A
Duration                                 : 2 h 9 min$ Y5 I9 ?4 S0 G/ S5 M
Bit rate mode                            : Variable/ D6 ?* Y- F, E
Bit rate                                 : 8 918 kb/s' p# X$ c* p' s5 m% Z* o$ k
Maximum bit rate                         : 11.9 Mb/s
0 r, d; ~( }7 u4 r( eChannel(s)                               : Object Based / 8 channels7 u! {5 G* w, L6 A* T- J
Channel positions                        : Object Based / Front: L C R, Side: L R, Back: L R, LFE9 w' O, U/ a. r$ N  r' U" |1 e. G! a
Sampling rate                            :  / 48.0 kHz
( i2 N" G6 q& ~Frame rate                               : 1 200.000 FPS (40 SPF)
2 V/ B6 U4 ?% e* o1 @Compression mode                         : Lossless" C! j/ m  Q8 J" U' A1 I9 |) [
Delay relative to video                  : 32 ms
3 ^) f3 N& H0 QStream size                              : 8.04 GiB (13%). a  H1 d! o! Y3 f) z
Title                                    : Pirates.of.the.Caribbean.Dead.Men.Tell.No.Tales.2017.2160p.BluRaycd.REMUX.HEVC.DTS-HD.MA.TrueHD.7.1.Atmos-FGT3 u2 v! b2 [$ I/ }- I+ t
Language                                 : English# I* `: o& w* v5 O" U9 J
Default                                  : Yes
$ L6 v: u0 t+ {; E& T; @Forced                                   : No( t0 B* ?: ?" u  e% |" T6 n
7 {1 _# V' o7 M  F& _
Audio #2
5 u: p6 d  E. w! X  QID                                       : 3  {$ w! }, i& z( S
Format                                   : DTS6 y" |) r- ]1 P' Q. K$ d7 S& R
Format/Info                              : Digital Theater Systems
* G4 N0 {- [' ?. \Format profile                           : MA / Core
8 {* e! _: p# N8 z  VCodec ID                                 : A_DTS( t) @; C8 Y0 @5 ?% v& G( P* }/ k
Duration                                 : 2 h 9 min
5 ]$ B' T2 G. e! s1 LBit rate mode                            : Variable / Constant
2 {( Q3 `. B9 A% r" V: RBit rate                                 : 4 207 kb/s / 1 509 kb/s
* A* x1 Q8 L  [( B* O. @Channel(s)                               : 8 channels / 6 channels' Z6 X* m- I- D& S8 g/ {
Channel positions                        : Front: L C R, Side: L R, Back: L R, LFE / Front: L C R, Side: L R, LFE' J2 N( ]- a/ [+ m1 |9 d; n& a
Sampling rate                            : 48.0 kHz
0 X" C; Z8 S$ W- U$ g2 L+ AFrame rate                               : 93.750 FPS (512 SPF)- e- ]5 T+ Z0 n
Bit depth                                : 24 bits
  o' ]$ n, z  bCompression mode                         : Lossless / Lossy
2 n. R, w! @; _* X: m3 n6 UStream size                              : 3.79 GiB (6%), X$ F9 a8 ]/ ?0 z# p4 ?
Title                                    : Pirates.of.the.Caribbean.Dead.Men.Tell.No.Tales.2017.2160p.BluRaycd.REMUX.HEVC.DTS-HD.MA.TrueHD.7.1.Atmos-FGT
$ E: e& ~+ _% s0 r( C- W+ cLanguage                                 : English( ^$ Z+ ^, Z9 K! v
Default                                  : No
$ R/ U$ _. z2 [/ s8 S( oForced                                   : No
; [2 |, b! Q  z8 p* W0 T0 I
3 ?0 A4 A* ]% [, v5 W3 eAudio #3
- j1 v9 K* ?" R# N3 X! SID                                       : 4
9 F( V, S1 b6 nFormat                                   : AC-3. S: `! o; ^3 k# n/ m, t5 J. c
Format/Info                              : Audio Coding 37 A: t8 }: i' {2 G& p
Codec ID                                 : A_AC30 V# {8 w0 @1 }+ B7 I# }
Duration                                 : 2 h 9 min& g/ B1 Y+ m6 {% p: x5 s
Bit rate mode                            : Constant
* F( K! ?6 e7 t  |3 HBit rate                                 : 640 kb/s! I  L! m6 v; ^, E* d  B
Channel(s)                               : 6 channels1 e2 e$ ^6 Z6 Y' a) S5 g3 F8 h
Channel positions                        : Front: L C R, Side: L R, LFE: f* E6 M7 _7 q9 @$ ^5 ]0 t
Sampling rate                            : 48.0 kHz
, P- n7 `  w: N4 v: A$ O" q; kFrame rate                               : 31.250 FPS (1536 SPF)
2 G7 e+ S2 f& z6 ^0 _Bit depth                                : 16 bits
+ `  V. F* @$ P5 o+ lCompression mode                         : Lossy
5 V. w2 }7 u+ ^- A& CDelay relative to video                  : 31 ms6 U: |7 T( h( `" I8 a& y; }
Stream size                              : 591 MiB (1%)4 z/ d3 B; K& d
Title                                    : Pirates.of.the.Caribbean.Dead.Men.Tell.No.Tales.2017.2160p.BluRaycd.REMUX.HEVC.DTS-HD.MA.TrueHD.7.1.Atmos-FGT8 p' ]  i0 M3 h0 F# q7 j
Language                                 : English
, ^4 Y( b, Y! p, r5 X8 dService kind                             : Complete Main
9 d: @! m& e) r! @9 c) _Default                                  : No
9 z  \1 T' S! `0 [- e% J: g1 m; {7 {7 sForced                                   : No; [2 k! H# j9 R9 X
! U/ o9 |% E/ F( m/ ~
Audio #4- I4 Q4 i. w1 L/ H+ |2 N! X6 M
ID                                       : 5
, E+ x; h0 d9 l8 u% Y5 j" IFormat                                   : E-AC-3% ?) A$ p! w6 P1 ?
Format/Info                              : Enhanced Audio Coding 3' {1 D$ v3 ?; f6 w) _! C
Codec ID                                 : A_EAC3" C$ P5 h! j! q1 `! Q; [
Duration                                 : 2 h 9 min9 y# A2 P3 f! U7 }( o+ ?: c/ R3 r
Bit rate mode                            : Constant
! M. U0 N8 O" a, ABit rate                                 : 500 b/s( }: d( ^6 \- k( l5 L$ c& R
Channel(s)                               : 6 channels
) m3 s- C( W2 j; b: RChannel positions                        : Front: L C R, Side: L R, LFE
0 b! ~' u- z) e. G/ E6 uSampling rate                            : 48.0 kHz
; }( g. ~( ^7 h" I8 f: A+ qFrame rate                               : 187.500 FPS (256 SPF)! J- [% O2 A; @: Y& a' v" B% b
Compression mode                         : Lossy/ P5 @5 s! [, p
Stream size                              : 946 MiB (2%)  g% A3 k8 }1 }. a$ Q
Title                                    : Pirates.of.the.Caribbean.Dead.Men.Tell.No.Tales.2017.2160p.BluRaycd.REMUX.HEVC.DTS-HD.MA.TrueHD.7.1.Atmos-FGT
6 a3 Z; N; \6 s, a, G0 I2 R/ `Language                                 : English( X0 h% f8 o7 V
Service kind                             : Complete Main+ `/ c( Q" @) T! h' U) d
Default                                  : No8 _- U% b: l1 ^4 ?9 a  c$ |) @
Forced                                   : No$ A3 {) Y: q% ~1 q

: t+ K3 }1 A, W. JAudio #5
4 M$ H9 C- M+ ~9 RID                                       : 6' Q" `- K( X+ r$ J) q3 e3 J
Format                                   : AC-3& |: y: e, `) r/ ~$ s
Format/Info                              : Audio Coding 3- R  [* {; U9 |2 n6 X9 G. B
Codec ID                                 : A_AC30 }1 K$ q" l* {7 B; ]# L% E
Duration                                 : 2 h 9 min
4 C9 W: _1 V" N$ l  L% M9 _Bit rate mode                            : Constant
# Y6 N$ i  X& O- m, x  ]! u: }7 GBit rate                                 : 320 kb/s$ C, t- ^' H( s2 i% {/ z: U. k
Channel(s)                               : 2 channels
/ `( X/ v) g  Z) Z" fChannel positions                        : Front: L R( I8 W/ w3 B- Q- ]& z/ Y( u4 `0 ?
Sampling rate                            : 48.0 kHz; \. ~/ `3 V: ?- F5 p- J
Frame rate                               : 31.250 FPS (1536 SPF)8 C* e5 N- ~) T* P% S
Bit depth                                : 16 bits$ N: c5 |6 f8 `/ h+ ~% [
Compression mode                         : Lossy0 F/ ~& J( Y9 i
Stream size                              : 295 MiB (0%)
* x2 I1 m# f4 H  |Title                                    : Pirates.of.the.Caribbean.Dead.Men.Tell.No.Tales.2017.2160p.BluRaycd.REMUX.HEVC.DTS-HD.MA.TrueHD.7.1.Atmos-FGT. \+ G& |3 B5 M8 q, y0 p6 @' f, u1 {; V" @
Language                                 : English3 T  I0 K0 o7 _  d( o' l! o
Service kind                             : Complete Main; D8 V" L0 k7 O/ o  N& R
Default                                  : No
% t! c& C' U( I. ]Forced                                   : No5 }5 X' Y$ r, a) N* F/ w. j

( r, f8 Z. e; H) [& r5 oAudio #6. l, a6 b$ V6 o6 B$ D# A. r/ Q
ID                                       : 7
% y/ z+ @2 [: s4 S% v: [: gFormat                                   : E-AC-3
! K( }6 Y5 z* ~* D, ^Format/Info                              : Enhanced Audio Coding 3
6 S6 |7 t) r& k3 J$ X1 y) ^Codec ID                                 : A_EAC34 l8 m1 g. H2 ?; d- ]+ c
Duration                                 : 2 h 9 min
6 V0 j7 N( {; x7 R* W  k) FBit rate mode                            : Constant
  O" p7 b$ ~1 }7 \+ J% vBit rate                                 : 500 b/s
; g+ H% a' ]! w& ]! vChannel(s)                               : 6 channels
. u3 t- k% s% r+ |: }Channel positions                        : Front: L C R, Side: L R, LFE! J! V9 j5 }7 X7 K5 g6 l" p
Sampling rate                            : 48.0 kHz
4 |; O+ J% H0 K1 ^, t: n) HFrame rate                               : 187.500 FPS (256 SPF)
. f8 F7 |+ k- w  @& x' eCompression mode                         : Lossy% e5 k& G9 z  O! l6 k# ^5 ]5 m
Stream size                              : 946 MiB (2%); ^1 a$ z, a, O7 S7 h4 X( x, k
Title                                    : Pirates.of.the.Caribbean.Dead.Men.Tell.No.Tales.2017.2160p.BluRaycd.REMUX.HEVC.DTS-HD.MA.TrueHD.7.1.Atmos-FGT
/ \6 F$ e$ N! h+ ^' ~. w2 S5 N# y8 qLanguage                                 : French
* L; k; o0 Q" \Service kind                             : Complete Main
0 R9 i9 d4 w( c2 Z$ z7 ]3 A1 `Default                                  : No3 {7 K$ D* z/ {2 {. t) K6 T
Forced                                   : No
/ B, E8 B; X+ x1 ]% b  Z, j5 i
" x7 _3 P9 f# p5 D* K2 C( M4 r" WAudio #7
8 f) k7 H1 W0 V0 j9 QID                                       : 8
" A  H, p6 Y0 ?! @( c9 LFormat                                   : E-AC-39 W* w4 m2 U, h$ }" h
Format/Info                              : Enhanced Audio Coding 3/ K, c+ n. \6 U* }
Codec ID                                 : A_EAC3" T: t9 ~$ a) @6 p; _: N
Duration                                 : 2 h 9 min
9 H/ r" m, ]8 `0 Y7 z$ f" oBit rate mode                            : Constant- u( f; c! ?/ u
Bit rate                                 : 500 b/s
7 v* g% c4 r! Q+ J0 b0 F3 FChannel(s)                               : 6 channels1 ], r$ Y. b2 x: k  d8 f( I0 |
Channel positions                        : Front: L C R, Side: L R, LFE/ d% `& t( a' ]. l# G# u% W. R5 f& w
Sampling rate                            : 48.0 kHz
! p  k; e7 S( e' D$ j6 H# gFrame rate                               : 187.500 FPS (256 SPF)" n/ S# B) ]: O' \% n6 f3 K. T
Compression mode                         : Lossy# T! Q/ e: M! o0 f
Stream size                              : 946 MiB (2%)$ F8 v, U, G' o0 ^% N& c9 C2 R
Title                                    : Pirates.of.the.Caribbean.Dead.Men.Tell.No.Tales.2017.2160p.BluRaycd.REMUX.HEVC.DTS-HD.MA.TrueHD.7.1.Atmos-FGT
, A7 {$ d9 `5 A7 W+ \2 [Language                                 : Spanish
9 Z3 I4 |0 f# |: v5 `- fService kind                             : Complete Main: ~9 @; W! R; L6 U; W2 V# A
Default                                  : No
7 I# K6 W# [" q$ j$ W8 ]! X* V3 MForced                                   : No2 a- f; \* [2 Q1 N# e
4 o4 l2 [% N* o* z# z% O" Q% u, s
Audio #87 D  N5 X2 F1 Y% I# s# L
ID                                       : 9
7 k0 P8 W4 g4 U" j5 L; XFormat                                   : E-AC-3& l1 S* @; M6 V8 F9 t/ w; n
Format/Info                              : Enhanced Audio Coding 3
5 W( w6 G, s( O; KCodec ID                                 : A_EAC3
: ]9 P7 r7 S+ k& p7 HDuration                                 : 2 h 9 min6 E! A0 {0 B6 M& B% v' k
Bit rate mode                            : Constant
4 y$ f0 X/ k' OBit rate                                 : 500 b/s
% g" C+ v, L) ^) X, F* QChannel(s)                               : 6 channels3 j6 h7 {8 `% j3 l" }( r5 ^8 `; o% J
Channel positions                        : Front: L C R, Side: L R, LFE
8 ^* g! s4 s. e& k! n! ~0 |' bSampling rate                            : 48.0 kHz
. {! Q! T* D6 tFrame rate                               : 187.500 FPS (256 SPF)
& j9 ?  ~) M% }6 u6 ZCompression mode                         : Lossy4 a6 W0 m' c/ s- o% `/ P& f) {
Stream size                              : 946 MiB (2%)" Y7 p* G) \& P4 W. r  z1 `/ g
Title                                    : Pirates.of.the.Caribbean.Dead.Men.Tell.No.Tales.2017.2160p.BluRaycd.REMUX.HEVC.DTS-HD.MA.TrueHD.7.1.Atmos-FGT5 T5 a* p9 t( b9 V, T9 ^
Language                                 : Japanese9 M" ^$ {! |8 F
Service kind                             : Complete Main6 D8 J4 m* N: C" l# g' T
Default                                  : No5 Q* Z9 I$ M" y. R  k2 V. M3 S# F
Forced                                   : No
, Q$ \9 N* `; N3 b
- t+ n+ i, \8 ]' U) N+ ^  Z+ QText #1
, C6 V; [- |) u' ~ID                                       : 10
" f5 w) l; n. N7 hFormat                                   : PGS* _( \% Y. U# Z; Q6 B: L
Muxing mode                              : zlib' A% a: ?2 x" Z* {& @# d
Codec ID                                 : S_HDMV/PGS+ v( `( D; v7 U5 ^
Codec ID/Info                            : Picture based subtitle format used on BDs/HD-DVDs3 f( s4 v" F$ F1 ~- V+ Q
Duration                                 : 2 h 7 min
  A3 J8 {* N3 x9 v, |4 m2 ~+ b( ^Bit rate                                 : 32.8 kb/s/ v1 K+ }7 m. l- j1 r
Count of elements                        : 35449 o. A: J0 j; [% t2 I- R) e# U
Stream size                              : 30.0 MiB (0%)8 O* t  A$ w7 m$ n: A9 d2 C3 J6 v4 I
Title                                    : English-PGS
8 ^, |5 c- I; K7 b: ULanguage                                 : English7 R: |; q3 c, |
Default                                  : Yes
2 o1 [+ W) p1 p( CForced                                   : No% K: m( ?! Y! \0 s+ O% |$ K
  H0 ?8 `. ~9 z9 m  V* K) t$ t; ?
Text #2% @( ^/ Y$ ~- r5 i" \! b
ID                                       : 11: V9 {/ P6 x, v. l) ^8 C
Format                                   : PGS
/ Y4 P$ W; K7 a9 jMuxing mode                              : zlib) L- y/ F$ k5 }+ j& t8 ~4 d
Codec ID                                 : S_HDMV/PGS
! F: {3 }9 u! Y& oCodec ID/Info                            : Picture based subtitle format used on BDs/HD-DVDs
$ |9 q9 b% d5 L4 e* P' PDuration                                 : 1 h 59 min7 f7 p. t- Q* a4 R6 B
Bit rate                                 : 29.0 kb/s( k- ]+ S! ^" h# Y+ j# Y
Count of elements                        : 27446 b( c( E# F/ I# b$ q5 H6 L5 ?
Stream size                              : 24.8 MiB (0%)) L8 N0 ]& g$ r: S9 ~
Title                                    : French-PGS
, s# H2 s% W' h' |! ULanguage                                 : French
0 ?3 C! S" W! \% S( yDefault                                  : No
9 W- S1 L3 h) TForced                                   : No
+ z4 \& n" M  f6 g* N+ o  B" _; ^5 _/ K: q7 B
Text #3/ ?+ b( S) E4 w# e0 S
ID                                       : 12
7 S& N/ G# D% x  G' @2 H4 F2 B. D0 yFormat                                   : PGS
+ p' Q6 J+ f  cMuxing mode                              : zlib- u2 ~$ ?, x* _# y% v1 Y( x2 W+ t
Codec ID                                 : S_HDMV/PGS4 ~; R2 _2 p$ \$ O( \' Z/ L
Codec ID/Info                            : Picture based subtitle format used on BDs/HD-DVDs6 D, E: u' Z, t) I) q/ s
Duration                                 : 1 h 59 min
: e6 z, H/ f5 lBit rate                                 : 28.5 kb/s
# A3 T3 I* E" ]# g# E7 a& KCount of elements                        : 2638" z( R/ V9 W5 x/ A
Stream size                              : 24.3 MiB (0%). G) M6 L- T# p/ K2 d2 r. J
Title                                    : Spanish-PGS
0 S; V. y8 Q/ x0 B+ V" GLanguage                                 : Spanish
8 L! ?- }  b9 N/ R$ p, s& q' E  pDefault                                  : No* {) G3 s4 A8 P' ~
Forced                                   : No
4 d& k$ j3 R1 }5 |( n' f
6 S  ]- `; Y7 R; s: E9 dText #4
3 B% n; Z3 [) |9 ]' y) SID                                       : 13% v2 L$ \/ E8 c, @' q3 o% E6 _: e
Format                                   : PGS
9 e0 K  R4 Z; Z6 R: |- P4 ]# }( GMuxing mode                              : zlib
1 d8 s, v0 b  U- I, G1 P6 @# L4 HCodec ID                                 : S_HDMV/PGS# U4 i( o0 i4 Z/ Z
Codec ID/Info                            : Picture based subtitle format used on BDs/HD-DVDs
9 O# G! Y  E5 v5 |; B9 ^. |' w+ wDuration                                 : 1 h 59 min
) B5 \0 z/ v' {: @% g" H* gBit rate                                 : 16.8 kb/s
# U) e8 X9 P) @Count of elements                        : 2646
$ e: a4 _9 b' j8 m2 g/ L$ S) XStream size                              : 14.3 MiB (0%)
2 U  H+ b" e+ q* Q2 qTitle                                    : Chinese-PGS
+ r. Z& t2 z8 D! Y1 vLanguage                                 : Chinese% N# E" D3 r- ~0 j5 M
Default                                  : No; C( k$ u7 l1 [
Forced                                   : No! i, G$ M  c. C) [

2 c  l/ x# o& _& K/ l5 {Text #57 M) E/ [% K# Z& R: ^0 g
ID                                       : 14
$ o# i) ^+ G; V7 @Format                                   : PGS
2 M: ~* G, W8 }Muxing mode                              : zlib
- {8 V# `( i' a: G, D3 ?Codec ID                                 : S_HDMV/PGS' {2 V7 t( D0 \$ x
Codec ID/Info                            : Picture based subtitle format used on BDs/HD-DVDs
) ~- L" B) m" e5 ?8 ^) {2 }+ HDuration                                 : 2 h 4 min0 |* j8 g0 q! u% Y  ]
Bit rate                                 : 17.8 kb/s
: |1 G) W; S5 j3 ?Count of elements                        : 2372
( K2 t* u" Q0 oStream size                              : 15.9 MiB (0%)2 Q1 U) h; y" X, k4 C  \( N
Title                                    : Japanese-PGS0 P8 ]9 A3 Z4 o. ?
Language                                 : Japanese
" R. e" \0 E- H2 j2 iDefault                                  : No
# f- ~. i$ b- Y6 J1 B. l$ SForced                                   : No% V; i& y; @* R  _) R8 G

# n& ?* b, L. L+ }* iText #6, S: |& \  @2 g# d; c. r
ID                                       : 15% O; u; S1 u; ?  P  G
Format                                   : PGS( k2 O- _$ E5 a* }: k; s+ Y% g* N' q
Muxing mode                              : zlib
( _# ]  Q8 K6 _1 A$ rCodec ID                                 : S_HDMV/PGS; Z. i' I* ?3 t
Codec ID/Info                            : Picture based subtitle format used on BDs/HD-DVDs0 {; z6 i! i4 o: W) T2 u
Duration                                 : 1 h 59 min
- c" E% b: s$ Q! n8 Y( ~2 s% oBit rate                                 : 19.4 kb/s
* Y' {" ~3 r) Z5 zCount of elements                        : 2738
/ t: l3 i" d2 |& X; y; h& @Stream size                              : 16.5 MiB (0%); b4 J/ ~; j: ~8 W
Title                                    : Chinese-PGS
# l) W- H5 @' c5 ~7 R  y, d/ c/ nLanguage                                 : Chinese
' ]! [( d: w* t% D$ v/ XDefault                                  : No
- l$ a  J  c- jForced                                   : No" K" L. x2 E! M
3 ^4 z# f8 c! U3 b9 M- T' {
Text #7
  V1 C1 ?  a) h/ A& EID                                       : 166 y, K% l0 m1 R0 `. @3 ^
Format                                   : PGS
5 Y: g% H$ x+ R$ H3 ^6 eMuxing mode                              : zlib5 P  O. M' k% L0 A" c. i3 ^
Codec ID                                 : S_HDMV/PGS
5 A0 I( J/ L$ |- }Codec ID/Info                            : Picture based subtitle format used on BDs/HD-DVDs
, w* m+ ?7 z1 ]% W/ e  J0 p) SDuration                                 : 1 h 57 min
0 k- f' O, L! q% p; i) {Bit rate                                 : 983 b/s7 Q, v0 p& N/ P$ b
Count of elements                        : 928 I8 B* Q! e" M
Stream size                              : 849 KiB (0%)9 K' x$ _+ X% v7 {* _1 _
Title                                    : French-FORCED-PGS
! z- ]- e4 M! X/ }- I0 JLanguage                                 : French- z$ y% @8 z  r+ m
Default                                  : No7 r9 E4 w- e; Q0 }
Forced                                   : No
3 @: M, O' U! ~) `$ g. n
- B3 d! \# p7 m/ R$ UText #8
0 g8 ]1 q% W. lID                                       : 17" X0 p# S  X7 i) q8 m
Format                                   : PGS
: x4 |3 ~. ]4 x% o0 [7 O  A  qMuxing mode                              : zlib
6 [$ q2 i2 a  _+ aCodec ID                                 : S_HDMV/PGS. g9 H; G0 E- H& D( p
Codec ID/Info                            : Picture based subtitle format used on BDs/HD-DVDs
/ ?. E1 N) U8 s! E* gDuration                                 : 1 h 2 min8 r7 S3 A6 u9 {9 O0 v5 H! `  R
Bit rate                                 : 274 b/s* R) b) }1 e  V3 E8 }* f8 Q
Count of elements                        : 16
' g2 X$ r, G0 l7 e7 pStream size                              : 126 KiB (0%)
$ R/ M* ~& B2 J  a! JTitle                                    : Spanish-FORCED-PGS4 O5 U$ C$ ^  v) V! \# t7 R9 B
Language                                 : Spanish3 e. S2 r( D, f9 ~! d5 H
Default                                  : No
3 I- e7 |& d# H: `9 SForced                                   : No
/ G$ D& W9 C) u! F6 ^0 d0 V8 F1 Z8 k# b) U! k
Text #9' G/ X" ?0 J) q5 Q
ID                                       : 187 \! t6 D: Y' D
Format                                   : PGS, e% A- T5 \+ ^% ~
Muxing mode                              : zlib
/ n# ~- F$ O& c$ pCodec ID                                 : S_HDMV/PGS
3 f) E0 E" B8 r4 b6 g' VCodec ID/Info                            : Picture based subtitle format used on BDs/HD-DVDs) H9 P  p1 q- g1 k4 y
Duration                                 : 7 min 55 s& N5 t. T5 Z- b8 `
Bit rate                                 : 570 b/s
6 S6 F) q* v) I- ]& R% nCount of elements                        : 4
! k8 M# z, A+ u6 L0 XStream size                              : 33.1 KiB (0%)
) ~7 M; m6 n1 E% T* C; bTitle                                    : Japanese-FORCED-PGS
* K3 `: z7 g! w1 BLanguage                                 : Japanese+ z1 b# z5 d6 f
Default                                  : No
% }9 L, S9 v. z$ _' i3 }- [Forced                                   : No
9 H4 I. h* D/ O* }' A" m% J* n. O) g% x7 R; b+ f3 x
Menu3 a% I  m0 [6 s
00:00:00.000                             : en:Chapter 1% b1 }1 E( K1 j
00:05:49.557                             : en:Chapter 2
1 z/ _. V# s% z" R7 M00:08:34.263                             : en:Chapter 3
% h- e8 v3 G1 N/ {. ~7 Q00:13:40.861                             : en:Chapter 4
0 ^0 @/ r& k$ O' o" |* X00:16:29.196                             : en:Chapter 5, L5 D+ u9 i4 k4 r. x) |
00:22:33.894                             : en:Chapter 6
. y8 @+ v5 G- Z: L  S/ A' m00:25:19.309                             : en:Chapter 7
6 W+ A  a) W! j9 e' ]% T2 H00:28:06.142                             : en:Chapter 8
+ L3 Y/ x2 `- W  D00:31:41.816                             : en:Chapter 9; L) q( W) a. P) x/ P: J6 r
00:33:44.856                             : en:Chapter 102 \9 ]& d6 U5 E+ m$ P4 M5 X. i
00:37:02.094                             : en:Chapter 11
' h" l9 R- f' H8 ^9 ]: {# t( H1 U00:42:27.753                             : en:Chapter 12
) J. d; h8 h2 I- _1 r' `00:49:09.112                             : en:Chapter 137 k) i% u2 L7 @2 v8 \% ]0 n
00:54:00.320                             : en:Chapter 14% H2 f0 @# e# \9 B& f: B. i
00:57:19.436                             : en:Chapter 153 u8 J1 U# H, |) I& x( B0 l
01:00:38.760                             : en:Chapter 16
, e& w( p' V( o01:08:29.980                             : en:Chapter 174 A* r  B2 R% A, s2 J0 L( \
01:11:57.062                             : en:Chapter 18
! ]0 [. k% Z! K  u  ~1 y/ z9 R01:16:50.981                             : en:Chapter 19
5 g8 d+ ]) r) Y0 p01:19:27.512                             : en:Chapter 20
) X, p5 }5 \1 [' L) [01:25:04.849                             : en:Chapter 21
* p7 L* p4 p8 v) [1 c+ s. |01:27:42.215                             : en:Chapter 226 h$ n+ M8 u- j6 J0 f, l9 ]8 C! Q
01:31:43.831                             : en:Chapter 23+ R5 d/ D6 h8 I8 `7 l
01:38:22.855                             : en:Chapter 24
2 d+ S! o2 {2 b/ O6 g01:42:36.817                             : en:Chapter 25
: E7 i* ?! A; T4 W8 X9 \. x01:47:23.603                             : en:Chapter 26
5 }: x5 Y' Z. Z% f& X# L: g: {01:52:58.730                             : en:Chapter 27- o5 _& x" H" \  I% ^
01:59:09.976                             : en:Chapter 28

4 V8 ^5 {  G1 m6 m% F
游客,查看本帖隐藏内容请回复 | 加入VIP贵宾可免积分免回复 了解详情 | 还不是会员:点击获取邀请码 Invitation Code

78

主题

3794

帖子

1万

积分

Sponsor

金币
2086 枚
体力
5502 点
lanpanshuma 发表于 2021-12-20 12:55:01 | 显示全部楼层
这么好的帖子不回对不起自己!. E% t% Y* h' u3 R
Blu-ray movies Community: my favorite!% a: v; `% ~8 p, f

0

主题

51

帖子

400

积分

Sponsor

金币
103 枚
体力
186 点
yzxuefeng 发表于 2021-12-21 21:12:36 | 显示全部楼层
这么好的帖子不回对不起自己!
9 K; V3 p% M( ?" ABlu-ray Film Forum: I will always support you!
& e3 O0 n9 L! y% ^% C+ e1 b

0

主题

512

帖子

2151

积分

Sponsor

金币
226 枚
体力
866 点
QQ
fangfang789 发表于 2021-12-30 11:22:48 | 显示全部楼层
每天都来蓝光论坛看看,我爱蓝光电影。
( c% v7 O6 A% {: O6 q7 w+ Z. PThe decisive Replies sink is I get the sinking feeling great sense of accomplishment!  b/ M) y- w4 M7 ?

本版积分规则

小黑屋|Archiver|蓝光电影资源网

GMT+8, 2022-1-18 16:08

Copyright © 2001-2022, Tencent Cloud.

快速回复 返回顶部 返回列表