BluRayCD Forum

 找回密码
 立即注册【分享大片】
查看: 112|回复: 8
收起左侧

[4K极清电影] 北区侦缉队 [4K REMUX无损版] The Stronghold 2020 FRENCH 2160p BluRaycd REMUX HEVC DTS-HD MA 5.1-FGT 47.14GB

[复制链接]

6573

主题

6746

帖子

8万

积分

Post Share

金币
15239 枚
体力
21516 点

卓越贡献勋章

黄金嫖客 发表于 2021-12-30 07:12:41 | 显示全部楼层 |阅读模式
A police brigade working in the dangerous northern neighborhoods of Marseille, where the level of crime is higher than anywhere else in France.
9 b! M( m, E, ~" [1 f" \- r' O( l, q. s1 C8 N, ^; W
% r) A- A3 o. S
7 m4 t; e) D( M: k
◎译  名 北区侦缉队
  N! a+ R/ |0 H! s. V; ?2 a◎片  名 Bac Nord / Stronghold
# O2 P3 }% d# K! W; P% J# S  b◎年  代 20203 n) x) q1 U9 J" q
◎产  地 法国
& V6 }) S& z! O% A; h# z◎类  别 惊悚/犯罪& m& b0 l  G8 G2 D, J5 }. k# @
◎语  言 法语7 z# J2 Z2 J; J* y# S# H0 k
◎上映日期 2020-10-16(法国)/2021-08-18(法国)
) O% q1 r0 Y' ]+ b3 g4 d8 P. q" _◎IMDb评分  6.9/10 from 7,018 users5 Z* ]# u( z3 n. l% O2 d0 L
◎IMDb链接  https://www.imdb.com/title/tt10404944// f1 S: u6 {# l' C9 {
◎豆瓣评分 7.0/10 from 2,293 users: z. ]! g! D. K) @
◎豆瓣链接 https://movie.douban.com/subject/33459140/. A# Y; i( n8 `( A$ @9 G
◎文件格式 x265 + DTS  
( {. m, z1 c9 X: [3 N2 s, C◎视频尺寸 3840 x 2160
) S/ J, _8 ]/ H1 x( \8 Z- b4 D◎文件大小 1DVD 47.14 GiB
9 ]1 w4 Z2 @( V- j◎片  长 1 h 43 min
' Q! v6 ^6 x( B5 T$ I8 v◎导  演 塞德里克·吉门内兹 Cédric Jimenez: c6 x0 x5 l) g% }4 g2 @2 u  G
◎编  剧 塞德里克·吉门内兹 Cédric Jimenez7 W! F! [; J+ [9 h+ t' W4 c7 A
       奥黛丽·迪万 Audrey Diwan/ }/ {" j8 ~& v4 d3 T+ W
       本杰明·查比特 Benjamin Charbit
$ t  W* K2 P$ B/ i; M% @◎主  演 吉尔·勒卢什 Gilles Lellouche
' Q* F* ?+ N  P/ i# K: C       弗朗索瓦·西维尔 François Civil
$ g4 p1 F% C' U, T. q       卡里姆·莱克路 Karim Leklou
4 P1 ^7 }. {- x/ F& {) q1 y! R# Y  L" m       阿黛尔·艾克萨勒霍布洛斯 Adèle Exarchopoulos
$ m  g7 u& K3 L# R5 ^: Y4 W" `5 l9 |  b4 f. q" j$ T9 J9 h
◎标  签 犯罪 | 法国 | 法国电影 | 动作 | 政治 | 2021 | 2020 | 法國) T* e+ ~3 I7 ?' T# s. a- G
4 K0 c9 K. B3 {8 Y& ]9 G9 }4 ^# [' V
◎简  介   " H" ~/ {2 x, E; T8 V  N; @

! N; k7 q9 f# R4 [! H0 R# q7 b  2012年,马赛北部地区是全法国犯罪率最高的地区。在上级领导的压力下,BAC Nord警队不断改进工作方式。在高风险地区,警察选择改变工作手段,有时甚至会越过界限。直到有一天,法律形势开始对他们变得不利……# L8 j5 w- @0 [8 u- @" r9 a

# B) z/ r' H; P9 F8 @. E. L% ~, {  2012. The northern districts of Marseille hold a sad record: the area with the highest crime rate in France. Driven by its hierarchy, the BAC Nord, a field brigade, constantly seeks to improve its results. In a high-risk sector, the cops adapt their methods, sometimes crossing the yellow line. Until the day the justice system turns against them.
& G5 j, G. L/ F" J- a% ~  |2 M% z1 A) |1 Z* R: D) Y* r0 p4 F
The.Stronghold.2020.FRENCH.2160p.BluRayCD.REMUX.HEVC.DTS-HD.MA.5.1-FGT' ]% \2 g# J" `) @" P* E$ |4 G

% H* \4 A' T1 f( fVideo4 c# s2 e9 T0 ], K$ ~; v' |
ID                                       : 1
6 y- V( M. ]  z5 X9 ?9 KID in the original source medium         : 4113 (0x1011)
, ?- C! q  f) uFormat                                   : HEVC. H% a( n! N, J) c# }$ R0 R
Format/Info                              : High Efficiency Video Coding5 V6 n/ t* P5 w/ k0 B3 v
Format profile                           : Main [email protected]@High& E, P; O. ]1 Y- _8 `
HDR format                               : SMPTE ST 2086, HDR10 compatible  c6 {2 P' _& K
Codec ID                                 : V_MPEGH/ISO/HEVC
% o% m" `, ?8 x1 B9 t! W2 IDuration                                 : 1 h 43 min
2 g+ q% W! q4 s7 K! {( uBit rate                                 : 60.0 Mb/s
; z5 S8 p3 u" j  Q; {8 HWidth                                    : 3 840 pixels
1 _' e9 b+ ~7 ]; D0 kHeight                                   : 2 160 pixels
$ E( M2 u  M) y* e; ^" bDisplay aspect ratio                     : 16:9! s) R; Y& i. [! a" G
Frame rate mode                          : Constant
6 p7 U) }, L* T8 aFrame rate                               : 24.000 FPS$ x6 X7 H' C+ B* [, K& e7 n0 |5 t# t' S1 |# I
Color space                              : YUV8 K% K- V' T. P, c5 @* i
Chroma subsampling                       : 4:2:0 (Type 2)! X# N2 q9 r) s- d8 q
Bit depth                                : 10 bits( l! H. z# B* R4 K3 _, `
Bits/(Pixel*Frame)                       : 0.301
2 [# t. J8 o+ r5 m! p, `Stream size                              : 43.6 GiB (92%): }+ H5 b: G4 @' }" p( t
Writing library                          : ATEME Titan File 3.8.18 (4.8.18.2)      4 {4 B0 N! N( e! |& m
Language                                 : English! T* _- F0 [! ^0 A; M6 H/ a
Default                                  : No
5 v, D, c- _+ y! IForced                                   : No% Z+ _4 p( v" M1 L6 ~
Color range                              : Limited9 t0 f  c: w6 T3 e
Color primaries                          : BT.2020
. f2 o5 Q! M. a' tTransfer characteristics                 : PQ# L0 V  K! }# o0 f3 v' [
Matrix coefficients                      : BT.2020 non-constant
8 z% M* e$ s% ]  ?# Z; l& g6 Y/ IMastering display color primaries        : BT.20208 f4 z9 a' N% u* J8 M! V+ ^. k
Mastering display luminance              : min: 0.0020 cd/m2, max: 1000 cd/m20 g9 h9 j+ R6 ]+ w
Maximum Content Light Level              : 1000 cd/m2: |  u8 M" V2 c6 v/ _/ h1 q
Maximum Frame-Average Light Level        : 467 cd/m2
9 L- p. o1 ^3 F- K5 e. q, Z3 N+ uOriginal source medium                   : Blu-ray
1 O. m4 W! g$ V( u6 B6 }, ^
' q, W1 `% ?% e+ a0 zAudio #1
; \0 @) H; m* ZID                                       : 2* _  l1 \0 ]  D+ R
ID in the original source medium         : 4352 (0x1100)1 `) w6 r0 s1 B
Format                                   : DTS XLL
$ N# r5 x9 x0 c3 @3 b4 zFormat/Info                              : Digital Theater Systems
4 K9 }  T( u0 V8 O+ sCommercial name                          : DTS-HD Master Audio
+ E7 a9 @: e! s& N5 D/ }: rCodec ID                                 : A_DTS# n. a: J. i: P! @4 q0 g( B/ P: k
Duration                                 : 1 h 43 min
2 L0 m' l6 J4 b8 [, vBit rate mode                            : Variable
& U: C# j* G2 C: A: sBit rate                                 : 3 504 kb/s& D( u* x! f* p8 W% _3 `
Channel(s)                               : 6 channels
) D5 G$ E1 ?# B5 {) o3 b/ L4 gChannel layout                           : C L R Ls Rs LFE% L  Q7 U+ J6 D( Q
Sampling rate                            : 48.0 kHz
( X4 H/ }7 t. q+ ?& m, T6 z+ h4 DFrame rate                               : 93.750 FPS (512 SPF)6 M3 x8 Y. N; F# l/ h' N6 z  F
Bit depth                                : 24 bits+ f7 A4 M1 b; L% i
Compression mode                         : Lossless$ c) k+ G1 T0 B
Stream size                              : 2.54 GiB (5%)
  T3 V: ^1 q3 ~$ F; }9 RTitle                                    : DTS-HD MA 5.1
) \; z6 {' S+ Q7 i+ d' NLanguage                                 : French8 C2 v  z  D8 I0 I" E. ?
Default                                  : Yes
# b: ~* F; S+ }6 y% B8 V1 ?Forced                                   : No+ n# F) P9 J8 `
Original source medium                   : Blu-ray  v( n  T7 B6 E, ~3 X( {

: i, E# K: @  KAudio #2/ X+ n. b( p6 N0 Y
ID                                       : 3
3 V3 R2 \* U6 M+ P6 gFormat                                   : AC-3, E- d$ S, n5 Z: ~9 Z0 C
Format/Info                              : Audio Coding 3
6 P  S' o0 m! }3 n# iCommercial name                          : Dolby Digital9 @7 z# V& G/ A% k9 H+ B
Codec ID                                 : A_AC3/ T5 u( {( v& P4 c8 V) F, {
Duration                                 : 1 h 43 min
9 }: X- P" K) h# u3 ^1 f. {! GBit rate mode                            : Constant
- v8 Z3 S! @" V: y' bBit rate                                 : 640 kb/s) S, _7 A! D# h1 _# `6 }
Channel(s)                               : 6 channels
7 D. }8 y8 t4 F! g; G' r  h, G) RChannel layout                           : L R C LFE Ls Rs' C9 j6 O" N1 Y, V1 ]7 i' D
Sampling rate                            : 48.0 kHz5 c$ R+ l' w9 G: I
Frame rate                               : 31.250 FPS (1536 SPF)
  Q$ A9 B4 c1 V; g* Q% Y- @Compression mode                         : Lossy5 l9 |4 {$ h3 l7 v  s0 ~2 B! l
Stream size                              : 476 MiB (1%)% `9 \' U8 S+ m: D% X
Title                                    : DD 5.1* ]$ J4 t- G  q# Z4 i
Language                                 : French
8 }: X3 {( l) x) HService kind                             : Complete Main
2 {" P, c1 L- z! |Default                                  : No' ?  ?& n& m( a) u
Forced                                   : No: {% l0 U, u% O# y4 z4 L0 l6 d
: O  e8 R; O2 c2 x. p8 B
Audio #3$ s! R/ y6 i& S2 j( ?
ID                                       : 4
6 h/ I/ R5 S! I% u% w! Y% _ID in the original source medium         : 4353 (0x1101)
# e: r' w# ^2 \Format                                   : DTS0 N; {( _0 G6 t
Format/Info                              : Digital Theater Systems* n" f+ d  n+ `/ s
Codec ID                                 : A_DTS
0 M& C; s+ Q) _/ ?( B9 TDuration                                 : 1 h 43 min3 B. U% o9 c# t( x2 }, r0 b
Bit rate mode                            : Constant
& a& ^- ^' n4 ^' o7 x+ S0 uBit rate                                 : 768 kb/s
+ d" |  z0 X9 X$ bChannel(s)                               : 2 channels
4 @# L  X1 C1 pChannel layout                           : L R9 z! a6 M9 v( ^) |" M8 @( {+ F
Sampling rate                            : 48.0 kHz( Q$ D1 G0 s( U3 W0 e. w
Frame rate                               : 93.750 FPS (512 SPF)
  b2 m) Y3 S- N3 lBit depth                                : 24 bits, D9 I9 {4 }* D
Compression mode                         : Lossy8 e4 e" k3 Q# W. n
Stream size                              : 571 MiB (1%)
) |0 S* [3 o: \, gTitle                                    : DTS 2.0
5 Q8 D% ]2 Z! W  X: q1 O$ J% ?Language                                 : French" a, S% e* a% N  |* p0 B
Default                                  : No, A0 D5 V, _, ]: ^) z
Forced                                   : No& g! x' p0 g9 s0 J: I" L: w6 X7 x
Original source medium                   : Blu-ray
  E$ o4 p( C# V5 v  H- w6 }0 J6 W' S  K+ D
Text #1' N" P+ v$ z7 X5 R
ID                                       : 5
# i; U% V) D6 Q, qFormat                                   : UTF-8/ [. |- a. X5 U; Z- R
Codec ID                                 : S_TEXT/UTF80 h) z) D" X, U$ e" d
Codec ID/Info                            : UTF-8 Plain Text
( X. e, G" l( Z# S- n/ v& CDuration                                 : 1 h 38 min
: H  a  h2 H1 w7 o& q* \" @Bit rate                                 : 47 b/s* E7 p7 x' m+ {! F0 c# P
Count of elements                        : 12649 A! B1 I; I( B6 |2 J
Stream size                              : 34.5 KiB (0%)% B2 _' C2 e# T
Language                                 : English
* N' P+ O1 h* S9 E# u0 o) bDefault                                  : Yes
  D  D4 l6 j2 @6 oForced                                   : No
: Z$ @6 E. {& C8 j% N8 F3 A
# [! m+ g$ j! C4 h  g) X9 ?Text #2
( u! r! o( {' N+ l, ^ID                                       : 6
- H8 \  ^  W: Q. g7 e9 EID in the original source medium         : 4768 (0x12A0)
6 r$ F6 L5 p. c! Z9 @2 hFormat                                   : PGS
5 o$ K* ]+ T; n' V# m" uMuxing mode                              : zlib
  l4 B# q+ j4 l: {" p7 ?Codec ID                                 : S_HDMV/PGS
  p1 E- `: p. {. o7 JCodec ID/Info                            : Picture based subtitle format used on BDs/HD-DVDs" c) U+ R4 r) |- g# p* d
Duration                                 : 1 h 43 min
, w) G/ N: }4 i4 _# @2 Y, Y/ }Bit rate                                 : 33.4 kb/s9 s2 h+ |+ ?; s- h7 U3 g
Count of elements                        : 3026  [, D9 m% G; S' R; M/ h7 {9 {
Stream size                              : 24.8 MiB (0%)
1 g7 w9 v5 M0 s! o+ qLanguage                                 : French
7 }; j' {5 R) d& \$ K0 @Default                                  : No
% Q, H  T6 i) P3 m+ e6 n% j7 u$ b3 rForced                                   : No
) _' c+ n& U4 C4 I& vOriginal source medium                   : Blu-ray6 J" B2 p6 v  l4 \9 v7 V5 Z
0 B. F1 p( _' W& e2 Y6 p- c  L
Menu6 `; ]! o: S- v  ~3 f
00:00:00.000                             : en:Chapter 019 Y! }/ K) Q# I# @1 G
00:09:34.000                             : en:Chapter 024 T7 S! A2 N+ M5 q+ d
00:17:39.750                             : en:Chapter 03: p) t1 g% `( K$ q1 K) V
00:26:43.208                             : en:Chapter 04
7 p1 x- X; u. ]00:34:54.416                             : en:Chapter 05# b- v( P6 O# h1 ?
00:41:57.375                             : en:Chapter 06
1 R3 T3 I4 G$ q& U# W% X6 B00:50:35.875                             : en:Chapter 076 M4 c+ S, P# ]! B. m) r
00:58:42.375                             : en:Chapter 08
  J5 ?+ j# B) s( r- l1 t* L01:09:13.625                             : en:Chapter 09
* q& i" d/ _! B. v. I4 E# v01:16:02.541                             : en:Chapter 10
( @, b% Q3 G" r: M7 T* Q1 N1 J01:26:49.708                             : en:Chapter 11( E0 b% X* M- P3 t1 v  Y* y
01:38:29.000                             : en:Chapter 12

/ R- U2 h. E  D1 `0 m
游客,查看本帖隐藏内容请回复 | 加入VIP贵宾可免积分免回复 了解详情 | 还不是会员:点击获取邀请码 Invitation Code

27

主题

477

帖子

2657

积分

Sponsor

金币
19 枚
体力
1598 点
wyyo 发表于 2021-12-30 08:07:07 | 显示全部楼层
每天都来蓝光论坛看看,我爱蓝光电影。
2 d/ G5 Q  Q$ g2 U- |. @; pYour resources, well, I am very satisfied!) ^& T9 I1 |' V% w3 b8 Q: m

0

主题

512

帖子

2151

积分

Sponsor

金币
226 枚
体力
866 点
QQ
fangfang789 发表于 2021-12-30 14:01:38 | 显示全部楼层
每天都来蓝光论坛看看,我爱蓝光电影。
- z; d( X3 j: a至少是现在,我一天没有访问蓝光电影论坛就不爽!At least now, my day did not visit the Blu-ray Film Forum on unhappy!
4 X" ~5 e4 Y* J" k. p2 e( ~% j/ M

0

主题

512

帖子

2151

积分

Sponsor

金币
226 枚
体力
866 点
QQ
fangfang789 发表于 2021-12-30 17:48:36 | 显示全部楼层
每天都来蓝光论坛看看,我爱蓝光电影。: D- i- F+ B0 o
Thank you for sharing such a good resource polite reply, very sorry for myself!5 U) v! ?. {- I/ E

78

主题

3794

帖子

1万

积分

Sponsor

金币
2086 枚
体力
5502 点
lanpanshuma 发表于 2021-12-30 19:37:21 | 显示全部楼层
这么好的帖子不回对不起自己!
; ~+ k. h, u' l# E6 r' \& o' B# vBlu-ray Film Forum is now my home!
0 f9 m1 ~3 f% |! _) w- Y

0

主题

133

帖子

1217

积分

Sponsor

金币
337 枚
体力
556 点
XN15 发表于 2021-12-31 13:14:24 | 显示全部楼层
[4K极清电影] 北区侦缉队 [4K REMUX无损版]

0

主题

435

帖子

1713

积分

Sponsor

金币
63 枚
体力
773 点
sebarstean 发表于 2022-1-1 16:33:39 | 显示全部楼层
每天都来蓝光论坛看看,我爱蓝光电影。* D6 O" B' A# g: e$ U% i& ]) {/ E$ K
After reading the posts have nothing to do I Amoy posts!, a0 t8 y. {) Y5 _. l- b

0

主题

512

帖子

2151

积分

Sponsor

金币
226 枚
体力
866 点
QQ
fangfang789 发表于 2022-1-2 23:18:07 | 显示全部楼层
每天都来蓝光论坛看看,我爱蓝光电影。. k" N& F, p( F. [
Your resources, well, I am very satisfied!
- [: {2 `+ Z2 ^# |) B2 A: M

0

主题

512

帖子

2151

积分

Sponsor

金币
226 枚
体力
866 点
QQ
fangfang789 发表于 2022-1-2 23:19:38 | 显示全部楼层
啥也不说了,楼主就是给力!
& F9 n$ P  f2 r) D7 {, aThe decisive Replies sink is I get the sinking feeling great sense of accomplishment!$ O% i. e) W  A, n0 Q6 D0 d

本版积分规则

小黑屋|Archiver|蓝光电影资源网

GMT+8, 2022-1-18 14:57

Copyright © 2001-2022, Tencent Cloud.

快速回复 返回顶部 返回列表