BluRayCD Forum

 找回密码
 立即注册【分享大片】
查看: 6|回复: 0
收起左侧

[动作战争] 以暴制暴/暴力枪神/雷 Run and Gun 2022 1080p AMZN WEBRip DDP5.1 x264-CM 6.70GB

[复制链接]

8326

主题

8705

帖子

8万

积分

Post Share

金币
19129 枚
体力
16746 点

卓越贡献勋章

mvods 发表于 3 天前 | 显示全部楼层 |阅读模式

8 X3 f" R6 N$ R( X3 {" q
1 x1 M  {: R, u1 o◎译  名 以暴制暴/暴力枪神/雷, `6 n0 h6 x' [8 s5 f
◎片  名 run & gun5 g3 t" v) r1 K7 @& [8 E5 w$ T, q
◎年  代 2022
1 H- `$ f) Z+ I' \6 t; y' C◎产  地 美国9 g1 g9 ~  o% Z. D
◎类  别 动作/惊悚6 r) @6 i5 f4 B/ @5 K2 o$ w
◎语  言 英语
5 r! Y  K$ ?  O! q◎上映日期 2022-01-11(美国)
, a& S& @$ f9 Z& g. y◎IMDb评分  0/10 from 0 users) g! g% C. s( J& p  @2 l' c6 l
◎IMDb链接  https://www.imdb.com/title/tt14039086/
5 c  g9 t) ~$ @% `# d3 Z0 X◎豆瓣评分 0/10 from 0 users- A5 Z9 `) @+ D$ x  D
◎豆瓣链接 https://movie.douban.com/subject/35688979/
8 C3 r" e' k$ D2 b/ }" L% x◎片  长 1 h 35 min* e2 K3 L/ g" T9 V- p: U) @) [5 M0 E
◎导  演 克里斯托弗·博雷利 Christopher Borrelli
8 ^  n, z, v' y1 H◎编  剧 克里斯托弗·博雷利 Christopher Borrelli
, ^- f  Q5 Z# [+ w) A* U◎主  演 安吉拉·萨拉弗安 Angela Sarafyan6 s1 Z. _' p# z# K( |
       理查德·坎德 Richard Kind! i; O6 ^" v7 d8 d# Z; }
       贾娜尔·帕里希 Janel Parrish
9 Y; r- Z. L9 z" G# h       马克·达卡斯考斯 Mark Dacascos
9 @% {: ~. t& N; ]' A  l/ z) t       布拉德·威廉姆·亨克 Brad William Henke* C* f' t: Z* m3 ]/ y: g
       艾莉森·桑顿 Alison Thornton1 J. w! y0 r+ x% j
       杨升德 Hudson Yang
% ]: K5 T# e  X, U% M       拉斐尔·塞布里恩 Rafael Cebrián1 b2 B. |) O8 o& q
       Michelle Jubilee Gonzalez
1 c/ L5 Q/ B  d! B7 v
" w0 d$ I2 [2 x4 |# R* ]' I- v◎简  介 + t. K/ Z. j' Z9 l

5 S  l+ D. c; u9 N  在离开了犯罪和暴力的生活后,雷改过自新,在郊区享受着平静的家庭生活。但当他的过去被发现后,雷被胁迫犯罪,最终发现陷入阴谋同时自己也受了伤,他所爱的人更是生命危在旦夕,雷不得已只能以暴制暴。' i5 E4 y' t( V4 N  {7 O, i

  `  P, m( g7 v5 V4 v  After leaving a life of crime and violence, Ray is a reformed good guy, enjoying a quiet family life in the 'burbs. But when his past is discovered, Ray is blackmailed into one last job to collect a mysterious package. After a deadly double-cross, he finds himself wounded and on the run from ruthless assassins who will stop at nothing to get what he has. Now, with the lives of his loved ones hanging in the balance and danger at every turn, Ray's only hope is to draw upon his violent past to survive.0 C6 F* a1 i" C# U. {1 U: p
Video
, u6 ^( g1 _4 D6 V  EID : 1, ~' r" g+ u: p+ _% ?8 W
Format : AVC6 _! n5 p7 n7 Q1 p3 A, X
Format/Info : Advanced Video Codec
; K* \3 q  `% K" D+ zFormat profile : High@L4.1" q: V" h# F9 R2 T5 F( `
Format settings : CABAC / 4 Ref Frames
6 R# c# V. A# \Format settings, CABAC : Yes. V  j* f+ I+ a
Format settings, Reference frames : 4 frames; c; i* }8 S; S
Codec ID : avc19 T4 N" Y5 _/ H  ?6 [+ U
Codec ID/Info : Advanced Video Coding" b6 k3 U# p4 v# f
Duration : 1 h 35 min; z8 y) ?" N! l6 k
Bit rate : 2 500 kb/s7 u' y" J: e- Y
Width : 1 920 pixels
  S9 y- a: F* E* O4 f$ dHeight : 800 pixels
; p- a$ ]4 O& d( w9 F9 H# J: {Display aspect ratio : 2.40:1, E$ I  c( n+ E+ D* b* T
Frame rate mode : Constant. P: r% l9 i3 Q1 {7 C
Frame rate : 23.976 (23976/1000/189150) FPS
3 J; H# Y) `. P. H" o1 ZColor space : YUV
$ I5 d$ h% t2 s7 z4 ?Chroma subsampling : 4:2:02 Y% d1 C/ a" }3 s
Bit depth : 8 bits8 r/ x9 r& M% ~' X+ }) ?/ j
Scan type : Progressive
- x' d- ?: Y: v" CBits/(Pixel*Frame) : 0.0681 d/ Y# m2 U. T- P( |& ~8 n
Stream size : 1.67 GiB (92%)8 g& c( f# x) Z! |, _. ^
Writing library : x264 core 152 r2851M ba24899
0 Z. p, @, `; j! @/ ^* y# iEncoding settings : cabac=1 / ref=4 / deblock=1:-1:-1 / analyse=0x3:0x113 / me=umh / subme=9 / psy=1 / psy_rd=1.00:0.15 / mixed_ref=1 / me_range=24 / chroma_me=1 / trellis=2 / 8x8dct=1 / cqm=0 / deadzone=21,11 / fast_pskip=1 / chroma_qp_offset=-3 / threads=16 / lookahead_threads=4 / sliced_threads=0 / nr=0 / decimate=1 / interlaced=0 / bluray_compat=0 / constrained_intra=0 / bframes=3 / b_pyramid=2 / b_adapt=2 / b_bias=0 / direct=3 / weightb=1 / open_gop=0 / weightp=2 / keyint=250 / keyint_min=25 / scenecut=40 / intra_refresh=0 / rc_lookahead=50 / rc=2pass / mbtree=1 / bitrate=2500 / ratetol=1.0 / qcomp=0.60 / qpmin=0 / qpmax=69 / qpstep=4 / cplxblur=20.0 / qblur=0.5 / vbv_maxrate=31250 / vbv_bufsize=31250 / nal_hrd=none / filler=0 / ip_ratio=1.40 / aq=3:1.00
% _" B  |2 o- L! K4 V) vEncoded date : UTC 2022-01-11 10:59:56* E# M0 q( K' k! _; @* j
Tagged date : UTC 2022-01-11 10:59:56
5 q' X3 v6 u8 lCodec configuration box : avcC
& W8 o( L! G( u6 k
0 F9 F; C8 F! F- G: s9 d# rAudio  W! z9 h: N( d7 O" I6 x
ID : 2
1 R9 I+ Q% Q1 h! V( U8 E' aFormat : AAC LC- m- ^' F3 T/ Q3 l4 V$ i6 r# }
Format/Info : Advanced Audio Codec Low Complexity5 {$ \; D3 L3 Y* d
Codec ID : mp4a-40-2- g2 g$ {. p: |, N( W
Duration : 1 h 35 min
* {3 c6 u  a" c5 SBit rate mode : Constant0 n5 {, o5 `& Z1 A' z( D1 R9 l
Bit rate : 224 kb/s
% x' H& @! \: T* J8 AChannel(s) : 6 channels
+ n/ V" z- v4 Q) w6 W* FChannel layout : C L R Ls Rs LFE3 W' \- U/ L- N3 D( ?
Sampling rate : 48.0 kHz
, T( V& x) i0 }+ D# Q4 W8 NFrame rate : 46.875 FPS (1024 SPF)
" W9 U: W: s* A/ g. xCompression mode : Lossy
* b! N8 x0 Z0 [, \1 ^6 MStream size : 153 MiB (8%)- d9 ?" d" b. a: J" a) t# {
Language : English6 f  ?% A: a# p& d. J% w
Default : Yes
7 i8 s1 \% V& @0 VAlternate group : 1+ F6 j9 f- a  i4 \2 c- U" g1 `! S
Encoded date : UTC 2022-01-11 10:59:56. ^) m$ k' S. A; x: K
Tagged date : UTC 2022-01-11 10:59:56

, g* q0 u1 W  C  C7 B+ G
游客,查看本帖隐藏内容请回复 | 加入VIP贵宾可免积分免回复 了解详情 | 还不是会员:点击获取邀请码 Invitation Code

本版积分规则

小黑屋|Archiver|蓝光电影资源网

GMT+8, 2022-1-18 14:50

Copyright © 2001-2022, Tencent Cloud.

快速回复 返回顶部 返回列表