BluRayCD Forum

 找回密码
 立即注册【分享大片】
查看: 2|回复: 0
收起左侧

[喜剧爱情] 鬼阿姨之爱莉与艾比/鬼教母之爱莉与艾比 Ellie and Abbie and Ellies Dead Aunt 2020 1080p AMZN WEBRip DDP5.1 x264-TEPES 4.16GB

[复制链接]

8326

主题

8705

帖子

8万

积分

Post Share

金币
19129 枚
体力
16746 点

卓越贡献勋章

mvods 发表于 3 天前 | 显示全部楼层 |阅读模式
6 R# F1 A, G7 p
7 _" i& m; C* ]: w8 M
◎译  名 鬼阿姨之爱莉与艾比/鬼教母之爱莉与艾比& i/ q. M" j% ], y; d* |7 i! I
◎片  名 Ellie & Abbie (& Ellie's Dead Aunt)
! d! B9 p% W6 r◎年  代 2020. k- n" \; e3 i  {- t
◎产  地 澳大利亚- P2 `* r; j, ]& ]
◎类  别 喜剧
4 F7 k3 H3 B, w# ]3 ^+ F◎语  言 英语
/ R5 H$ S) q7 W6 U7 n/ I5 l◎上映日期 2020-08-07(新西兰电影节)/2020-10-21(澳大利亚)- k" O+ ]  X3 `
◎IMDb评分  5.8/10 from 459 users3 c7 Y% z: U, C: t/ s* _
◎IMDb链接  https://www.imdb.com/title/tt10353866/; E' a/ h( u9 v7 s" w) o2 _- F
◎豆瓣评分 6.8/10 from 102 users7 x: f& y$ i7 `& T$ Q2 q
◎豆瓣链接 https://movie.douban.com/subject/34976949// P3 V; P+ T1 `- @
◎片  长 1 h 22 min! Z( G+ V4 f4 N7 h% X5 g6 h7 b) ^  F
◎导  演 莫妮卡·萨内蒂 Monica Zanetti
/ z/ i* L! F0 g" v' \# L◎编  剧 莫妮卡·萨内蒂 Monica Zanetti6 ~! E( }1 U! {1 R. N' Z
◎主  演 茱莉亚·比林顿 Julia Billington$ v! Z3 [5 l# A
       ‎玛尔塔·杜塞尔多普‎ Marta Dusseldorp
1 u' ]9 Y8 ]0 q  C2 u# ^       瑞切尔·豪斯 Rachel House% m" f, M( O9 r- F
       ‎Melanie Bowers- o/ ]9 w7 P( `7 H% `9 j
       ‎Bridie Connell, b0 T$ n* Q& ~/ N9 O
       ‎Chiara Gizzi
9 @% e7 a$ y9 a) u0 Y, q       ‎Sophie Hawkshaw
$ D; P7 S2 J! }
; x; l$ f5 ]- Z0 m◎标  签 LGBT | 澳大利亚 | 喜剧 | 姬 | 2020 | 灵异 | 澳大利亚电影 | Comedy
9 m- B5 N. o& x0 c" Z1 ?, Q) `6 x, c. x, A" W$ p' P5 K) M
◎简  介   8 v8 ?4 G- s4 O% P+ O
7 k6 B/ |6 R# j8 B% \) X
  天灵灵地灵灵 求上天助我能跟喜欢的妹纸成功搭上话- A3 F6 Q0 Z+ e. O6 c( j; r" N! o
  别怕!姬佬们的守护天使 仙女教母降临~教你如何追到心爱的妹纸~~) n! n. n0 n0 f1 R: I/ w, E
  鬼阿姨(教母)之爱莉与艾比~一部承载着满满正能量又不乏喜剧笑点的he团员片~值得你在临近的小长假末尾观看,嘻嘻哈哈放松心情~
+ }( M+ [( n5 {* D0 J$ [# Y
2 _$ y- d2 R9 `% L: d; b  17 year old Ellie is struggling to find the courage to ask her classmate, Abbie, to the formal. Luckily her Aunt Tara, a lesbian who died in the 80's has shown up as a "Fairy Godmother" to dish out advice, whether Ellie wants it or not.
; R$ L) C& N4 H3 [% q3 u# A$ o
Video7 b; Q' p1 L3 a) s
ID                                       : 1" _. `% w. O/ t
Format                                   : AVC4 Y1 t: {( G$ v. L+ @
Format/Info                              : Advanced Video Codec' l6 m6 K2 G: D% _8 b
Format profile                           : [email protected]
* x. B+ s  e2 e8 t, v5 EFormat settings                          : CABAC / 4 Ref Frames
0 A- b& x% g/ y6 o9 Q) BFormat settings, CABAC                   : Yes7 u6 F. z; C$ J8 p* A
Format settings, Reference frames        : 4 frames: j, D, e6 ]. F5 p0 c' D  j( g& \* K
Codec ID                                 : avc1
7 E$ }; S" l3 {" _Codec ID/Info                            : Advanced Video Coding2 G+ ^6 p: _9 e2 d! c6 P$ S/ r
Duration                                 : 1 h 22 min
4 l% K8 E0 _8 kBit rate                                 : 2 500 kb/s$ D/ x. d- T' K( N
Width                                    : 1 920 pixels
0 b# O* b& D9 A' EHeight                                   : 804 pixels
2 g# r. M) H. F4 SDisplay aspect ratio                     : 2.40:1
3 y3 N% I+ _5 v! ^' S9 h- k: uFrame rate mode                          : Constant
* U2 y2 w) Q9 V( P, V5 ^1 [( wFrame rate                               : 23.976 (23976/1000/189150) FPS
5 Q( q  J# B) I" LColor space                              : YUV
2 q' w- ^* e1 qChroma subsampling                       : 4:2:0
9 B6 [5 r( V: k; G2 |1 I) B0 {$ N) YBit depth                                : 8 bits& a, Z; j( Q' @" U
Scan type                                : Progressive, X4 p9 G7 G  _2 w( i
Bits/(Pixel*Frame)                       : 0.068
, U+ v9 j$ c) u: y- X) a: fStream size                              : 1.44 GiB (92%)
: D# h+ F! W6 QWriting library                          : x264 core 152 r2851M ba24899
9 R7 p; X; D( p2 C" D- JEncoding settings                        : cabac=1 / ref=4 / deblock=1:-1:-1 / analyse=0x3:0x113 / me=umh / subme=9 / psy=1 / psy_rd=1.00:0.15 / mixed_ref=1 / me_range=24 / chroma_me=1 / trellis=2 / 8x8dct=1 / cqm=0 / deadzone=21,11 / fast_pskip=1 / chroma_qp_offset=-3 / threads=16 / lookahead_threads=4 / sliced_threads=0 / nr=0 / decimate=1 / interlaced=0 / bluray_compat=0 / constrained_intra=0 / bframes=3 / b_pyramid=2 / b_adapt=2 / b_bias=0 / direct=3 / weightb=1 / open_gop=0 / weightp=2 / keyint=250 / keyint_min=25 / scenecut=40 / intra_refresh=0 / rc_lookahead=50 / rc=2pass / mbtree=1 / bitrate=2500 / ratetol=1.0 / qcomp=0.60 / qpmin=0 / qpmax=69 / qpstep=4 / cplxblur=20.0 / qblur=0.5 / vbv_maxrate=31250 / vbv_bufsize=31250 / nal_hrd=none / filler=0 / ip_ratio=1.40 / aq=3:1.000 S. \( O  V" e: W- w7 A9 U* V* S6 i
Encoded date                             : UTC 2022-01-11 15:47:34
: }1 x, L1 \* b  |( D2 {Tagged date                              : UTC 2022-01-11 15:47:346 H7 l( U7 k1 E5 s  W
Codec configuration box                  : avcC
5 f! c# h" o7 D+ }" o
" z- l' t5 @/ N% l1 w7 R( LAudio
8 c4 f- y$ j& C$ \( wID                                       : 2
& g( T* A% ^4 {: J& P% a3 dFormat                                   : AAC LC
7 [& Q! u8 g4 A" kFormat/Info                              : Advanced Audio Codec Low Complexity; x7 m  P8 _1 n1 C& Q0 f
Codec ID                                 : mp4a-40-2
: m8 I" N0 @. w. e6 z7 LDuration                                 : 1 h 22 min* ~7 Q" @4 E0 T3 V) o$ X
Bit rate mode                            : Constant
8 u8 \$ k1 }: ?2 G* BBit rate                                 : 224 kb/s# Z& z7 K  V  c4 n+ H. `
Channel(s)                               : 6 channels
( u) P; f6 s( w4 e5 O3 k4 `Channel layout                           : C L R Ls Rs LFE0 Y& M( E' A" t1 \2 k
Sampling rate                            : 48.0 kHz0 o8 r0 s7 N5 y) z
Frame rate                               : 46.875 FPS (1024 SPF)* M) L1 _8 F1 O* H6 y4 }
Compression mode                         : Lossy
4 i2 e+ L2 _. M; X, Q# |+ zStream size                              : 132 MiB (8%)$ e0 ^7 v/ ^4 o! Z6 z) g3 R
Language                                 : English
8 @6 b  r( \+ _% u/ b7 \' p/ dDefault                                  : Yes
( R& o* e! w8 C- W; [7 G/ H+ sAlternate group                          : 1
, n) ?9 O: p# x4 c5 OEncoded date                             : UTC 2022-01-11 15:47:34
9 s- Y5 z4 s2 y' H; S% I0 \/ y! x4 _Tagged date                              : UTC 2022-01-11 15:47:34
1 a; d& Q; m+ j4 |  U# I
游客,查看本帖隐藏内容请回复 | 加入VIP贵宾可免积分免回复 了解详情 | 还不是会员:点击获取邀请码 Invitation Code

本版积分规则

小黑屋|Archiver|蓝光电影资源网

GMT+8, 2022-1-18 14:53

Copyright © 2001-2022, Tencent Cloud.

快速回复 返回顶部 返回列表