BluRayCD Forum

 找回密码
 立即注册【分享大片】
查看: 23|回复: 0
收起左侧

[动漫动画] 格仔忍者1 Ternet Ninja 2018 DUBBED 1080p BluRaycd x264-PussyFoot 4.54GB

[复制链接]

1万

主题

1万

帖子

12万

积分

Post Share

金币
24000 枚
体力
24786 点

卓越贡献勋章

mvods 发表于 2022-3-20 15:55:49 | 显示全部楼层 |阅读模式
( C! x$ _% q0 e

& ]. v$ K+ q' e/ B/ C, R; @◎译  名 格仔忍者! S& E* [6 o* D: _3 ^
◎片  名 Ternet Ninja / Checkered Ninja
) j6 J4 Q" C4 E4 S% a◎年  代 20189 s3 p* _: Z+ v
◎产  地 丹麦4 l* @3 c1 A1 u5 N; \
◎类  别 动画/喜剧/家庭/奇幻9 s. P: M3 ]4 a9 W% A
◎语  言 丹麦语7 Y5 k( \/ o  o, d
◎上映日期 2018-12-25(丹麦)& q1 `9 o9 Y2 W8 @
◎IMDb评分  7.2/10 from 5,067 users
* a. }* w8 i# S$ F$ ^, o; y◎IMDb链接  https://www.imdb.com/title/tt7367960/
  u  S! v$ c; ~0 U, [" `: J◎豆瓣评分 0/10 from 0 users" Z3 ]6 I7 Y. V5 j; L; Q0 c8 b
◎豆瓣链接 https://movie.douban.com/subject/30349379/! c8 k' P5 g* \% T1 M* I8 P9 w# e
◎片  长 1 h 21 min" x. H& _% n. P, b  R7 _% }, f4 A
◎导  演 安德斯·麦特森 Anders Matthesen
# H3 @. @' v/ t$ \: F       索布约恩·克里斯托弗森 Thorbjørn Christoffersen
; V2 W7 t# m5 @! {; x◎编  剧 安德斯·麦特森 Anders Matthesen" X8 R) r% u* e" M9 U
◎主  演 安德斯·麦特森 Anders Matthesen
6 ~' ]. l, M7 h% T' A( X       法昆多·雷耶斯 Facundo Reyes4 m" Z& V' g2 f  f- Y" Y. o4 [
       艾玛·塞赫斯特·赫格 Emma Sehested Høeg
- x3 ~% |1 p6 z3 [/ E' G$ m       阿尔弗雷德·比耶尔·拉森 Alfred Bjerre Larsen
& Y, e! g4 m6 v) W0 }       艾娃·康诺利 Ava Connolly
% b1 s( |2 _& E7 Y       艾米特·瑞恩 Emmet Ryan
& c' r9 z  x0 Y- s# G- H$ @) ^
' N2 Y7 ]/ D" u7 q9 P◎标  签 动画电影 | 动画 | 丹麦 | 长篇 | アニメ | Annecy2019 | 2018 | 外语电影
# ?+ G8 R2 g  U' Z
; i" K0 \. w0 k, u◎简  介   2 T* O7 O& N; T; ^7 j

4 {$ N: D; ]% A  h$ i$ E  r2 e  一个被附身的忍者玩偶与一个十几岁的男孩联手为一名贫穷的工厂工人的谋杀案报仇。
$ f% `( h$ ~# C' f; U  A possessed Ninja doll teams up with a teenage boy to avenge the murder of a poor child factory worker.
5 U) u! f& g) C6 ~% q  {
& R+ l, l! c! Z$ F7 ?8 Y0 p) y4 t9 R4 M◎获奖情况   - k2 {$ {( v) h' {- Q
4 I7 a8 Q4 e9 d( W
  第29届安锡国际动画节 (2019)
0 V/ y4 {/ b# U6 ^  长篇动画单元长片水晶奖(提名) 安德斯·麦特森/索布约恩·克里斯托弗森
) W9 d+ Y7 [% j; a1 l( ^5 P7 E
Video  i( k$ Y0 ?( g. Y0 W- N7 d# j
ID                                       : 15 R" a. y* ]  z: q& e1 K$ J
Format                                   : AVC" e3 L  S- Y0 [9 I; h
Format/Info                              : Advanced Video Codec
. y. \6 s: l$ g% L6 j) gFormat profile                           : [email protected]# g3 E+ Z4 s3 C0 }5 Y$ ]9 r) j
Format settings                          : CABAC / 4 Ref Frames
. `% R/ B8 @. G' f# B9 I+ _& TFormat settings, CABAC                   : Yes" D5 I8 g- P0 J/ Y
Format settings, Reference frames        : 4 frames) e% F* m1 Q- a. D# G) n
Codec ID                                 : V_MPEG4/ISO/AVC2 T" j& V& [0 {( B  H9 m
Duration                                 : 1 h 21 min( K9 ?4 C8 |- o/ [$ O1 V
Bit rate                                 : 6 056 kb/s
' e& e4 U& s  z( HWidth                                    : 1 920 pixels
" W7 r) q( }1 |$ {Height                                   : 1 036 pixels" S8 N; ?$ \2 e
Display aspect ratio                     : 1.85:1
' d' I! |4 n4 f0 u: VFrame rate mode                          : Constant
2 h1 j" _. a1 F' k7 B  kFrame rate                               : 23.976 (24000/1001/189150) FPS  e! w! y' `* q; }  I( C
Color space                              : YUV9 {7 h+ O8 b) K6 O! q8 n% q0 [
Chroma subsampling                       : 4:2:0) C( H: R1 t, J# p& T& [2 a/ |5 H
Bit depth                                : 8 bits2 q5 ]- l! G3 i0 H9 w* N# W& m6 Q
Scan type                                : Progressive- @6 a4 l/ C# k& p1 E/ P' ]- m
Bits/(Pixel*Frame)                       : 0.127; d6 }' c5 S/ l  F: R
Stream size                              : 3.43 GiB (75%)
- r9 ]0 b% O7 b6 pWriting library                          : x264 core 163 r3059 b684ebe
) k0 a7 N, h8 r1 D- q: WEncoding settings                        : cabac=1 / ref=4 / deblock=1:-3:-3 / analyse=0x3:0x133 / me=umh / subme=9 / psy=1 / psy_rd=1.00:0.00 / mixed_ref=1 / me_range=16 / chroma_me=1 / trellis=2 / 8x8dct=1 / cqm=0 / deadzone=21,11 / fast_pskip=0 / chroma_qp_offset=-2 / threads=32 / lookahead_threads=2 / sliced_threads=0 / nr=0 / decimate=1 / interlaced=0 / bluray_compat=0 / constrained_intra=0 / bframes=3 / b_pyramid=2 / b_adapt=2 / b_bias=0 / direct=3 / weightb=1 / open_gop=0 / weightp=2 / keyint=250 / keyint_min=23 / scenecut=40 / intra_refresh=0 / rc_lookahead=60 / rc=crf / mbtree=1 / crf=17.0 / qcomp=0.60 / qpmin=0 / qpmax=69 / qpstep=4 / ip_ratio=1.40 / aq=1:1.00
3 e: c7 n2 v& x) fLanguage                                 : English# ^( [" [. V: w) q
Default                                  : Yes
% c7 I, N$ E0 z7 i; R, Y) UForced                                   : No
" N1 G( T9 N/ G9 Q6 `1 D3 |9 b) F& \  C' ?, K1 y& O
Audio
9 J) Z5 U7 a3 ^# z$ B5 `7 _  `ID                                       : 2
$ n+ A- D. t- E/ yFormat                                   : DTS XLL7 @; w! E1 y: Q! J) f: f8 O" G, h
Format/Info                              : Digital Theater Systems
0 n" ?4 ]2 x+ R2 x2 ~" V# ZCommercial name                          : DTS-HD Master Audio
: _- k" O9 e, d: k$ I0 ?Codec ID                                 : A_DTS5 ~; P# |* ]* ~$ Y
Duration                                 : 1 h 21 min; E4 M# R3 K- S% K2 ?
Bit rate mode                            : Variable
1 t2 a3 E, m4 u9 q* }Bit rate                                 : 1 924 kb/s$ R3 C- j0 m! x$ I9 @9 ^
Channel(s)                               : 6 channels
% G. n+ g" B% M  q/ EChannel layout                           : C L R Ls Rs LFE9 X! S5 D% }0 J5 |$ C( w4 ]
Sampling rate                            : 48.0 kHz
( K8 Q  `% L  bFrame rate                               : 93.750 FPS (512 SPF)+ i5 h0 ^( Q: |) [9 f7 H5 b) H
Bit depth                                : 16 bits; s3 x! S0 ]4 h7 S1 o' n) L
Compression mode                         : Lossless- o+ O6 d( f' c/ s
Stream size                              : 1.09 GiB (24%)
- y8 I% V/ V2 W9 c) i1 \  FLanguage                                 : English9 m# S+ V7 w# T3 S4 d3 d! P
Default                                  : Yes
$ [- v+ e( J: D9 h1 B6 a& \Forced                                   : No# N6 m9 n; f, v
: S5 a. ^6 N4 Q1 [8 w& s' n
Text #1, V& v' Y: i4 [: \
ID                                       : 3
0 V& N, S; E% h# S+ BFormat                                   : PGS
( M0 B* J) Y( O8 r5 W; X( ]Muxing mode                              : zlib
8 r; ^: T% @$ Z5 P, L4 _1 u5 R/ L, j# GCodec ID                                 : S_HDMV/PGS9 `8 p: Z9 X' c% ?3 Z+ b
Codec ID/Info                            : Picture based subtitle format used on BDs/HD-DVDs
  z# i/ L4 n+ C9 HDuration                                 : 1 h 19 min
. V' ~0 w$ r4 k; [, tBit rate                                 : 49.1 kb/s, P, s9 n3 \, X5 o% O
Count of elements                        : 20901 l9 y  f6 _. E4 Q" W9 x
Stream size                              : 27.8 MiB (1%)* k# V3 Z4 S3 S: ?
Language                                 : German
- z% H3 v" s9 F2 ~Default                                  : No, L# k9 _# w5 ?, U
Forced                                   : No1 b% W4 \5 M& e$ ]% @

3 n2 i0 V6 T) @Text #2& G1 h. [; V9 M# Y
ID                                       : 4
" m/ Y0 O0 C, y1 ^3 W3 W/ VFormat                                   : PGS
# ]  h/ w1 Q" l" k) U" c8 NMuxing mode                              : zlib5 J- m9 a; n& d0 [& F& V5 K
Codec ID                                 : S_HDMV/PGS8 A0 v7 A8 n4 I0 p
Codec ID/Info                            : Picture based subtitle format used on BDs/HD-DVDs, t- i( t$ F" D$ R+ C7 S8 g
Duration                                 : 1 h 20 min5 J' F+ r5 f5 y: I: h; I
Bit rate                                 : 34.9 kb/s
& _5 y/ _; U& j0 a% |. B) ?/ cCount of elements                        : 20189 N1 L! b! [; V# G; X
Stream size                              : 20.1 MiB (0%)& T8 Z5 F4 D* C1 `% O" h5 V
Language                                 : Polish1 c# Y* p7 v; b- R
Default                                  : No. ~# f3 s/ W& J6 H1 t
Forced                                   : No' j2 ~3 i$ e0 R# C) g: F
- D. W/ P. n/ L8 b; X- C4 [  Z
Text #3# h) o3 b! ^2 u
ID                                       : 5
* Z- T) X2 e5 i2 A' cFormat                                   : PGS' M) o6 n* g" [' \1 G
Muxing mode                              : zlib9 L& D7 T- a2 O: \0 ?
Codec ID                                 : S_HDMV/PGS
* `0 s2 r: N, sCodec ID/Info                            : Picture based subtitle format used on BDs/HD-DVDs
6 Y5 U5 Y/ ~) O! f( E" eDuration                                 : 1 h 2 min# @- y9 L2 |$ a& Z
Bit rate                                 : 2 728 b/s7 d* G! j7 d8 i4 _0 N( G1 K
Count of elements                        : 949 U% e- r" ~* S! B6 ~. b
Stream size                              : 1.22 MiB (0%)0 b0 o" ?0 T& W5 x& ^4 k0 L# Z+ t& ?
Language                                 : German
$ m) M1 S8 `* `) z$ J8 W/ q2 JDefault                                  : No
2 W8 L3 v6 i, W# T8 X. z" pForced                                   : No
5 R# K& m% v/ W- C; H' ?& H7 F+ }; V  d" S: a$ z. p+ |1 F
Text #4
' M6 A/ `4 Y+ N, u5 T- EID                                       : 64 z  r3 p) g; ?  k6 C
Format                                   : PGS, Q; s6 i$ I0 u% H2 k
Muxing mode                              : zlib% z  t+ d4 C4 y8 I8 m; x4 {/ C
Codec ID                                 : S_HDMV/PGS. v% |* `1 |( X$ ]5 _
Codec ID/Info                            : Picture based subtitle format used on BDs/HD-DVDs
& m  h0 w+ Y6 o/ n% T& `- O8 JDuration                                 : 1 h 20 min. ^4 {3 q3 M' I# ?( ]0 g
Bit rate                                 : 3 142 b/s
4 e4 ?& F& z- y  _) @Count of elements                        : 148
  y" Q7 |1 \& q- v2 uStream size                              : 1.81 MiB (0%)
+ k+ f$ @7 N6 b* t2 iLanguage                                 : Polish8 D6 n+ }% k; ~% D/ e) Y) n
Default                                  : No
! K1 }8 R3 W) Q- C& nForced                                   : No% _2 E9 N. ^, }, O! R
4 r/ {! ]3 G4 x8 {* j: u  n
Menu% p6 D& @; u4 w9 s
00:00:00.000                             : en:Chapter 01$ s9 h: f) T/ P% _/ E4 v4 ~& i3 n
00:06:26.011                             : en:Chapter 02
: N- ]1 R1 u: Z00:12:54.941                             : en:Chapter 03
, L+ a$ E) J# l7 ~+ N6 y/ C00:19:26.916                             : en:Chapter 04! s' u8 D# j- L1 `. l) e
00:26:28.378                             : en:Chapter 051 H# p! ]6 P' }8 I) V' e  I
00:32:40.625                             : en:Chapter 060 i) t" y  S) B- w
00:39:35.790                             : en:Chapter 079 j2 g- J1 V8 k/ b
00:47:36.062                             : en:Chapter 08! I  P; C9 d4 w. v! H
00:55:08.013                             : en:Chapter 09
8 Z" p( M; Q' S. J' g# U/ C01:01:37.360                             : en:Chapter 10$ j9 R+ h7 P$ Q& ]% H
01:07:39.889                             : en:Chapter 111 p+ S) c. R4 _/ B
01:14:17.453                             : en:Chapter 12, |) b+ p) `: T

! p" k* s3 }9 G2 ]. ]5 @Ternet.Ninja.2018.DUBBED.1080p.BluRayCD.x264-PussyFoot 4.54 GB
" Z% w% q/ I# B6 |7 u1 g& ]  m
5 B* Z5 ^% a8 }# r' sRelease Date.....: 06/2021
% h& H4 @5 U0 P  d% g. USource...........: BluRay
) E8 \4 N7 W$ J6 h3 M3 jVideo............: 6065 kbbs
0 [0 A  X* z# Q- \; ?Source...........: 27,6 Mbs/ m3 R8 z5 u" f  Y: _5 e. ?
Audio............: dts-hd2 E; h/ b7 X/ o% [
Resolution.......: 1920x1036
' T8 @6 O: d( c3 N: oSubs.............: -
7 k. t" Z- v5 L2 @6 BRuntime..........: 81 Min+ q. D1 F) h  N- o. }$ S4 c
link.............: https://www.imdb.com/title/tt7367960/
1 F7 l- t# `4 R- W3 K
游客,查看本帖隐藏内容请回复 | 加入VIP可免积分免回复 了解详情 | 还不是会员:点击获取邀请码 Invitation Code

本版积分规则

小黑屋|Archiver|蓝光电影资源网

GMT+8, 2022-8-15 05:02

Copyright © Tencent Cloud.

快速回复 返回顶部 返回列表