BluRayCD Forum

 找回密码
 立即注册【分享大片】
查看: 15|回复: 1
收起左侧

[动漫动画] 一路顺风,查理布朗/史诺比留学记/史努比漫遊世界 Bon Voyage Charlie Brown 1980 1080p BluRaycd x264 DTS-FGT 6.91GB

[复制链接]

1万

主题

1万

帖子

12万

积分

Post Share

金币
24000 枚
体力
24786 点

卓越贡献勋章

mvods 发表于 2022-4-2 01:17:30 | 显示全部楼层 |阅读模式

0 e7 A+ v7 D' l& N( l% x4 t( F) g- h# f- Q  u( J
◎译  名 一路顺风,查理布朗/史诺比留学记/史努比漫遊世界(台)
) n: T6 }6 W  k3 |◎片  名 Bon Voyage, Charlie Brown (and Don't Come Back!)
3 B  n" A2 Z' r" u# ]0 ^/ e5 m/ _◎年  代 1980
5 U! i6 x" ]/ ]; h" W2 |$ N◎产  地 美国
* E7 N6 v  t3 v9 r6 z# G( E◎类  别 喜剧/动画/家庭
6 z9 d8 q+ E3 P0 k◎语  言 英语$ a1 X; f; v$ Z8 J  ~' s5 Q$ ~
◎上映日期 1980-05-307 g6 E: @) `8 I1 n5 e6 d
◎IMDb评分  7.2/10 from 3,174 users
" p3 h' ^  [. T6 W6 I) E◎IMDb链接  https://www.imdb.com/title/tt0080461/. U% H8 p, u0 R7 ~) r
◎豆瓣评分 8.6/10 from 2,259 users; f9 g0 u9 H  G" d5 A& m  d
◎豆瓣链接 https://movie.douban.com/subject/1296181/
; _7 y% C6 J7 a6 C◎片  长 1 h 15 min
( q/ d$ P% M& _2 p◎导  演 比尔·莫伦茨 Bill Melendez
7 ^+ ~6 v) y" K$ y0 m◎编  剧 查尔斯·M·舒尔茨 Charles M. Schulz
( c: t7 T# A/ E+ w8 y◎演  员 比尔·莫伦茨 Bill Melendez   K5 s2 b' U4 A+ t1 h" U
       丹尼尔·安德森 Daniel Anderson 7 C8 |, a4 ]) r  W2 w8 S
       Scott Beach , X* _3 Q$ }  G9 Q$ f9 D
       Lee Mendelson 5 u" K: s" H" ^, f, g, ~8 J
       Evert Brown ! |: S' S5 W2 ^* e

2 N# Y4 S  V" D3 ~. J' S; K◎简  介   
. Y; ^, |) ~9 N3 }" }/ C  n+ ^. w  h3 L6 q) x7 M
  描述查理布朗和小狗史诺比等一群朋友,以交换学生身份前往法国留学,由于文化背景和生活习惯不同,产生了很多欧洲风味的笑料,相当幽默逗趣。) a" R. e4 ]% `8 |% i9 |
! C6 |3 z. T: d) s" X" @# y
  Charlie Brown and his friends travel to Europe as exchange students.
6 \& }# r  o9 R+ p& E; s; R1 J! f8 d
Video
/ H: P! W( j8 z" l" BID                                       : 1
4 N0 d; E* z2 Y# X" N# V( vFormat                                   : AVC1 m! ]2 n. }- ]3 t! P
Format/Info                              : Advanced Video Codec; ^: i  Y5 @: u# ?
Format profile                           : [email protected]
3 d$ k. Z& N! K2 Q1 \& WFormat settings                          : CABAC / 4 Ref Frames: V  W* b8 Q: `) A8 k
Format settings, CABAC                   : Yes
7 o/ |' `9 u3 n2 i9 k) g) L7 i( AFormat settings, Reference frames        : 4 frames
$ |' h- W9 C: S, {0 [) u! hCodec ID                                 : V_MPEG4/ISO/AVC5 a* Z1 U% u& k
Duration                                 : 1 h 15 min* y5 n6 G* i2 C6 ~% I1 N: e# v% V
Bit rate                                 : 11.5 Mb/s
+ }* j9 o! _9 R1 R5 [Width                                    : 1 920 pixels
' G: s. ~5 t- D0 K' QHeight                                   : 1 080 pixels5 {, |* d% M. u4 j5 W0 L
Display aspect ratio                     : 16:9
% m6 F  Y1 @3 p2 xFrame rate mode                          : Constant; m4 @: T9 @7 y) O* x# |6 {7 h
Frame rate                               : 23.976 (24000/1001/189150) FPS
/ n! ?& E+ ?7 a& Y7 ]Color space                              : YUV; w2 f* k, w' ]( L/ M: M4 v$ Y
Chroma subsampling                       : 4:2:0
7 Q4 h8 H5 o6 d  F, Z8 Q  jBit depth                                : 8 bits
6 R% |# a0 M1 _( y  XScan type                                : Progressive3 B2 C5 y' Y( s9 p  Z: w
Bits/(Pixel*Frame)                       : 0.2317 @) A0 I6 i# o: ?' T* D" p
Stream size                              : 6.10 GiB (88%)
5 K; g' R7 ^6 gWriting library                          : x264 core 148 r2795M aaa9aa8
& v, b( r$ ^5 F( b" b# J' A- b* E5 J# MEncoding settings                        : cabac=1 / ref=4 / deblock=1:1:1 / analyse=0x3:0x113 / me=umh / subme=8 / psy=1 / psy_rd=0.50:0.00 / mixed_ref=1 / me_range=32 / chroma_me=1 / trellis=2 / 8x8dct=1 / cqm=0 / deadzone=21,11 / fast_pskip=1 / chroma_qp_offset=-2 / threads=34 / lookahead_threads=3 / sliced_threads=0 / nr=0 / decimate=1 / interlaced=0 / bluray_compat=0 / constrained_intra=0 / bframes=3 / b_pyramid=2 / b_adapt=1 / b_bias=0 / direct=3 / weightb=1 / open_gop=0 / weightp=2 / keyint=240 / keyint_min=24 / scenecut=40 / intra_refresh=0 / rc_lookahead=50 / rc=2pass / mbtree=1 / bitrate=11500 / ratetol=1.0 / qcomp=0.60 / qpmin=0 / qpmax=69 / qpstep=4 / cplxblur=20.0 / qblur=0.5 / vbv_maxrate=31250 / vbv_bufsize=31250 / nal_hrd=none / filler=0 / ip_ratio=1.40 / aq=3:0.60
9 m( @! a3 f# m5 t$ w4 L' bLanguage                                 : English: H; c+ F4 p9 @- X* e
Default                                  : Yes* R" E  z4 J- c. h
Forced                                   : No
1 ]# v0 H! o: \+ z$ K" R+ G, z9 W( @  f6 X+ f
Audio
$ ], I+ H5 X: A% Q( z1 wID                                       : 2
4 G* L8 F' L! J- M# e; Y6 QFormat                                   : DTS
2 P4 x7 x0 c2 e4 ~5 I+ NFormat/Info                              : Digital Theater Systems$ f; r" R" _* x5 O0 l' H
Codec ID                                 : A_DTS
4 V5 D6 ]1 v- l5 [Duration                                 : 1 h 15 min
: P; V: @8 A/ RBit rate mode                            : Constant
0 h1 ]' C: Y. C  a  B" c8 ~Bit rate                                 : 1 509 kb/s
( F0 K9 i* X# V0 I' gChannel(s)                               : 2 channels! P: f+ s' @# i. y- P- c
Channel layout                           : L R
# w( l) D, G- R/ }+ F$ Y5 \; ]Sampling rate                            : 48.0 kHz
6 Z: z8 d2 o" x  @9 L8 v6 [  }' [Frame rate                               : 93.750 FPS (512 SPF)/ ?. }3 J2 z8 o! o% G0 @
Bit depth                                : 16 bits; V+ i: u' E3 W. ?& ~" q7 k# [
Compression mode                         : Lossy
2 `) X, N7 A5 M- A+ ^7 }2 s, vStream size                              : 820 MiB (12%)
! K. j# g, p6 R+ B/ RLanguage                                 : English: w. F' k$ w& @* `$ m; ~" @$ h$ Y4 N) z
Default                                  : Yes
# b8 e4 m, L! Y3 eForced                                   : No5 O9 v; x  U! q
! i3 I' E. ?, W8 |- n4 X7 m
Text #11 k; U. T3 ]5 {
ID                                       : 3
2 u; \* m" y/ VFormat                                   : UTF-8
; |+ \/ g0 b% ?; @" G9 Q  |; ECodec ID                                 : S_TEXT/UTF8
6 a6 C' W6 S; }Codec ID/Info                            : UTF-8 Plain Text  s2 l( x) y# g( v
Duration                                 : 1 h 11 min
( P0 W. O/ o7 ?Bit rate                                 : 48 b/s1 i6 m0 K! s  O4 K6 s% k
Count of elements                        : 723' S* Q/ `8 ~0 `+ _! M- }
Stream size                              : 25.6 KiB (0%)
1 ~7 o( y! L+ ?: m4 V. r) |  tLanguage                                 : English
; {7 h, o  p# Z: \Default                                  : Yes8 c4 p9 ]8 W+ T# Z6 f! f6 l0 Q4 a
Forced                                   : No
% k3 I) s5 _5 a8 P) ?
8 F" d  O0 `: @$ ]: NText #2
0 S& m% l9 P  o4 E( q3 ZID                                       : 4
1 X' v9 ~% Q5 cFormat                                   : UTF-8
7 b9 ^0 I& U& j$ ?3 K5 w. V) ZCodec ID                                 : S_TEXT/UTF87 ?' }# R2 ?% S1 F
Codec ID/Info                            : UTF-8 Plain Text  |4 l' w5 v" n& s1 i5 {6 b
Duration                                 : 1 h 14 min
( V* y5 ]$ ?( u- {; `Bit rate                                 : 52 b/s* G# F2 _8 s; e& a8 q
Count of elements                        : 876
) j" P3 x( ~$ {* d7 ]Stream size                              : 28.6 KiB (0%)- C* F. ?; s4 n- p0 Z
Title                                    : SDH+ C5 p* g7 A  P
Language                                 : English; S% Y, X: i4 n6 P6 F) q; T
Default                                  : No. I* C* \8 @6 L/ ~1 z2 D) C3 B( M' G
Forced                                   : No  |, |& t' N5 e

8 b( {) S# e0 U* x, w8 _& YMenu
( Z$ C7 @, O5 q; K4 q/ U* i4 ]00:00:00.000                             : en:Chapter 01
. p# {. L! a5 r# e3 I7 H00:06:57.333                             : en:Chapter 02
+ E  E; b3 F$ M# l) J: s) v9 R( E00:15:40.731                             : en:Chapter 03; u$ x$ w! V' W% |& P# O7 i
00:21:31.373                             : en:Chapter 04
% G5 X* c5 `7 q& S3 c8 j. I00:26:36.886                             : en:Chapter 05; G' D4 k/ A. R; A2 N/ N! d7 w
00:32:02.337                             : en:Chapter 06
3 H: C) s! V  }( u# N3 s00:37:07.683                             : en:Chapter 07
% s# G2 ~+ G6 \! ?) K3 g+ h2 U00:45:18.424                             : en:Chapter 08
, P8 c& R: z" g- a! h00:53:48.934                             : en:Chapter 09. s; n/ c9 b- c; U. I; C& H( C8 L
01:00:31.669                             : en:Chapter 10
& k# f7 N$ Q* X% g. z* w01:09:18.612                             : en:Chapter 11
* Y- G5 D5 k# T+ @
游客,查看本帖隐藏内容请回复 | 加入VIP可免积分免回复 了解详情 | 还不是会员:点击获取邀请码 Invitation Code

相关帖子

31

主题

2259

帖子

1万

积分

Sponsor

金币
1593 枚
体力
6232 点
QQ
shiji1973 发表于 2022-4-2 09:29:01 | 显示全部楼层
感谢分享精彩电影

本版积分规则

小黑屋|Archiver|蓝光电影资源网

GMT+8, 2022-8-15 04:52

Copyright © Tencent Cloud.

快速回复 返回顶部 返回列表