BluRayCD Forum

 找回密码
 立即注册【分享大片】
查看: 27|回复: 0
收起左侧

[动漫动画] 超神传说虚月童子 原始剧场版 Urotsukidoji Legend Of The Overfiend 1989 1080p BluRaycd x264-DERANGED 6.56GB

[复制链接]

1万

主题

1万

帖子

12万

积分

Post Share

金币
24000 枚
体力
24786 点

卓越贡献勋章

mvods 发表于 2022-4-2 21:19:02 | 显示全部楼层 |阅读模式

  m& @% N/ \# G: X& v* w6 k0 f. v$ g
◎译  名 超神传说虚月童子 原始剧场版/超神传说童子3 H( q- G% D* Z! ^9 H6 e# R
◎片  名 超神伝説うろつき童子 オリジナル劇場公開版 / Chôjin densetsu Urotsukidôji / Urotsukidōji: Legend of the Overfiend
, @4 @& c6 v  Z! w2 Y2 ]* l◎年  代 19894 Q8 v# K1 R. v4 N; M
◎产  地 日本4 I6 l( L; q, A
◎类  别 动画/恐怖/奇幻
# [- ]. P. d% S* [" f◎语  言 日语2 R( C3 \0 V9 s' u. C3 n$ B
◎上映日期 1989-03-18(日本)/1989-09-16. ?* h% q& F- W9 p+ }
◎IMDb评分  6.3/10 from 3,237 users0 |8 ]3 |. K$ z
◎IMDb链接  https://www.imdb.com/title/tt0108461/
2 N# ~9 e6 S! l, o+ {◎豆瓣评分 7.6/10 from 191 users. R5 q: m% z$ o* {2 n5 ?
◎豆瓣链接 https://movie.douban.com/subject/2078396/
/ v1 U( G! l0 ?- u6 c0 q0 w◎片  长 1 h 46 min
  d: O6 O1 U/ U# l: U◎导  演 高山秀樹
; [- R" E$ {/ b& {◎编  剧 前田俊夫 Toshio Maeda
$ W) d$ g: _0 T, p◎主  演 高田由美 Yumi Takada" j" W, X) r/ Z' z8 t
       山寺宏一 Kôichi Yamadera3 r6 u8 q8 ?( K) A) x. {2 x- c% w
       若本规夫 Norio Wakamoto" b: d3 _0 z0 L0 P
       铃置洋孝 Hirotaka Suzuoki
. x" c3 y! [; x0 d1 E+ T       松本保典 Yasunori Matsumoto
# n  n$ `! S5 f1 D3 s3 \( R       乡里大辅 Daisuke Gôri- F# t1 C- g# S0 G% M8 l. u7 k$ B- r4 Z

9 C  |+ E: \( U- k" e2 H( k◎标  签 超神传说 | 超神伝说 | 动画 | 日本动漫 | 想看 | 日本动画 | 日本 | H+ T  F/ E+ j) _; O; z* _% Z$ t4 I
0 U1 O, h- i* K2 U* f; o% y1 y9 K1 G
◎简  介   
' \' V0 E$ X6 u  r' k
& B% m0 y. d1 j6 A( d$ M  预言指出人界、魔界、兽人界将随着超神的出现,合而为一并创造永远的国度,天邪鬼为了确保这三个世界能顺利融合,踏上寻找超神的旅程。
- e& r" f2 o2 ^! s5 s# a8 g* t0 x3 ], z0 L) u6 d1 I
  The relative coexistence of the human world, demon world and beast world is soon to be disrupted by The Overfiend, an immensely powerful demon who'll be reborn after 3000 years to remake the world to his own liking.
+ E( O9 B  c+ U1 o$ \4 A& M
Video  ?5 a0 u) ?) z- t1 ~# l- t) r% n
ID                                       : 1
) _; Q3 e* K& q* dFormat                                   : AVC5 V' m/ P6 G$ R8 M- S
Format/Info                              : Advanced Video Codec
& M2 b, B* ^' Q. p" dFormat profile                           : [email protected]
, e# G6 [# i" s+ |Format settings                          : CABAC / 4 Ref Frames
9 K+ R0 t% p9 e6 ^  z2 kFormat settings, CABAC                   : Yes
/ I! \' U2 H4 m1 G& v4 P/ FFormat settings, Reference frames        : 4 frames7 P) j* }$ D6 A! U! ^7 f4 h# ?
Codec ID                                 : V_MPEG4/ISO/AVC' y; o6 Y( c- g4 K! N  }! k( y
Duration                                 : 1 h 46 min
6 ~# I5 _! }, T) `; UBit rate                                 : 7 539 kb/s8 {( s) b2 W) P1 B5 p, N
Width                                    : 1 920 pixels2 y/ j9 d$ Q# S5 w
Height                                   : 1 080 pixels
/ \  D$ B0 D+ ^Display aspect ratio                     : 16:9: e3 o" C3 L6 [: H2 l7 [
Frame rate mode                          : Constant
2 T  L- S8 [0 QFrame rate                               : 23.976 (24000/1001) FPS
: ~; v- _% o/ y6 xColor space                              : YUV1 v; i/ B+ p9 F
Chroma subsampling                       : 4:2:0* u! Z* @" f& Q+ r& B- h
Bit depth                                : 8 bits
# V- d/ t1 y0 T* [$ i3 v  {$ eScan type                                : Progressive& R1 b  V, V$ H. q! I0 R
Bits/(Pixel*Frame)                       : 0.152
8 H& j1 b, R; N9 O# T/ tStream size                              : 5.48 GiB (83%)8 F( F7 O! W) H
Writing library                          : x264 core 120 r2120 0c7dab9
* q$ F" k' w) _' m& tEncoding settings                        : cabac=1 / ref=4 / deblock=1:0:0 / analyse=0x3:0x133 / me=umh / subme=8 / psy=1 / psy_rd=1.00:0.00 / mixed_ref=1 / me_range=16 / chroma_me=1 / trellis=1 / 8x8dct=1 / cqm=0 / deadzone=21,11 / fast_pskip=0 / chroma_qp_offset=-2 / threads=16 / sliced_threads=0 / nr=0 / decimate=1 / interlaced=0 / bluray_compat=0 / constrained_intra=0 / bframes=3 / b_pyramid=2 / b_adapt=1 / b_bias=0 / direct=1 / weightb=1 / open_gop=0 / weightp=2 / keyint=250 / keyint_min=23 / scenecut=40 / intra_refresh=0 / rc_lookahead=40 / rc=2pass / mbtree=1 / bitrate=7539 / ratetol=1.0 / qcomp=0.60 / qpmin=10 / qpmax=51 / qpstep=4 / cplxblur=20.0 / qblur=0.5 / ip_ratio=1.40 / aq=1:1.00
  s6 O0 f* |# iDefault                                  : No( B/ g) e7 U2 N2 o6 y. u7 x
Forced                                   : No4 w& X- w; C0 O! _! C* k8 ~, t

" X& h) Y( {4 RAudio #16 V( F: f' h* k4 {. Z6 N+ n% N2 n
ID                                       : 2* |) ]7 C3 k# Y, q
Format                                   : AC-39 v$ \( B; t& f" W& ~6 z
Format/Info                              : Audio Coding 3
- W& b2 u0 {% @4 DCommercial name                          : Dolby Digital8 H1 R2 \! |! @) I+ n6 g
Codec ID                                 : A_AC3
& ]) y' t5 l0 ?  ]Duration                                 : 1 h 46 min. p" l* Q2 B! @1 a
Bit rate mode                            : Constant
3 \: U) d: z3 fBit rate                                 : 640 kb/s. m% _6 D+ b% ^" D
Channel(s)                               : 2 channels
1 [# M6 t" K" u/ O( U& W& _* m& i: IChannel layout                           : L R) L# |# h! u  X
Sampling rate                            : 48.0 kHz
- ~& J7 Z0 W9 X! z  k( A( a- PFrame rate                               : 31.250 FPS (1536 SPF)
* P0 n7 }+ e" A! `. M- MBit depth                                : 16 bits  L9 `' G* X" q9 J6 a, b
Compression mode                         : Lossy; ?# m, m$ e* v' _
Stream size                              : 487 MiB (7%)% j$ j( X6 D9 v( Z
Service kind                             : Complete Main
/ M% ]. S3 N6 [; v3 `% c' G, p' mDefault                                  : Yes4 _* E2 f, B: H6 S& e& p/ q, J9 G
Forced                                   : No+ t( S$ c2 ^0 w* c9 t& }

- f, v# B! t; N* h' EAudio #2) q4 d; }2 C: Z% n( `. n( G/ B
ID                                       : 3
* S: K+ F. X& `* J, H' mFormat                                   : AC-3
; S! k5 c8 u. X6 qFormat/Info                              : Audio Coding 3
5 Q# [. G& d4 P1 S& LCommercial name                          : Dolby Digital
6 ^# d& S) R, j- P( fCodec ID                                 : A_AC3; t8 I1 v% V4 K2 v( o; j0 g
Duration                                 : 1 h 46 min
4 ~& A- v& _; c+ S2 K  K2 Y0 uBit rate mode                            : Constant" V* @- r% [4 t! x, A; K
Bit rate                                 : 640 kb/s
( _( j: ~, t$ tChannel(s)                               : 2 channels
6 [9 x* x( ]3 {2 ]' y' BChannel layout                           : L R0 v7 Z6 ]/ W- j
Sampling rate                            : 48.0 kHz
9 v7 S/ {& G5 z3 yFrame rate                               : 31.250 FPS (1536 SPF)
( w& ^6 F" J, m/ I( f& I- b* [Bit depth                                : 16 bits
0 t. ?$ W, }) K9 S4 `: Q0 Y$ M1 hCompression mode                         : Lossy) s* Z: u/ d+ G3 x, e6 Q0 B( [0 t
Stream size                              : 487 MiB (7%)
/ Q* N- E" E9 f/ h+ ^Service kind                             : Complete Main2 w5 v8 N% O- Z2 u
Default                                  : No
9 o: D* t: d0 x7 ]+ ~/ nForced                                   : No
! q( p% A2 B; F5 B: c) V, H' `/ @- r5 _* r  Y/ ]3 k3 a
Text
8 F( k% i3 p6 s! `+ XID                                       : 4
* P* w- V- ]# U# p/ m9 qFormat                                   : UTF-83 N( |. j& H$ a0 o
Codec ID                                 : S_TEXT/UTF8( A/ V8 _* Z' I2 n/ V& w; H7 ?9 z
Codec ID/Info                            : UTF-8 Plain Text  C: G7 i3 t  b) z
Default                                  : Yes
% w# [1 B/ n5 W( D2 x0 TForced                                   : No
% l% d9 \: M& Q" q9 s5 E! T' H
游客,查看本帖隐藏内容请回复 | 加入VIP可免积分免回复 了解详情 | 还不是会员:点击获取邀请码 Invitation Code

本版积分规则

小黑屋|Archiver|蓝光电影资源网

GMT+8, 2022-8-15 05:04

Copyright © Tencent Cloud.

快速回复 返回顶部 返回列表