BluRayCD Forum

 找回密码
 立即注册【分享大片】
查看: 17|回复: 0
收起左侧

[动漫动画] 死路寻死 Where the Dead Go to Die 2012 1080p BluRaycd x264 DD5.1-HANDJOB 7.75GB

[复制链接]

1万

主题

1万

帖子

12万

积分

Post Share

金币
23882 枚
体力
24613 点

卓越贡献勋章

mvods 发表于 2022-4-11 03:40:45 | 显示全部楼层 |阅读模式

# J. |5 r6 [1 p6 N) r# f' k* b8 X: |) Y' ]* o( @
◎译  名 死路寻死
4 X; {4 {$ @, i4 s0 N◎片  名 Where the Dead Go to Die 5 z0 M* y& @' t$ c! z
◎年  代 2012" O& M: v6 ?6 T( G4 n" A; a
◎产  地 美国
# a6 ?0 L3 \% k. }◎类  别 动画/奇幻/恐怖
8 R* l" n& h; h/ M8 Q3 D◎语  言 英语. p* S3 `9 T2 x6 g
◎上映日期 2012-01-27(英国)
4 w% i# [7 k+ W) C; W, H& A2 R◎IMDb评分  4.0/10 from 1,112 users! G0 c. j: p2 O9 ^
◎IMDb链接  https://www.imdb.com/title/tt2095004/" V6 W- n6 q9 A, ^! j
◎豆瓣评分 0/10 from 0 users9 v) R* Y3 W0 V
◎豆瓣链接 https://movie.douban.com/subject/10540224/4 Z( f$ j/ B0 o7 O1 x
◎片  长 1 h 35 min
( O2 B* \$ l, E5 g( @. |# s◎导  演 Jimmy ScreamerClauz
: [" \' P$ M" x2 {( {2 \◎编  剧 Jimmy ScreamerClauz
8 Y6 R4 ]$ D. t) z. Z7 l◎演  员 Ruby Larocca 0 t4 ]: ~% U2 Q9 _- K
       布兰登·萨拉格尔 Brandon Slagle
0 I/ T6 }8 z% i9 F4 Z. X* i! m8 w       Joey Smack3 D; i" m& ~+ Q. r' T
* L* Z( U# A: Y( c( \
◎简  介   ) v. D" W. g. q, ?3 F; n& R6 [
1 t  i2 ^* y9 Z4 e
  影片围绕这一组生活在黑暗中的问题少年而展开的,他们都被一只叫做Labby的会说话的狗所抓到,并且带着他们乘坐了不同时间和大小的地狱之车。在月食的夜晚,Labby告诉汤米他母亲腹中的是魔鬼的胎儿。同一个晚上,他试图帮助拉尔夫追求街对面的一个女孩,而那个女孩则很不情愿地生活在父亲的情色录像交易中。再加上一个生活在废弃教堂内的窃贼瘾君子……
' S" ]; O: j6 w- K3 r1 g$ ?  C! Z  @7 r7 B, _  k
  A troubled group of children living on the same block are haunted by a talking dog named Labby who brings them on surreal hell-rides between different dimensions and time periods.
% k  {5 L1 [9 k" Y
Video* T; I5 K, ]5 j* I+ B
ID                                       : 1
9 y& S, X  k7 J. e, d# \! qFormat                                   : AVC
7 Q( t: H) f7 pFormat/Info                              : Advanced Video Codec& X7 E5 b. j: E. ^
Format profile                           : [email protected]
" m+ `% T% K  _2 n! f- B" d4 LFormat settings                          : CABAC / 4 Ref Frames
: e% a  V7 }" @3 ^Format settings, CABAC                   : Yes
8 m& J3 m( d8 X( b& X6 C9 iFormat settings, Reference frames        : 4 frames
: Y$ u' W6 X  O0 eCodec ID                                 : V_MPEG4/ISO/AVC* k/ l+ N/ g; `! W* O
Duration                                 : 1 h 35 min3 I! R& S' B. {9 w# Y+ A7 b
Bit rate                                 : 11.1 Mb/s8 n4 ]  J/ A9 ^1 H8 s1 e
Width                                    : 1 920 pixels
4 S/ D5 o# i- {7 `/ h  pHeight                                   : 1 080 pixels8 `- W& ]3 T4 h* `8 \- K
Display aspect ratio                     : 16:9: m# `5 M: T' v
Frame rate mode                          : Constant. t$ G9 C3 a  m7 p. F7 f
Frame rate                               : 29.970 (30000/1001/189150) FPS0 M, G' W, |  {7 U' ^6 N
Color space                              : YUV7 ?/ T) w0 P/ s, f% }* B
Chroma subsampling                       : 4:2:0
4 f# j; _' g  E) e  Q( TBit depth                                : 8 bits0 U5 M9 {: ]) p5 B4 ]2 \) j
Scan type                                : Progressive
+ A. I# g5 n* H. r$ rBits/(Pixel*Frame)                       : 0.179: n% m* U, M: g% H
Stream size                              : 7.39 GiB (95%)5 h* m$ M, b2 e, `
Writing library                          : x264 core 164 r3065 ae03d92
6 y4 @2 h5 I7 O4 k/ @9 y# LEncoding settings                        : cabac=1 / ref=4 / deblock=1:-3:-3 / analyse=0x3:0x133 / me=umh / subme=10 / psy=1 / psy_rd=1.00:0.00 / mixed_ref=1 / me_range=32 / chroma_me=1 / trellis=2 / 8x8dct=1 / cqm=0 / deadzone=21,11 / fast_pskip=0 / chroma_qp_offset=-2 / threads=18 / lookahead_threads=4 / sliced_threads=0 / nr=0 / decimate=0 / interlaced=0 / bluray_compat=0 / constrained_intra=0 / bframes=16 / b_pyramid=2 / b_adapt=2 / b_bias=0 / direct=3 / weightb=1 / open_gop=0 / weightp=2 / keyint=300 / keyint_min=30 / scenecut=40 / intra_refresh=0 / rc_lookahead=60 / rc=crf / mbtree=0 / crf=18.0 / qcomp=0.60 / qpmin=0 / qpmax=69 / qpstep=4 / vbv_maxrate=62500 / vbv_bufsize=78125 / crf_max=0.0 / nal_hrd=none / filler=0 / ip_ratio=1.40 / pb_ratio=1.30 / aq=2:1.00: K; U" o$ |$ P6 I" D' z! a" @
Default                                  : Yes
; P' S5 o' i( U* K0 M$ a; rForced                                   : No+ z2 H9 T. O+ t4 B
Color range                              : Limited9 }, }& D6 i) o' h
Color primaries                          : BT.709- D! E- }* S; `4 I5 V
Transfer characteristics                 : BT.709
6 K+ |& k# A% o2 r( m9 e/ mMatrix coefficients                      : BT.709
7 j% o  G1 p8 n: P4 o5 e1 Y0 G( @/ M3 V: ~! C# }# u
Audio #1; q. K, e  a' s- |
ID                                       : 2
' T9 a  v( R$ @% Z& J/ s/ n! J( l, PFormat                                   : AC-3
  W0 m0 {3 f. e8 X3 [Format/Info                              : Audio Coding 35 i0 O& Y! k4 _- |$ A
Commercial name                          : Dolby Digital1 t3 h9 Z- I) j6 ~* {: x1 g0 Q
Codec ID                                 : A_AC3
% w' X( W' d) O. U1 C" PDuration                                 : 1 h 35 min
0 H# u) C, ]9 P# nBit rate mode                            : Constant5 b, t4 ?& G2 d! P
Bit rate                                 : 448 kb/s# j  \$ J# r9 d
Channel(s)                               : 6 channels
  R# p: |- P! z; I) p  E- }Channel layout                           : L R C LFE Ls Rs
) R! i4 E& U  I7 c7 N$ h# b2 QSampling rate                            : 48.0 kHz
+ C8 Y" s5 }( [8 ]Frame rate                               : 31.250 FPS (1536 SPF). d1 t9 @' x; P% o4 `7 j
Compression mode                         : Lossy" g3 K, ~5 h9 x) ^3 y" m
Stream size                              : 305 MiB (4%)
+ A$ X' b+ o9 L3 J1 D) nLanguage                                 : English
7 V7 E# N& Z1 d% P% O- Y1 J+ GService kind                             : Complete Main0 K$ [3 G4 R& A* A2 `! X
Default                                  : Yes
- x7 M0 m2 D- D5 U; mForced                                   : No( f/ ^1 H2 w: K  e
' `1 F* W+ O3 b$ B4 f+ b! G
Audio #2
" ]- I4 h  F3 i8 vID                                       : 3
% E4 o& E! O( H$ `3 E' P0 {. oFormat                                   : AAC LC
+ R. e) Q/ W1 n& @" h- JFormat/Info                              : Advanced Audio Codec Low Complexity
9 {' f4 X. x6 I1 k! tCodec ID                                 : A_AAC-2) u; R$ D" Y- x
Duration                                 : 1 h 35 min: z" k4 @, H* e/ j/ H- F
Bit rate                                 : 96.0 kb/s; B  S% A# J! e8 s8 Z
Channel(s)                               : 2 channels  u5 _  c4 _2 d/ ~$ Q1 A0 n) p
Channel layout                           : L R+ e' O0 \  h( n# A
Sampling rate                            : 48.0 kHz
/ O* _* Y0 E+ |5 fFrame rate                               : 46.875 FPS (1024 SPF)2 |* A/ t: G2 Z, Q
Compression mode                         : Lossy) @% @0 W8 W; S4 m
Delay relative to video                  : 9 ms8 W2 C* s" J* W5 p
Stream size                              : 65.3 MiB (1%)
/ O4 E: E8 {/ [" z- ~$ p$ q! kTitle                                    : Commentary by director Jimmy Screamerclauz
" \6 F! x  l3 m; F9 tLanguage                                 : English
2 `3 m. G8 d- t9 i. K" ]Default                                  : No: w# Y( b0 X  d/ {  f8 W
Forced                                   : No1 V& ~# S  p$ X. c+ M

; u( s/ m* W& b4 e* k" RMenu
' U; P$ s& E# {: }! F1 e00:00:00.000                             : en:Chapter 2% s5 K" S5 Z/ w7 @7 o/ b
00:01:14.575                             : en:Chapter 3* f) ^- P/ P# ]- c2 y
00:06:33.660                             : en:Chapter 46 s* G7 s+ X, ?: ^' U  D
00:09:12.652                             : en:Chapter 5
8 b3 S0 k. C: I7 l  ~00:11:30.657                             : en:Chapter 68 E( |6 k2 F2 l, o
00:16:33.392                             : en:Chapter 7
4 [, U$ f4 Z4 j# ]! P3 M00:20:15.314                             : en:Chapter 8& s( O# {  p2 v* V/ F  Q; a& Z
00:22:14.500                             : en:Chapter 9# q3 w7 a5 E6 A9 X0 N& d/ m8 i
00:24:27.199                             : en:Chapter 10: @! W3 j: \7 k  ?
00:29:23.962                             : en:Chapter 11
. |* Z- ]' ~# L" Y  _) K1 f00:31:38.730                             : en:Chapter 12
# K, N  G+ J5 `1 i7 M- I00:35:33.965                             : en:Chapter 13  C* V) @3 `0 R* Z: O5 ?/ H
00:48:19.697                             : en:Chapter 14
+ e: W$ B- h2 ?& y8 ^00:58:05.282                             : en:Chapter 15
" h- X: G' X* V" Z5 k- K& P01:09:38.541                             : en:Chapter 16; V* {3 t1 Y- _
01:19:56.292                             : en:Chapter 17
9 K$ S7 w6 Y% Z, I& \01:24:42.477                             : en:Chapter 18" |7 M' H9 G( U; R' e
01:32:50.331                             : en:Chapter 19
" z/ g) \3 ?/ ]! Y
游客,查看本帖隐藏内容请回复 | 加入VIP可免积分免回复 了解详情 | 还不是会员:点击获取邀请码 Invitation Code

本版积分规则

小黑屋|Archiver|蓝光电影资源网

GMT+8, 2022-8-10 00:37

Copyright © Tencent Cloud.

快速回复 返回顶部 返回列表