BluRayCD Forum

 找回密码
 立即注册【分享大片】
查看: 53|回复: 3
收起左侧

[科幻恐怖] 刀锋上的处女 Mondo Weirdo 1990 720p BluRaycd x264-PEGASUS 2.26GB

[复制链接]

1万

主题

387

回帖

12万

积分

Post Share

金币
3947 枚
体力
32369 点

卓越贡献勋章VIP蓝光勋章诚信会员勋章

mvods 发表于 2022-4-15 05:42:53 | 显示全部楼层 |阅读模式
01.jpg . E6 J  G' H* Q4 S
' p- Y3 Y6 E) c/ S, {- Y
◎译  名 刀锋上的处女
$ f" F9 X. A2 O3 Q& `◎片  名 Jungfrau am Abgrund / Mondo Weirdo / Virgin on the Edge# \7 J0 K/ i4 R
◎年  代 19904 G. \/ f7 Y7 x3 [$ D
◎产  地 奥地利/西德* K, n# c) A. Y8 z: E
◎类  别 剧情/悬疑/恐怖$ V. t/ Q( I1 M; a$ b7 w3 `
◎语  言 德语/英语$ e, v% I; B+ s# b6 g0 [
◎上映日期 1990 6 }9 S! N* W  N  [3 P
◎IMDb评分  5.7/10 from 4,276 users- ~& b! r) ^8 m* m/ C
◎IMDb链接  https://www.imdb.com/title/tt6874762/
! t# Z4 E+ E% ]2 c4 j2 G# y◎豆瓣评分 0/10 from 0 users( E% P$ O* n) m8 _" L: c
◎豆瓣链接 https://movie.douban.com/subject/3240599/9 C3 [" J0 t' n" k: g
◎片  长 56 min 52 s
! y0 k2 @) V, J* v4 h3 H) ~; ~◎导  演 Carl Andersen1 m; \0 l; G- @  ?
◎编  剧 Carl Andersen2 ?! q/ K6 k! @+ N" T" l/ w8 ?, v) y
◎主  演 Soledad Marceignac9 O0 Q% v& T8 G: m) {! i
       Frank Khunne9 v4 b7 L% K% t9 o* |$ z
       David Hollman. g; F, z; V% n1 q  r6 K7 v) Y+ h0 C
       Jessica F. Manera/ l( f: n! v% e
       Modell D'Oo
* D. }% l3 K1 K5 h  c/ Q       Ron Lourid7 Y0 [" U! p: M9 y, I; Q# [6 G

' t0 \2 n; F3 d! ]8 h' Z* D◎简  介   4 ?8 {3 f1 Q4 ]' e4 Z$ e$ g8 l
6 a9 o' h5 O4 n' F) C% R( @& r7 V, l
  Young girl becomes Alice in dreamland during menstruation. Wild dreams and nightmares about sexuality, vampirism, death, obsessions and other bizarre things.) ^9 Y. o  g; d/ h8 R1 L  ~9 y
Video
+ J. }# L8 i, OID                                       : 1/ \0 S! z6 K& c9 A2 j! k1 b' U
Format                                   : AVC
7 `* e4 ]# e  h0 V5 |. sFormat/Info                              : Advanced Video Codec3 o3 }: S4 Y& p- r4 s3 F
Format profile                           : [email protected]
0 ~  H) {' }) i& P6 \! z/ uFormat settings                          : CABAC / 11 Ref Frames; C9 d! o. X- D/ M; j4 J
Format settings, CABAC                   : Yes5 [( Q9 z/ [# ~) H0 @
Format settings, Reference frames        : 11 frames# m8 A4 y2 r8 ^$ T
Codec ID                                 : V_MPEG4/ISO/AVC/ |  g, g% \5 Q- ~
Duration                                 : 56 min 52 s! B) L+ X; v1 r9 i( S: ]" E  r" [( c
Bit rate                                 : 5 483 kb/s$ Z2 ?* O- a* V3 P8 O" F
Width                                    : 1 022 pixels3 _- B7 N+ U8 m! d$ \
Height                                   : 720 pixels
3 O* T6 U6 ]" R6 H: [Display aspect ratio                     : 1.419+ ~/ \. G. i9 N! X* }4 W
Frame rate mode                          : Constant
# C, `# h/ \3 v2 p* j* j& K' qFrame rate                               : 23.976 (24000/1001/189150) FPS0 c/ D6 ]1 o$ W* o- U
Color space                              : YUV
' T. {! t7 J6 c, H1 \7 q$ e* qChroma subsampling                       : 4:2:0
6 E. D# H& ?3 u4 I! ?/ {( g/ |( o5 q& uBit depth                                : 8 bits
' Q, O/ v6 ^6 n0 ^Scan type                                : Progressive
. \/ ^% W* \% i1 @  G' e0 V& U- OBits/(Pixel*Frame)                       : 0.311
. V* j) z# a- {Stream size                              : 2.18 GiB (97%)
! Y" b# _/ v+ t* pWriting library                          : x264 core 164 r3094 bfc87b7
. Q, X; t, K2 f9 jEncoding settings                        : cabac=1 / ref=11 / deblock=1:-3:-3 / analyse=0x3:0x133 / me=umh / subme=11 / psy=1 / psy_rd=1.02:0.00 / mixed_ref=1 / me_range=32 / chroma_me=1 / trellis=2 / 8x8dct=1 / cqm=0 / deadzone=21,11 / fast_pskip=0 / chroma_qp_offset=-2 / threads=22 / lookahead_threads=5 / sliced_threads=0 / nr=0 / decimate=0 / interlaced=0 / bluray_compat=0 / constrained_intra=0 / bframes=16 / b_pyramid=2 / b_adapt=2 / b_bias=0 / direct=3 / weightb=1 / open_gop=0 / weightp=2 / keyint=250 / keyint_min=23 / scenecut=40 / intra_refresh=0 / rc_lookahead=250 / rc=crf / mbtree=0 / crf=21.7 / qcomp=0.60 / qpmin=0 / qpmax=69 / qpstep=4 / vbv_maxrate=62500 / vbv_bufsize=78125 / crf_max=0.0 / nal_hrd=none / filler=0 / ip_ratio=1.30 / pb_ratio=1.20 / aq=3:0.80
# s% S! M$ n" f$ EDefault                                  : Yes
0 z- ]; ]1 H7 p5 h5 [Forced                                   : No0 e/ r  @  V2 T, o: Y4 \& C
Color range                              : Limited3 W  G9 N# o  I7 ^4 b$ b) n/ [
Color primaries                          : BT.709% E9 s! @1 S" X- H; d4 V
Matrix coefficients                      : BT.709
* G  K& Y6 T6 D2 g7 i
/ s# Q' C: b  J6 }; \Audio
1 p1 q6 ?$ ~1 k6 X* Y- m8 Z; q  FID                                       : 2
/ ?. @( h, H; p/ \4 v( BFormat                                   : AC-3
, n% G1 q3 u: n$ d! CFormat/Info                              : Audio Coding 3: z; u$ k! X0 B  P# d! R
Commercial name                          : Dolby Digital% z( d( I2 _$ p& X3 z' Z* w
Codec ID                                 : A_AC3* i$ p; H& a$ A  E" _
Duration                                 : 56 min 52 s
6 @1 H8 L, w  b% z! j; wBit rate mode                            : Constant
& G( m& Y' M  M6 RBit rate                                 : 192 kb/s+ J6 e0 k1 o- X  e" `% C
Channel(s)                               : 2 channels0 N* d$ Q+ x' ^6 }
Channel layout                           : L R
/ i4 B( t) |8 v+ x- ZSampling rate                            : 48.0 kHz
  b- j* i2 o, t- h2 |Frame rate                               : 31.250 FPS (1536 SPF)
3 ]& v) ?$ Z# S. d" F8 V: v3 ?  `Compression mode                         : Lossy/ ^+ e) ^9 t% |/ h' O
Stream size                              : 78.1 MiB (3%)
* H% M6 C. b: F- \/ mLanguage                                 : English
; I7 v6 ]7 m! y4 n9 i& }5 v; W! eService kind                             : Complete Main( `/ V; l) C5 ], {/ ~( g* X
Default                                  : Yes: N* m. }$ k4 y
Forced                                   : No
3 C- d/ E- D# d  \6 p
' X1 o# \0 ~. pMenu
. z4 y: F$ |' F9 {6 l00:00:00.000                             : :Chapter 01
* B1 I4 }4 J8 X0 _% x+ r7 e00:02:19.931                             : :Chapter 02
3 G7 f5 x( X5 R; W8 \00:06:16.251                             : :Chapter 03
' N% x& b, c8 Q, M: l" Y00:10:38.179                             : :Chapter 04' \+ ]& ]9 H+ m7 x
00:18:36.866                             : :Chapter 05- A" h, C" G" P* U
00:23:46.133                             : :Chapter 06, w5 I7 ^9 R# i9 A9 n6 }; V0 P
00:28:40.469                             : :Chapter 07
( b" z  F& c7 x2 ~# G9 p+ M; P- _00:34:57.220                             : :Chapter 08
8 f" A! a9 F& F2 H00:38:40.777                             : :Chapter 09
3 E' l- [* ^9 P3 X% A6 V00:43:12.632                             : :Chapter 10
, X: H! K5 M8 l& Z9 f0 v0 p+ K+ h4 k00:49:42.563                             : :Chapter 11
& |- \- Q, G) P: b$ r00:54:06.410                             : :Chapter 122 N( }; _& c; _3 f! e: ?
* q7 ]0 k! ^7 d4 W. ^, i) ?7 q- ~
Mondo.Weirdo.1990.720p.BluRayCD.x264-PEGASUS 2.26 GB
2 j. b4 X$ K( H3 t8 G/ a% Z2 u& S, _2 u* x# q% s
Genre: Drama Horror Mystery
" z1 x: V, ~+ H. I& C& T# u- GRelease Date: 04.2022
' L- o! j) I$ l. Z' DRuntime: 56  Min% X. a# ?& ?8 J5 m0 Y5 m
iMDB: https://www.imdb.com/title/tt0290910/8 f/ W  H5 U* V$ f, K4 w
iMDB Rating: 5.3
2 E; q+ H7 I# }& n" K+ DVideo: 1022x720p, 5483 kbps, CRF 21.7/ g4 F7 v! a  f$ y" i, k6 z
Audio: English Dolby Digital 2.0
. ^5 c( R6 g& U5 b7 OSource: 20000 kbps* U( A  p: O6 i1 r
Subtitles:
  N% h0 K7 z9 l$ }7 [  d
游客,查看本帖隐藏内容请回复 | 加入VIP可免积分免回复 了解详情 | 还不是会员:点击获取邀请码 Invitation Code

31

主题

4044

回帖

2万

积分

Sponsor

金币
3039 枚
体力
9707 点
QQ
shiji1973 发表于 2022-4-15 09:20:00 | 显示全部楼层
感谢分享精彩电影

0

主题

1683

回帖

6827

积分

Sponsor

金币
5 枚
体力
3001 点

VIP蓝光勋章

QQ
jiyugen8180 发表于 2022-4-16 10:25:20 | 显示全部楼层
感谢分享精彩电影感谢分享精彩电影

0

主题

175

回帖

1445

积分

Sponsor

金币
0 枚
体力
1000 点
QQ
hubing23 发表于 2023-4-9 21:23:30 | 显示全部楼层
找找电影看看,不知道这部怎么样

本版积分规则

小黑屋|手机版|Archiver|4K蓝光论坛

GMT+8, 2024-3-5 05:28

Copyright © 2001-2021, Gadaddy Cloud.

快速回复 返回顶部 返回列表